#TITLE:Rainbow Night,Sky Highway;
#SUBTITLE:;
#ARTIST:efry;
#TITLETRANSLIT:;
#SUBTITLETRANSLIT:;
#ARTISTTRANSLIT:;
#CREDIT:DigiMindAxel;
#BANNER:Rainbow Night,Sky Highway.png;
#BACKGROUND:Rainbow Night,Sky Highway-bg.png;
#LYRICSPATH:;
#CDTITLE:DigiMindAxel original simfile.png;
#MUSIC:Rainbow Night,Sky Highway.ogg;
#METERTYPE:DDR X;
#OFFSET:-0.131;
#SAMPLESTART:12.537;
#SAMPLELENGTH:12.000;
#SELECTABLE:YES;
#BPMS:0.000=174.000;
#STOPS:164.500=0.34482
,165.000=0.34482
,178.500=0.34482
,179.000=0.34482
;
#BGCHANGES:4.000=Rainbow Night Sky Highway.avi=1.000=1=1=0,
99999=-nosongbg-=1.000=0=0=0 // don't automatically add -songbackground-
;

//---------------dance-single - ----------------
#NOTES:
     dance-single:
     :
     Easy:
     5:
     0.204,0.254,0.040,0.048,0.000:
0000
0000
0000
0000
,
0000
0000
0000
0000
,
0000
0000
0000
0000
,
0000
0000
0000
0000
,
0000
0000
0000
0000
,
0000
0000
0000
0000
,
0000
0000
0000
0000
,
0000
0000
0000
0000
,
0000
0000
0000
0000
,
1001
0000
1000
0000
,
0001
0000
1000
0000
,
0100
0000
1000
0000
,
0010
0000
0100
0000
,
0001
0000
0100
0000
,
0010
0000
0100
0000
,
0001
0000
1000
0000
,
0100
0000
0010
0000
,
0001
0000
0100
0000
,
0001
0000
1000
0000
,
0100
0000
1000
0000
,
0010
0000
0100
0000
,
0010
0000
1000
0000
,
0100
0000
1000
0000
,
1001
0000
1001
0000
,
1001
0000
0000
0000
,
0001
0100
0001
0000
,
0100
0000
0010
0000
,
1000
0001
1000
0000
,
0100
0000
0010
0000
,
0001
0100
0001
0000
,
0100
0000
0010
0000
,
1000
0001
1000
0000
,
0100
0000
0010
0000
,
0001
0100
0001
0000
,
1000
0000
0100
0000
,
0010
0001
0010
0000
,
0001
0000
1000
0000
,
0100
1000
0100
0000
,
1000
0000
0001
0000
,
0100
0010
0100
0000
,
0001
1000
0001
1000
,
0100
0100
0010
0000
,
0010
0000
0001
0000
,
0001
0000
0100
0000
,
0010
0000
1000
1000
,
0100
0000
0010
0000
,
0001
1000
0001
0000
,
0200
0000
0000
0000
,
0310
0010
0010
0000
,
1000
0000
0001
0000
,
0100
0100
0100
0000
,
0001
0000
1000
0000
,
0010
0010
0010
0000
,
1000
0000
0001
0000
,
0100
0100
0100
0000
,
0001
0000
1000
0000
,
0100
0100
0100
0000
,
0010
0000
0001
0000
,
0100
0100
0100
0000
,
0010
0000
1000
0000
,
0001
0001
0001
0000
,
0010
0000
0100
0000
,
1000
1000
1000
0000
,
0100
0000
1000
0000
,
0020
0000
0130
0000
,
0002
0000
1003
0000
,
0200
0000
1300
0000
,
0020
0000
0130
0000
,
0001
1000
0001
0000
,
0100
0001
0100
0000
,
0001
1000
0001
0000
,
1000
0100
1000
0000
,
0001
1000
0001
0000
,
1000
0100
0010
0000
,
0001
0000
0001
0000
,
1001
0000
0100
0000
,
0010
0000
0001
0000
,
0100
0000
0010
0000
,
1000
0001
1000
0001
,
0200
0000
0000
0000
,
0310
0000
0000
0000
;

//---------------dance-single - ----------------
#NOTES:
     dance-single:
     :
     Medium:
     8:
     0.391,0.540,0.167,0.206,0.000: // measure 1
0000
0000
0000
0000
,  // measure 2
0000
0000
0000
0000
,  // measure 3
0000
0000
0000
0000
,  // measure 4
0000
0000
0000
0000
,  // measure 5
0000
0000
0000
0000
,  // measure 6
0000
0000
0000
0000
,  // measure 7
0000
0000
0000
0000
,  // measure 8
0000
0000
0000
0000
,  // measure 9
0000
0000
0000
0000
,  // measure 10
1001
0000
0000
1000
0000
0000
0000
0002
,  // measure 11
0000
0000
0103
0000
,  // measure 12
0010
0000
0000
1000
0000
0000
0000
0200
,  // measure 13
0000
0010
0310
0001
,  // measure 14
0100
0000
0000
0001
0000
0000
0000
0020
,  // measure 15
0000
0100
0130
1000
,  // measure 16
0001
0000
0000
0010
0000
0000
0000
0200
,  // measure 17
0000
1000
1300
0001
,  // measure 18
0010
0000
0000
0100
0000
0000
0000
2000
,  // measure 19
0000
0000
3010
0000
,  // measure 20
0100
0000
0000
0001
0000
0000
0000
2000
,  // measure 21
0000
0100
3100
0010
,  // measure 22
0001
0000
0000
1000
0000
0000
0000
0200
,  // measure 23
0000
0010
0310
0001
,  // measure 24
1000
0001
0000
0000
1001
0000
0010
0000
,  // measure 25
0220
0000
0000
0330
,  // measure 26
1001
0000
0001
0000
0010
0100
0010
0000
,  // measure 27
0001
0000
1000
0000
0010
1000
0010
0000
,  // measure 28
1000
0000
0010
0000
0100
0001
0100
0000
,  // measure 29
0010
0000
1000
0000
0100
0010
0100
0000
,  // measure 30
1000
0000
0001
0000
0010
0100
0010
0000
,  // measure 31
0001
0000
1000
0000
0010
1000
0010
0000
,  // measure 32
1000
0000
0100
0000
0010
0001
0010
0000
,  // measure 33
0100
0000
1000
0000
0001
0100
0001
0000
,  // measure 34
1000
0000
0001
0000
0010
0100
0010
0000
,  // measure 35
0001
0000
0100
0000
0010
0100
0010
0000
,  // measure 36
0100
0000
0001
0000
1000
0100
1000
0000
,  // measure 37
0001
0000
0010
0000
0100
1000
0100
0000
,  // measure 38
0010
0000
0001
0000
1000
0010
1000
0000
,  // measure 39
0001
0000
0010
0000
0100
1000
0100
0000
,  // measure 40
0010
0000
0001
0000
0100
0010
0100
0000
,  // measure 41
0001
1000
0001
0000
1000
0001
1000
0000
,  // measure 42
0001
0000
0000
0000
0200
0300
0000
0000
0202
0303
0000
0000
1001
0000
0000
0000
0000
0000
0000
0000
0000
0000
0000
0000
1000
0000
0000
0000
0000
0000
0000
0000
,  // measure 43
0100
0000
0010
0000
0100
1000
0000
1100
,  // measure 44
0000
0000
0000
1001
0000
0000
0001
0000
,  // measure 45
1000
0000
0000
0000
0000
0000
0000
0000
0001
0000
0000
0000
0000
0000
0000
0000
0100
0000
0000
0000
0020
0030
0000
0000
0220
0330
0000
0000
0002
0000
0000
0000
,  // measure 46
0000
1003
0010
0100
,  // measure 47
0010
1000
0010
0100
,  // measure 48
0002
0000
0000
0000
,  // measure 49
1003
1001
1001
0000
,  // measure 50
1000
0010
1000
0000
0001
1000
0001
0000
,  // measure 51
1000
0002
1003
0000
,  // measure 52
0001
0100
0001
0000
0100
0010
0100
0000
,  // measure 53
0001
0000
1000
0000
0001
1000
0010
0000
,  // measure 54
0100
0001
0100
0001
1000
0000
0001
1000
,  // measure 55
0002
0010
0010
0013
,  // measure 56
0100
1000
0010
0000
0100
0010
1000
0000
,  // measure 57
1001
1001
1001
0000
,  // measure 58
1000
0100
0010
0000
0001
1000
0001
0000
,  // measure 59
1000
0002
1003
0000
,  // measure 60
0001
0100
0010
0000
0100
0000
0001
0000
,  // measure 61
0020
0100
0230
0000
,  // measure 62
1300
0010
0100
0000
0010
0100
0001
0000
,  // measure 63
0010
0000
0100
1000
0100
0000
0010
0000
,  // measure 64
1002
0000
2003
0000
,  // measure 65
3001
1000
0001
0000
1000
0001
1000
0000
,  // measure 66
0100
0001
0100
1000
,  // measure 67
0001
1000
0001
0000
1000
0001
1000
0000
,  // measure 68
0001
0100
1000
0100
,  // measure 69
0001
1000
0001
0000
1000
0100
1000
0000
,  // measure 70
0001
0100
1000
0100
,  // measure 71
0001
1000
0001
0000
1000
0010
1000
0000
,  // measure 72
0001
0010
1000
0010
,  // measure 73
0001
0100
0001
0000
1000
0001
1000
0000
,  // measure 74
0010
0001
0010
1000
,  // measure 75
0001
1000
0000
0000
1001
0000
0000
0110
,  // measure 76
0000
0000
0110
0000
0100
0000
0100
0010
,  // measure 77
0100
0100
1001
0000
,  // measure 78
0001
0100
0001
0000
1000
0100
1000
0000
,  // measure 79
0100
1000
0001
0000
0010
0100
1000
0000
,  // measure 80
2002
0000
0000
3003
,  // measure 81
1001
0000
0000
0000
;

//---------------dance-single - ----------------
#NOTES:
     dance-single:
     :
     Hard:
     10:
     0.546,0.667,0.460,0.246,0.036: // measure 1
0000
0000
0000
0000
,  // measure 2
0000
0000
0000
0000
,  // measure 3
0000
0000
0000
0000
,  // measure 4
0000
0000
0000
0000
,  // measure 5
0000
0000
0000
0000
,  // measure 6
0000
0000
0000
0000
,  // measure 7
0000
0000
0000
0000
,  // measure 8
0000
0000
0000
0000
,  // measure 9
0000
0000
0000
0000
,  // measure 10
1001
0000
0000
0101
0000
0000
0000
2010
,  // measure 11
0000
0000
0001
0000
3001
0100
0001
0000
,  // measure 12
1001
0000
0000
0011
0000
0000
0000
1100
,  // measure 13
0000
0100
1000
0010
0000
0100
0001
0010
,  // measure 14
0100
0000
0000
1010
0000
0000
0000
0201
,  // measure 15
0000
0000
0010
0000
0310
1000
0010
0100
,  // measure 16
0001
0000
0000
1001
0000
0000
0000
0110
,  // measure 17
0000
0100
0010
0001
0000
1000
0100
0010
,  // measure 18
0100
0000
0000
1010
0000
0000
0000
0201
,  // measure 19
0000
0000
0010
0000
0310
1000
0001
0000
,  // measure 20
1001
0000
0000
0101
0000
0000
0000
1010
,  // measure 21
0000
0010
0100
0001
0000
0100
0010
1000
,  // measure 22
0100
0000
0000
1100
0000
0000
0000
0012
,  // measure 23
0000
0000
1000
0000
1003
0100
1000
0010
,  // measure 24
0100
0001
0000
0001
0000
0000
1000
0000
0100
0000
0010
0000
0100
0000
1000
0000
,  // measure 25
2002
0000
0000
3003
,  // measure 26
1001
0000
1001
0000
0001
0100
0010
2000
,  // measure 27
0000
0000
0001
0000
0000
3001
0010
0001
,  // measure 28
1000
0000
1100
0000
1000
0010
0100
0002
,  // measure 29
0000
0000
1000
1000
0000
1003
0100
0010
,  // measure 30
0100
0000
1100
0000
1000
0010
0100
0002
,  // measure 31
0000
0000
1000
0000
1003
0100
1000
0002
,  // measure 32
0000
0000
0013
0100
0010
0000
0001
1000
,  // measure 33
0010
0000
1001
0000
1000
0010
0100
0001
,  // measure 34
0100
0000
0110
0000
0010
0100
1000
0002
,  // measure 35
0000
0000
0010
0000
0000
0013
0100
1000
,  // measure 36
0001
0000
1001
0000
1000
0010
0100
0010
,  // measure 37
1000
0000
0001
2000
0000
0000
0000
3010
,  // measure 38
0100
0001
0010
0001
0100
0010
0000
0100
,  // measure 39
0001
0000
1001
0000
1000
0100
0010
0100
,  // measure 40
1000
0000
0010
0100
0000
0001
0010
0000
,  // measure 41
0100
1000
0100
1000
0100
0010
0100
0010
,  // measure 42
0001
0000
0000
0000
2002
3003
0000
0000
2002
3003
0000
0000
0120
0000
0000
0000
0000
0000
0000
0000
0000
0000
0000
0000
1000
0000
0000
0000
0000
0000
0000
0000
,  // measure 43
1000
0000
1030
0000
0001
1001
0000
1001
,  // measure 44
0000
0000
0000
0210
0000
0000
0001
0000
,  // measure 45
0001
0000
0000
0000
0000
0000
0000
0000
0301
0000
0000
0000
0000
0000
0000
0000
1000
0000
0000
0000
2002
3003
0000
0000
2002
3003
0000
0000
0020
0000
0000
0000
,  // measure 46
0000
0000
0130
0001
1000
0100
0010
0100
,  // measure 47
1000
0000
0010
1000
0001
0000
0010
0001
,  // measure 48
0200
0010
0010
0010
,  // measure 49
0310
1010
0110
0010
,  // measure 50
0010
1000
0100
0001
0100
1000
0010
0100
,  // measure 51
0001
0000
0000
0000
0100
0010
0100
0010
0100
0000
0000
0000
0001
0000
1000
0000
,  // measure 52
0010
0001
0010
1000
0001
0100
0001
0000
,  // measure 53
0010
0100
1000
1000
0001
0100
0010
0000
,  // measure 54
1000
0001
0010
1000
0010
0001
0100
0010
,  // measure 55
0100
0000
0001
0000
0001
0000
0001
0000
0001
0000
1000
0000
0001
1000
0001
0000
,  // measure 56
1000
0010
0100
0010
1000
0001
0010
0000
,  // measure 57
0110
0110
0110
0100
,  // measure 58
0100
1000
0001
0001
0010
0100
0010
0001
,  // measure 59
0100
0000
0000
0000
0010
0100
0010
0100
0010
0000
0000
0000
1000
0000
0001
0000
,  // measure 60
0010
0001
1000
0100
0010
0001
0100
0000
,  // measure 61
0010
0100
0001
0001
1000
0100
0010
0100
,  // measure 62
1000
0010
0001
0010
1000
0000
0001
0100
,  // measure 63
1000
0000
0100
0000
0001
0000
0100
0000
0010
0000
0100
0000
0001
1000
0001
1000
,  // measure 64
0001
1001
1002
0000
,  // measure 65
0013
0100
0010
0100
1000
0010
0100
0002
,  // measure 66
0000
1000
2003
0000
0000
3001
0010
0100
,  // measure 67
1000
0001
0100
0001
0001
0010
0100
2000
,  // measure 68
0000
0000
3001
0000
1000
0010
0100
0001
,  // measure 69
1000
0100
1000
0000
0001
0100
0010
0000
,  // measure 70
2000
0000
0000
0001
3002
0000
0000
0100
,  // measure 71
0103
0010
1000
0000
0100
1000
0001
0000
,  // measure 72
0010
0100
0010
0001
1000
0010
0000
1000
,  // measure 73
1001
0000
1001
0000
1001
0000
1000
0002
,  // measure 74
0000
0000
1003
0000
0001
0010
0100
1000
,  // measure 75
0001
1001
0000
0000
1001
0000
0000
1001
,  // measure 76
0000
0110
0110
0110
,  // measure 77
0110
0101
0110
1010
,  // measure 78
1000
0010
0100
0001
0010
0100
0010
0000
,  // measure 79
0001
0100
0010
1000
0100
0001
0100
1000
,  // measure 80
0010
0110
0110
0110
,  // measure 81
1001
0000
0000
0000
;

//---------------dance-single - ----------------
#NOTES:
     dance-single:
     :
     Challenge:
     13:
     0.671,0.826,0.397,0.421,0.258: // measure 1
0000
0000
0000
0000
,  // measure 2
0000
0000
0000
0000
,  // measure 3
0000
0000
0000
0000
,  // measure 4
0000
0000
0000
0000
,  // measure 5
0000
0000
0000
0000
,  // measure 6
0000
0000
0000
0000
,  // measure 7
0000
0000
0000
0000
,  // measure 8
0000
0000
0000
0000
,  // measure 9
0000
0000
0000
0000
,  // measure 10
0201
0000
0010
0320
0000
0000
1030
0002
,  // measure 11
0000
0000
0013
0000
1100
1000
0001
0000
,  // measure 12
0020
0000
0001
0032
0000
0000
0013
0100
,  // measure 13
0000
0000
1000
0010
1000
0000
0001
0000
0000
0000
0010
0001
0010
0000
0100
0000
,  // measure 14
2000
0000
0010
3020
0000
0000
1030
0002
,  // measure 15
0000
0000
0000
0000
1003
0000
0000
0001
0100
0000
0010
0000
1000
0000
0010
0000
,  // measure 16
0200
0000
0010
0320
0000
0000
1030
0002
,  // measure 17
0000
0013
0100
2000
0000
3010
0100
0001
,  // measure 18
2000
0000
0100
3200
0000
0000
0310
0002
,  // measure 19
0000
0000
0103
0000
0110
0010
1000
0000
,  // measure 20
0020
0000
0100
0230
0000
0000
0301
1000
,  // measure 21
0000
0000
0001
0010
0001
0000
1000
0000
0000
0000
0010
1000
0010
0000
0100
0000
,  // measure 22
0002
0000
1000
2003
0000
0000
3100
0020
,  // measure 23
0000
0000
0000
0000
0031
0000
0000
0010
0001
0000
0100
0000
0010
0000
1000
0000
,  // measure 24
0100
0010
0000
0010
0000
0000
0001
0000
0100
0000
0100
0000
0010
1000
0010
1000
,  // measure 25
0020
0000
0000
0030
,  // measure 26
1001
0000
1001
0000
1001
0001
1000
0200
,  // measure 27
0000
0010
0010
0000
0000
1300
0001
0010
,  // measure 28
0100
0000
1000
0000
1001
0000
0000
0000
0001
0100
0001
0000
0010
0000
0200
0000
,  // measure 29
0000
0000
1000
1000
0000
0310
1000
0001
,  // measure 30
0010
0000
0100
0000
0110
0000
0000
0000
1000
0010
1000
0000
0100
0000
0020
0000
,  // measure 31
0000
0000
0000
0031
1000
0100
0001
0100
,  // measure 32
1000
0000
0001
0000
1001
0000
0000
0000
0100
0001
0100
0000
0010
0000
1000
0000
,  // measure 33
0100
0000
0011
0000
0001
1000
0010
0001
,  // measure 34
0010
0000
1000
0000
1001
0000
0000
0000
0001
0100
0001
0000
1000
0000
0200
0000
,  // measure 35
0000
0000
0010
0000
0000
0310
0001
0100
,  // measure 36
0010
0000
1000
0000
1010
0000
0000
0000
0100
0010
0100
0000
0001
0000
1000
0000
,  // measure 37
0100
0000
0000
0000
0010
0000
0001
0000
1000
0000
0010
0000
1000
0000
0001
0010
,  // measure 38
0100
0000
1100
0000
1000
0100
0001
0100
,  // measure 39
1000
0000
0001
0000
0101
0000
0000
0000
0010
0100
0010
0000
1000
0000
0010
0000
,  // measure 40
0200
0000
0001
0001
0000
0000
0310
0000
,  // measure 41
1000
0100
0010
0001
1000
0100
0010
0001
,  // measure 42
0101
0000
0000
0000
0202
0303
0000
0000
0220
0330
0000
0000
1001
0000
0000
0000
1000
0000
0000
0000
0100
0000
0000
0000
0010
0000
0000
0000
0000
0000
0000
0000
,  // measure 43
0001
0010
0001
0000
1000
0000
0000
0000
1100
0000
1100
0000
0000
0000
1001
0000
,  // measure 44
0000
0200
0300
1001
0001
0010
0100
0010
,  // measure 45
0001
0000
0000
0000
0100
0000
0000
0000
0010
0000
0000
0000
0000
0000
0000
0000
1010
0000
0000
0000
2020
3030
0000
0000
0220
0330
0000
0000
2002
0000
0000
0000
,  // measure 46
3003
0000
0001
1000
0001
0000
0010
0000
1000
0000
0010
0000
0001
0000
1000
0000
,  // measure 47
0010
1000
1000
0100
0010
0001
0001
0100
,  // measure 48
0020
0100
0100
0130
,  // measure 49
1001
0000
0001
0000
0100
0000
0100
0000
0110
0000
0000
0000
0110
0000
0000
0010
,  // measure 50
1000
0000
0100
0000
0010
0000
0001
0100
0010
0000
0100
0000
0001
0000
1000
0000
,  // measure 51
0100
0000
0000
0000
0010
0100
0010
0100
0010
0000
0001
0000
0100
0000
0100
0000
,  // measure 52
0001
1000
0000
0010
0000
1000
0001
0000
0010
0100
0010
0100
0010
0000
0000
0000
,  // measure 53
0001
0000
0001
0000
0100
0000
0010
1000
0100
0000
0010
0000
0010
0000
0000
0000
,  // measure 54
0001
0100
0001
0100
0001
0100
0001
0000
1000
0001
1000
0000
0100
0000
0010
0000
,  // measure 55
0001
0000
1000
0000
1000
0000
1000
0000
1000
0000
0001
0000
0010
0100
0010
0000
,  // measure 56
0001
1000
0010
0000
0100
0000
0100
0000
0001
0010
0100
0000
1000
0000
0000
0000
,  // measure 57
1001
0000
0000
0000
1001
0000
0000
0000
1001
0000
0001
0000
0100
0010
0000
0010
,  // measure 58
1000
0000
0100
0000
0010
0100
0010
0100
0010
0000
0002
0000
0100
0000
0103
0000
,  // measure 59
0010
0000
1000
0000
0100
0010
0100
0010
0100
0000
1000
0000
0001
0000
0010
0100
,  // measure 60
1000
0000
0002
0000
0100
0000
0103
0000
0010
0000
1000
0100
0010
0000
0000
0000
,  // measure 61
0001
0000
0001
0000
0100
0010
1000
0000
0001
1000
0001
1000
0001
1000
0000
1000
,  // measure 62
0010
0000
0100
0001
0100
0001
1000
0000
0100
0000
0010
0000
0001
1000
0001
0000
,  // measure 63
0100
0000
0010
0000
0100
0000
0001
0100
0001
0000
1000
0000
0100
0010
0100
0010
,  // measure 64
0100
1001
1002
0000
,  // measure 65
1003
0010
0100
1000
0100
0010
1000
0002
,  // measure 66
0000
0100
0203
0000
0000
0301
0100
1000
,  // measure 67
0100
0000
0001
0000
1000
0000
0000
0000
0001
0100
0001
0000
0010
0000
0200
0000
,  // measure 68
0000
0000
0310
0000
0001
0010
1000
0010
,  // measure 69
0001
0000
1000
0000
0010
0000
0000
0000
1000
0010
1000
0000
0001
0000
0010
0000
,  // measure 70
0200
0000
0000
0010
0320
0000
0000
0001
,  // measure 71
0031
0000
1000
0000
0010
0000
0000
0000
0100
0010
0100
0000
0010
0000
1000
0000
,  // measure 72
0001
0000
0010
0000
0100
0000
0000
0000
1000
0001
1000
0000
0010
0000
0100
0000
,  // measure 73
1001
0000
1001
0000
1001
1000
0010
0200
,  // measure 74
0000
0000
0000
0000
0301
0000
0000
0000
1000
0000
0100
0000
0010
0001
0010
0001
,  // measure 75
0010
2002
3003
0000
2200
3300
0020
0200
,  // measure 76
0330
1001
1001
1001
,  // measure 77
1001
0011
1100
1001
,  // measure 78
0001
0100
1000
0001
0010
1000
0001
0000
,  // measure 79
1000
0000
0100
0000
0001
0000
0100
0000
1000
0001
1000
0001
1000
0100
1000
0100
,  // measure 80
1000
1001
1001
1001
,  // measure 81
0101
0000
0000
0000
;

//---------------dance-single - ----------------
#NOTES:
     dance-single:
     :
     Beginner:
     2:
     0.085,0.159,0.064,0.000,0.000:
0000
0000
0000
0000
,
0000
0000
0000
0000
,
0000
0000
0000
0000
,
0000
0000
0000
0000
,
0000
0000
0000
0000
,
0000
0000
0000
0000
,
0000
0000
0000
0000
,
0000
0000
0000
0000
,
0000
0000
0000
0000
,
1001
0000
0000
0000
,
1000
0000
0000
0000
,
0001
0000
0000
0000
,
1000
0000
0000
0000
,
1001
0000
0000
0000
,
0001
0000
0000
0000
,
1000
0000
0000
0000
,
0001
0000
0000
0000
,
0100
0000
0000
0000
,
0010
0000
0000
0000
,
0100
0000
0000
0000
,
0010
0000
0000
0000
,
1000
0000
0000
0000
,
0001
0000
0000
0000
,
1000
0000
0000
0000
,
0000
0000
0000
0000
,
1001
0000
0000
0000
,
0000
0000
0000
0000
,
0001
0000
0000
0000
,
0000
0000
0000
0000
,
1000
0000
0000
0000
,
0000
0000
0000
0000
,
0001
0000
0000
0000
,
0000
0000
0000
0000
,
1000
0000
0000
0000
,
0000
0000
0000
0000
,
0001
0000
0000
0000
,
0000
0000
0000
0000
,
1000
0000
0000
0000
,
0000
0000
0000
0000
,
0100
0000
0000
0000
,
0010
0000
0000
0000
,
0001
0000
1000
0000
,
0000
0000
0001
0000
,
0000
1000
0000
0000
,
0000
0000
0100
0000
,
0010
0000
0000
0000
,
0001
0000
0000
0000
,
0001
0000
0000
0000
,
1001
0000
0000
0000
,
1000
0000
0000
0000
,
0001
0000
0000
0000
,
0100
0000
0000
0000
,
0001
0000
0000
0000
,
0010
0000
0000
0000
,
0100
0000
0000
0000
,
1000
0000
0000
0000
,
1001
0000
0000
0000
,
0001
0000
0000
0000
,
0100
0000
0000
0000
,
0010
0000
0000
0000
,
0100
0000
0000
0000
,
0001
0000
0000
0000
,
1000
0000
0000
0000
,
1001
0000
0000
0000
,
0001
0000
0000
0000
,
0010
0000
0000
0000
,
0100
0000
0000
0000
,
0010
0000
0000
0000
,
0100
0000
0000
0000
,
1000
0000
0000
0000
,
0001
0000
0000
0000
,
0100
0000
0000
0000
,
0110
0000
0000
0000
,
0010
0000
0000
0000
,
1000
0000
0000
0000
,
0000
0000
0000
0000
,
0001
0000
1000
0000
,
0001
0000
1000
0000
,
0001
0000
0001
0000
,
0001
0000
0000
0000
,
1001
0000
0000
0000
;
