#TITLE:RIDE ON NOW!;
#SUBTITLE:;
#ARTIST:さつき が てんこもり feat.un:c;
#TITLETRANSLIT:;
#SUBTITLETRANSLIT:;
#ARTISTTRANSLIT:SATSUKI GA TENKOMORI feat.un.c;
#CREDIT:DigiMindAxel;
#BANNER:RIDE ON NOW!.png;
#BACKGROUND:RIDE ON NOW!-bg.png;
#LYRICSPATH:;
#CDTITLE:CROSSxBEATS.png;
#MUSIC:RIDE ON NOW!.ogg;
#METERTYPE:DDR X;
#OFFSET:-8.737;
#SAMPLESTART:47.735;
#SAMPLELENGTH:12.000;
#SELECTABLE:YES;
#BPMS:0.000=132.000;
#STOPS:;
#BGCHANGES:;

//---------------dance-single - ----------------
#NOTES:
     dance-single:
     :
     Easy:
     4:
     0.234,0.254,0.090,0.321,0.000:
1000
0000
0100
0000
,
1000
0000
0100
0000
,
0010
0000
0010
0000
,
0220
0000
0000
0330
,
0010
0010
0010
0000
,
0100
0100
0100
0000
,
0010
0010
0010
0000
,
0100
0100
0100
0000
,
0001
0001
0001
0000
,
1000
1000
1000
0000
,
0001
0001
0001
0000
,
2000
0000
0000
3000
,
1001
0000
0010
0000
,
0100
1000
0100
0000
,
1001
0000
0001
0000
,
0100
0001
0100
0000
,
0110
0000
0010
0000
,
1000
0100
0010
0000
,
1001
0000
1000
0000
,
0001
0010
0100
0000
,
2002
0000
0000
0000
,
3003
0000
0000
0000
,
0210
0000
0320
0000
,
2030
0000
3020
0000
,
0230
0000
0320
0000
,
1030
0100
0010
0001
,
0200
0000
0302
0000
,
2003
0000
3002
0000
,
0023
0000
0032
0000
,
0103
0010
1000
0100
,
0020
0000
0032
0000
,
0203
0000
0320
0000
,
2030
0000
3200
0000
,
1300
0001
0010
0100
,
2000
0000
3020
0000
,
2030
0000
3002
0000
,
0023
0000
0032
0000
,
0103
0000
0000
0110
0000
0000
0000
0000
,
0020
0000
0000
0000
,
0230
0000
0000
0000
,
0320
0000
0000
0000
,
0230
0000
0000
0000
,
0320
0000
0000
0000
,
2030
0000
0000
0000
,
3002
0000
0000
0000
,
0003
0000
1000
1000
,
1001
0001
1000
0001
,
1000
0100
1000
0100
,
0010
0001
0010
0001
,
0100
0010
0100
0010
,
1000
0010
1000
0010
,
0100
0001
0100
0001
,
2000
0000
3002
0000
,
1003
0000
0000
1001
0000
0000
0000
0000
,
0110
0010
0010
0000
,
0100
0100
0100
0000
,
0010
0010
0010
0000
,
0100
0100
0100
0000
,
0001
1000
0100
0000
,
0010
0001
1000
0000
,
0100
0010
0001
0000
,
0020
0000
0100
0130
;

//---------------dance-single - ----------------
#NOTES:
     dance-single:
     :
     Medium:
     7:
     0.420,0.458,0.354,0.222,0.000:
1000
0001
0100
0001
,
1000
0100
0010
0001
,
2000
0000
3002
0000
,
1003
0000
0000
1001
0000
0000
0000
0000
,
0110
0000
0110
0000
0100
1000
0100
0000
,
1001
0000
1001
0000
0001
0100
0001
0000
,
1100
0000
1100
0000
0100
0010
0100
0000
,
1001
0000
1001
0000
0001
0010
0001
0000
,
0110
0000
0110
0000
0010
0100
1000
0000
,
0110
0000
0110
0000
0100
0010
0001
0000
,
1001
0000
1001
0000
0100
0010
1000
0010
,
0200
0000
0000
0300
,
0110
0000
0100
0000
1000
0010
0100
0000
,
0001
0100
0001
0100
0001
0000
1000
0000
,
0110
0000
0010
0000
0001
0100
0001
0100
,
0001
0010
0100
1000
,
1001
0000
0001
0000
0010
0100
1000
0000
,
0100
0000
0010
0000
0001
0100
0001
0100
,
0010
0000
1000
0000
0100
0010
0100
0010
,
0100
1000
0001
0101
,
0210
0010
0010
0010
,
0320
0100
0100
0130
,
1001
0000
0001
0100
0001
0000
1000
0001
,
1000
0000
0001
0100
0001
0000
1000
0001
,
1000
0000
0100
0010
0100
0010
0100
0000
,
1000
0100
0010
0001
1000
0000
0010
0000
,
0100
0010
0100
0000
0001
0010
0001
0000
,
0100
0010
0100
0000
0001
0010
0001
0000
,
1000
0000
0010
0100
0010
0100
0010
0000
,
1000
0100
0010
0001
0100
0000
0001
0000
,
1000
0100
1000
0000
0001
0100
0001
0000
,
1000
0100
1000
0000
0001
0100
0001
0000
,
0010
0000
0100
1000
0100
1000
0100
0000
,
0010
0001
0010
0100
1000
0000
0001
0000
,
0100
0010
0100
0000
0001
0010
0001
0000
,
0100
0010
0100
0000
0001
0010
0001
0000
,
1001
0100
0110
0010
,
1001
0000
0000
1001
0000
0000
0000
0000
,
2000
0000
3200
0000
,
2300
0000
3200
0000
,
0320
0000
0032
0000
,
0023
0000
0032
0000
,
0203
0000
0320
0000
,
0230
0000
0320
0000
,
0230
0000
0310
0000
,
0000
0100
0000
0100
0000
0010
0100
0000
,
1002
2003
3002
2003
,
3020
2030
3020
0230
,
0301
0000
0010
0000
0100
1000
0010
0000
,
0100
0000
0001
0000
0010
0100
1000
0000
,
0010
0100
0010
0100
0010
0100
0010
0000
,
1000
0001
1000
0001
1000
0001
1000
0000
,
0100
0000
0010
0001
0100
0000
0010
0000
,
1001
0000
0000
1001
0000
0000
0000
0000
,
0110
0000
0110
0000
0010
1000
0010
0000
,
1001
0000
1001
0000
0010
0001
0010
0000
,
0110
0000
0110
0000
1000
0100
0010
0000
,
1001
0000
1001
0000
0001
0100
0010
0000
,
1100
0000
1100
0000
0010
0001
0010
0100
,
1000
1010
0101
0110
,
1001
0000
1001
0000
0010
0001
0100
0010
,
2000
0000
0000
0000
3001
0001
1000
1000
;

//---------------dance-single - ----------------
#NOTES:
     dance-single:
     :
     Hard:
     10:
     0.543,0.509,0.395,0.304,0.090: // measure 1
1000
0010
1000
0000
0001
1000
0001
0000
,  // measure 2
1000
0100
0010
0000
0001
0100
0010
0000
,  // measure 3
2000
3100
0020
0130
,  // measure 4
1100
0000
0000
0110
0000
0000
0022
0000
0000
0000
0000
0000
0033
0000
0000
0000
,  // measure 5
0110
0000
0000
0000
0110
0000
0000
0000
0010
0000
1000
0010
1000
0000
0010
0000
,  // measure 6
1001
0000
1001
0000
0001
0100
0010
1000
,  // measure 7
0110
0000
0000
0000
0110
0000
0000
0000
0100
0000
0001
0100
0001
0000
0100
0000
,  // measure 8
1001
0000
1001
0000
1000
0001
0010
0100
,  // measure 9
1001
0000
0000
0000
1001
0000
0000
0000
0100
0000
0001
0010
0001
0000
0100
0000
,  // measure 10
1001
0000
1001
0000
0100
0010
0001
0100
,  // measure 11
0110
0000
0000
0000
0110
0000
0000
0000
0010
0000
1000
0100
1000
0000
0010
0000
,  // measure 12
0100
0100
0100
0001
1000
1000
1000
0000
,  // measure 13
1001
0001
1000
0100
0010
0001
0100
0000
,  // measure 14
0010
1000
1000
0001
0001
0010
0100
0000
,  // measure 15
1000
0001
1000
0010
0010
0100
0100
0000
,  // measure 16
0001
0010
0100
1000
1000
0010
0010
0000
,  // measure 17
1001
0001
0010
0100
1000
0001
0100
0000
,  // measure 18
0010
1000
1000
0100
0100
0010
0001
0000
,  // measure 19
0100
0001
1000
0100
0100
0010
0010
0001
,  // measure 20
0100
0010
1000
0000
0110
0000
0110
0000
,  // measure 21
1001
0001
1000
0001
1000
0001
1000
0001
,  // measure 22
1000
0100
0010
0100
0010
0100
0010
0001
,  // measure 23
2000
0000
3010
0100
0020
0000
0130
0001
,  // measure 24
0200
0000
0310
1000
0002
0000
0013
0100
,  // measure 25
0020
0000
0031
0010
0200
0000
1300
0010
,  // measure 26
0100
0000
0001
0000
0100
0000
0000
0100
0000
0000
0001
0000
1000
0000
0000
0000
,  // measure 27
1002
0000
1003
0001
2000
0000
3100
0010
,  // measure 28
0200
0000
1300
0010
2000
0000
3001
0010
,  // measure 29
0001
0000
0000
0100
0000
0000
0020
0000
0000
0000
1030
0000
0010
0000
1000
0000
,  // measure 30
0001
0010
0100
0010
0001
0000
0100
0000
,  // measure 31
1002
0000
0103
0010
2000
0000
3100
0010
,  // measure 32
0002
0000
0103
0001
0020
0000
0130
1000
,  // measure 33
0020
0000
1030
0100
0020
0000
0031
0100
,  // measure 34
0001
0000
0010
0000
0100
0000
0000
0100
0000
0000
1000
0000
0001
0000
0000
0000
,  // measure 35
0020
0000
0130
1000
0002
0000
1003
0100
,  // measure 36
0020
0000
0031
0100
0020
0000
0130
0000
,  // measure 37
1100
0000
0010
0001
1001
0000
0100
0000
,  // measure 38
0101
0000
0000
0110
0000
0000
2020
0000
0000
0000
0000
0000
3030
0000
0000
0000
,  // measure 39
1002
0000
2003
0000
,  // measure 40
3200
0000
0320
0000
,  // measure 41
0032
0000
2003
0000
,  // measure 42
3010
0000
0100
0000
0001
0000
0000
0001
0000
0000
0000
0000
1000
0000
0000
0000
,  // measure 43
1002
0000
2003
0000
,  // measure 44
3001
0010
0100
1000
,  // measure 45
0000
0010
0000
1000
0100
1000
0000
0000
,  // measure 46
0001
0000
0000
0100
0000
0000
0001
0000
1000
0001
1000
0001
1000
0000
0000
0000
,  // measure 47
0001
0100
0001
0100
1000
0100
1000
0100
,  // measure 48
0001
0010
0100
1000
0001
0010
0100
1000
,  // measure 49
0001
0010
0001
0010
1000
0010
1000
0010
,  // measure 50
0001
1000
0010
0100
0001
0000
0010
0000
,  // measure 51
0001
1000
0001
1000
0001
1000
0001
1000
,  // measure 52
0010
0100
0010
0100
0010
0100
0010
0100
,  // measure 53
0001
0100
1000
0100
0001
0100
0010
1000
,  // measure 54
1001
0000
0000
0110
0000
0000
2002
0000
0000
0000
0000
0000
3003
0000
0000
0000
,  // measure 55
1001
0000
0000
0000
1001
0000
0000
0000
0010
0000
1000
0100
1000
0000
0001
1000
,  // measure 56
0001
0000
1001
0000
0001
0010
0100
1000
,  // measure 57
1010
0000
0000
0000
1010
0000
0000
0000
0100
0000
0001
0010
0001
0000
1000
0001
,  // measure 58
1000
0000
1001
0000
1000
0001
0010
0100
,  // measure 59
1100
0000
0000
0000
1100
0000
0000
0000
0010
0000
0001
0100
0001
0000
1000
0100
,  // measure 60
1000
0000
1100
0000
0010
0001
1001
0000
,  // measure 61
0110
0000
0000
0000
0110
0000
0000
0000
0100
0000
0010
0001
0010
0000
0100
0010
,  // measure 62
0100
1000
1000
0010
0110
0100
0110
0010
;

//---------------dance-single - ----------------
#NOTES:
     dance-single:
     :
     Challenge:
     13:
     0.669,0.636,0.181,0.313,0.341: // measure 1
0110
0000
0010
0000
0100
0000
1000
0000
0001
0000
0000
0100
0000
0000
0001
0000
,  // measure 2
1000
0100
0010
0001
1000
0001
0100
0001
,  // measure 3
1000
0100
1000
0100
1000
0000
0000
0000
0010
0100
0010
0100
0010
0000
0000
0000
,  // measure 4
1001
0000
0000
0110
0000
0000
2002
0000
0000
0000
0000
0000
3003
0000
0000
0000
,  // measure 5
0110
0000
0000
0000
0010
0000
1000
0100
1000
0000
0010
0100
0001
0000
0100
0010
,  // measure 6
2000
0000
0001
0000
3001
0000
1000
0000
0100
0000
0010
0001
0010
0000
0001
1000
,  // measure 7
0001
0000
0000
0000
0200
0000
0001
0000
0301
0000
1000
0100
0010
0000
0100
1000
,  // measure 8
0020
0100
0130
0001
1000
0100
0010
0001
,  // measure 9
1001
0000
0000
0000
0010
0000
0100
0001
0100
0000
0001
0010
0100
0000
1000
0100
,  // measure 10
0020
0000
0001
0000
0031
0000
1000
0000
0100
0000
0010
0100
0010
0000
0001
1000
,  // measure 11
0001
0000
0000
0000
0200
0000
0001
0000
0301
0000
1000
0010
0100
0000
0010
0100
,  // measure 12
0001
1000
0001
1000
0001
0000
0100
0010
0100
0010
0100
0000
0110
0000
0000
0000
,  // measure 13
1000
0000
0010
0000
0100
0000
0001
0000
1000
0000
0010
0001
0010
0000
0100
0010
,  // measure 14
0100
0000
2000
0000
3010
0000
2000
0000
3010
0000
0100
0001
0010
0000
0200
0000
,  // measure 15
1300
0000
0001
0000
0100
0000
0020
0000
0130
0000
0001
0010
0001
0000
0100
0010
,  // measure 16
0100
0002
1003
0100
2000
0001
3002
1000
,  // measure 17
1003
0000
0001
0000
0010
0000
0100
0000
1000
0000
0001
0100
0001
0000
0010
0100
,  // measure 18
0010
0000
0002
0000
0103
0000
0002
0000
0103
0000
0001
1000
0100
0000
0020
0000
,  // measure 19
0130
0000
1000
0000
0001
0000
0100
0000
0010
0000
1000
0010
1000
0000
0001
1000
,  // measure 20
0001
2000
3100
0010
0002
0100
0203
0010
,  // measure 21
0310
1000
0100
0010
0001
1000
0100
0010
,  // measure 22
0001
0000
1000
0010
0000
1000
0010
0000
1000
0010
0000
1000
0010
0000
0000
0000
,  // measure 23
1001
0000
0001
0000
1000
0000
0100
0000
0010
0000
0100
0000
1000
0000
0001
0100
,  // measure 24
0001
1000
0001
0100
0010
0100
0001
0010
,  // measure 25
0100
1000
0100
0010
1000
0010
0001
1000
,  // measure 26
0001
0010
0100
1000
0001
0010
0100
0000
,  // measure 27
1001
0000
1000
0000
0010
0000
0100
0000
0010
0000
1000
0000
0001
0000
1000
0100
,  // measure 28
0010
0001
1000
0100
1000
0001
0100
0010
,  // measure 29
1000
0001
0010
0100
0001
0100
1000
0001
,  // measure 30
0100
0000
0001
1000
0001
0000
1000
0100
1000
0000
0010
0100
0020
0000
0000
0000
,  // measure 31
1030
0000
0001
0000
0010
0000
1000
0000
0010
0000
0001
0000
1000
0000
0010
1000
,  // measure 32
0010
1000
0001
0100
1000
0100
0001
0010
,  // measure 33
0100
1000
0010
0001
0010
0100
0001
1000
,  // measure 34
0100
0000
0010
0000
0001
0000
0000
0001
0000
0000
0100
0000
0010
0000
0100
0000
,  // measure 35
0001
0000
0010
0000
1000
0000
0010
0000
0001
0000
1000
0000
0010
0000
1000
0001
,  // measure 36
1000
0100
0001
0100
1000
0001
0010
0001
,  // measure 37
0101
0000
0010
0010
1001
0000
0100
0100
,  // measure 38
1001
0000
0000
0110
0000
0000
2002
0000
0000
0000
0000
0000
3003
0000
0000
0000
,  // measure 39
1002
0000
0203
0000
,  // measure 40
0302
0000
2003
0000
,  // measure 41
3010
0000
0000
0010
0000
0000
0010
0000
0100
0000
0000
0100
0000
0000
0100
0000
,  // measure 42
0001
0000
0010
0000
0100
0000
0000
0100
0000
0000
0000
0000
1000
0000
0001
0000
,  // measure 43
1000
0000
0000
0100
0000
0000
0010
0000
0001
0000
0000
0001
0000
0000
0001
0000
,  // measure 44
0100
0010
1000
0100
0010
0001
1000
0001
,  // measure 45
0000
0100
0000
0100
0010
0010
1000
0100
,  // measure 46
1000
0000
0000
0010
0000
0000
1000
0000
0001
1000
0001
1000
0001
0000
0000
0000
,  // measure 47
1001
0000
0100
0000
1000
0000
0100
0000
0001
0000
0100
0010
1000
0000
1000
0000
,  // measure 48
0001
0000
0010
0000
1000
0000
0010
0000
0001
0000
1000
0100
0010
0000
0010
0000
,  // measure 49
0001
0000
0100
0000
1000
0000
0100
0000
0001
0000
1000
0010
0100
0000
0100
0000
,  // measure 50
0001
0000
0010
0000
1000
0000
0010
0000
0001
0000
0100
0010
0000
1000
0000
0000
,  // measure 51
0001
0010
0100
1000
0001
0010
0100
1000
,  // measure 52
0001
0010
0100
0010
0001
1000
0010
1000
,  // measure 53
0100
1000
0100
1000
0100
1000
0100
1000
0010
0100
0010
0100
0010
0100
0010
0000
,  // measure 54
1001
0000
0000
0110
0000
0000
2002
0000
0000
0000
0000
0000
3003
0000
0000
0000
,  // measure 55
0110
0000
0000
0000
0100
0000
0010
0001
0010
0000
0100
1000
0010
0000
0100
0001
,  // measure 56
0020
0000
0100
0000
0130
0000
2000
0000
0010
0000
3010
0100
0001
0000
0010
0100
,  // measure 57
1000
0000
0000
0000
0002
0000
0010
0000
0013
0000
0100
1000
0010
0000
0100
0001
,  // measure 58
0020
0100
0130
1000
0100
0020
0031
0200
,  // measure 59
0310
0000
0000
0000
2000
0000
0001
0000
3001
0000
1000
0100
0010
0000
0001
0010
,  // measure 60
0200
0000
1000
0000
1300
0000
0010
0000
1000
0000
0001
0010
0001
0000
1000
0010
,  // measure 61
1000
0000
0000
0000
0200
0000
0010
0000
0310
0000
0001
0010
0100
0000
1000
0001
,  // measure 62
0100
0010
0100
0010
0100
0000
0001
0000
1001
0000
0100
0000
1001
0000
0100
0000
;

//---------------dance-double - ----------------
#NOTES:
     dance-double:
     :
     Easy:
     4:
     0.242,0.254,0.090,0.321,0.000:
10000000
00000000
00010000
00000000
,
10000000
00000000
00010000
00000000
,
10000000
00000000
10000000
00000000
,
20020000
00000000
00000000
30030000
,
10000000
01000000
10000000
00000000
,
00010000
01000000
00010000
00000000
,
10000000
00010000
10000000
00000000
,
00001000
00010000
00001000
00000000
,
00010000
00000010
00010000
00000000
,
00000010
00000100
00000010
00000000
,
00000100
00000001
00000100
00000000
,
00000002
00000000
00000000
00000003
,
00001001
00000000
00001000
00000000
,
00000010
00010000
00001000
00000000
,
01100000
00000000
01000000
00000000
,
00100000
10000000
00010000
00000000
,
10010000
00000000
10000000
00000000
,
01000000
00100000
00010000
00000000
,
10010000
00000000
00100000
00000000
,
01000000
10000000
00001000
00000000
,
00022000
00000000
00000000
00000000
,
00033000
00000000
00000000
00000000
,
00000210
00000000
00000320
00000000
,
00000230
00000000
00000302
00000000
,
00000023
00000000
00000230
00000000
,
00001300
00000100
00000010
00000001
,
00020000
00000000
00032000
00000000
,
02003000
00000000
03200000
00000000
,
20300000
00000000
30200000
00000000
,
01300000
00010000
00100000
01000000
,
20000000
00000000
30200000
00000000
,
20300000
00000000
30020000
00000000
,
02030000
00000000
03002000
00000000
,
00013000
00000100
00000010
00000001
,
00002000
00000000
00003020
00000000
,
00020030
00000000
00032000
00000000
,
00203000
00000000
02300000
00000000
,
13000000
00000000
00000000
10010000
00000000
00000000
00000000
00000000
,
20000000
00000000
00000000
00000000
,
30020000
00000000
00000000
00000000
,
20030000
00000000
00000000
00000000
,
30020000
00000000
00000000
00000000
,
20030000
00000000
00000000
00000000
,
32000000
00000000
00000000
00000000
,
03200000
00000000
00000000
00000000
,
00300000
00000000
00001000
00001000
,
00011000
00010000
00000010
00010000
,
00000010
00000100
00000001
00000100
,
00000001
00000010
00000100
00000010
,
00000100
00010000
00001000
00010000
,
00001000
01000000
00100000
01000000
,
00100000
10000000
01000000
00100000
,
00020000
00000000
20030000
00000000
,
30010000
00000000
00000000
10010000
00000000
00000000
00000000
00000000
,
01100000
00100000
01000000
00100000
,
01000000
00010000
01000000
00010000
,
00100000
00001000
00100000
00001000
,
00010000
00001000
00010000
00001000
,
00010000
00000100
00010000
00000100
,
00000010
00000001
00000100
00000010
,
00010000
00001000
00100000
01000000
,
20000000
00000000
00010000
30010000
;

//---------------dance-double - ----------------
#NOTES:
     dance-double:
     :
     Medium:
     7:
     0.429,0.458,0.469,0.132,0.000:
10000000
01000000
00100000
01000000
,
10000000
00001000
01000000
00001000
,
00011000
00000000
00000110
00000000
,
00001001
00000000
00000000
00001001
00000000
00000000
00000000
00000000
,
00000110
00000000
00000110
00000000
00000010
00000001
00000010
00000000
,
00010100
00000000
00010100
00000000
00010000
00001000
00010000
00000000
,
01001000
00000000
01001000
00000000
01000000
00100000
01000000
00000000
,
10010000
00000000
10010000
00000000
00010000
10000000
00010000
00000000
,
11000000
00000000
11000000
00000000
10000000
00010000
01000000
00000000
,
00011000
00000000
00011000
00000000
00001000
00010000
00000010
00000000
,
00000110
00000000
00000110
00000000
00000100
00000010
00000001
00000010
,
00000200
00000000
00000000
00000300
,
00001001
00000000
00000001
00000000
00000010
00000100
00001000
00000000
,
00010000
00001000
00010000
00001000
00100000
00000000
01000000
00000000
,
10010000
00000000
10000000
00000000
01000000
00100000
01000000
00100000
,
00010000
10000000
00001000
00010000
,
00011000
00000000
00001000
00000000
00010000
00000100
00000010
00000000
,
00000100
00000000
00010000
00000000
00000010
00000100
00000010
00000100
,
00000001
00000000
00000010
00000000
00000100
00010000
00000100
00010000
,
00001000
01000000
00100000
01100000
,
20010000
00010000
00010000
00010000
,
30010000
10000000
00010000
10000000
00010000
10000000
00010000
00000000
,
01100000
00000000
01000000
10000000
01000000
00000000
00100000
01000000
,
00100000
00000000
00001000
00100000
00001000
00000000
00010000
00001000
,
00010000
00000000
00000100
00000010
00000100
00000010
00000001
00000000
,
00000100
00000001
00000010
00000100
00010000
00000000
00001000
00000000
,
00100000
01000000
00100000
00000000
00010000
10000000
00010000
00000000
,
10000000
00100000
10000000
00000000
00001000
01000000
00001000
00000000
,
00010000
00000000
00000100
00000010
00000001
00000010
00000100
00000000
,
00010000
00001000
01000000
00100000
01000000
00000000
00100000
00000000
,
10000000
00010000
10000000
00000000
00100000
10000000
00100000
00000000
,
01000000
00010000
01000000
00000000
00001000
00010000
00001000
00000000
,
00010000
00000000
00000010
00000100
00000001
00000100
00000010
00000000
,
00010000
00001000
00100000
01000000
10000000
00000000
00100000
00000000
,
01000000
00100000
01000000
00000000
00100000
10000000
00100000
00000000
,
10000000
00010000
10000000
00000000
00001000
00100000
00001000
00000000
,
00011000
00010000
00000110
00000010
,
00001001
00000000
00000000
00001001
00000000
00000000
00000000
00000000
,
00000002
00000000
00000023
00000000
,
00000032
00000000
00020003
00000000
,
00030200
00000000
00020300
00000000
,
00032000
00000000
00203000
00000000
,
02300000
00000000
03200000
00000000
,
02300000
00000000
23000000
00000000
,
30020000
00000000
10030000
00000000
,
00000000
00010000
00000000
00010000
00000000
10000000
00010000
00000000
,
01010000
01010000
11000000
11000000
,
10001000
10001000
00011000
00011000
,
00010010
00000000
00000110
00000000
00000100
00000001
00000010
00000000
,
00010001
00000000
00010010
00000000
00010000
00001000
01000000
00000000
,
00100000
01000000
00100000
01000000
00100000
01000000
00100000
00000000
,
10000000
00010000
10000000
00010000
10000000
00010000
10000000
00000000
,
00010000
10000000
00010000
10000000
01000000
00100000
01000000
00000000
,
01100000
00000000
00000000
01100000
00000000
00000000
00000000
00000000
,
10010000
00000000
10010000
00000000
10000000
01000000
10000000
00000000
,
01100000
00000000
01100000
00000000
01000000
00001000
01000000
00000000
,
00011000
00000000
00011000
00000000
00010000
00000010
00000100
00000000
,
00000110
00000000
00000110
00000000
00000100
00000010
00000001
00000000
,
00010001
00000000
00010001
00000000
00010000
00001000
00100000
01000000
,
10000000
11000000
01100000
00101000
,
00011000
00000000
00010001
00000000
00000001
00000100
00000010
00010000
,
00002000
00000000
00000000
00000000
00103000
00100000
01000000
01000000
;

//---------------dance-double - ----------------
#NOTES:
     dance-double:
     :
     Hard:
     11:
     0.539,0.509,0.345,0.288,0.111:
01000000
00000000
00000000
00000000
10000000
00000000
01000000
00000000
00100000
00000000
00000000
00001000
00000000
00000000
00010000
00000000
,
00000010
00000100
00000010
00000000
00000100
00000001
00000010
00000000
,
00001100
00000000
00011000
00000000
,
01100000
00000000
00000000
10010000
00000000
00000000
02200000
00000000
00000000
00000000
00000000
00000000
03300000
00000000
00000000
00000000
,
10010000
00000000
00000000
00000000
10010000
00000000
00000000
00000000
10000000
00000000
00100000
01000000
00010000
00000000
00001000
00010000
,
00001000
00000000
00011000
00000000
00010000
00000100
00000010
00000001
,
00001001
00000000
00000000
00000000
00001001
00000000
00000000
00000000
00000001
00000000
00000010
00000100
00001000
00000000
00010000
00001000
,
00010000
00000000
00011000
00000000
00001000
00100000
01000000
10000000
,
10010000
00000000
00000000
00000000
10010000
00000000
00000000
00000000
10000000
00000000
00100000
01000000
00001000
00000000
00010000
00001000
,
00010000
00000000
00011000
00000000
00010000
00000010
00000100
00000001
,
00001001
00000000
00000000
00000000
00001001
00000000
00000000
00000000
00000001
00000000
00000010
00000100
00010000
00000000
00001000
00010000
,
00002000
00010000
00013000
01000000
00200000
01000000
01300000
00000000
,
00100000
01000000
00100000
10000000
00010000
01000000
10000000
00000000
,
01000000
00010000
00010000
00100000
00100000
00001000
00010000
00000000
,
00000100
00000010
00000100
00001000
00001000
00000010
00000010
00000000
,
00001000
00000010
00000001
00000010
00000010
00001000
00001000
00000100
,
00000010
00000001
00000100
00000001
00001000
00000100
00000001
00000000
,
00000100
00001000
00000001
00000010
00000100
00001000
00010000
00000000
,
01000000
00100000
01000000
00010000
00010000
10000000
10000000
01000000
,
00100000
00010000
01000000
00000000
10010000
00000000
10010000
00000000
,
10000000
01000000
00100000
00010000
00001000
00000100
00000010
00000001
,
00000100
00000010
00001000
00000100
00010000
00001000
01000000
00100000
,
02000000
00000000
03010000
00100000
02000000
00000000
13000000
00100000
,
02000000
00000000
03001000
00010000
00000200
00000000
00000310
00000001
,
00000200
00000000
00000301
00000010
00000100
00000010
00000001
00010000
,
00001000
00000000
00100000
00000000
10000000
00000000
00000000
00100000
00000000
00000000
00001000
00000000
00010000
00000000
00000000
00000000
,
00000210
00000000
00000301
00000010
00000200
00000000
00010300
00001000
,
00200000
00000000
01300000
10000000
00200000
00000000
01300000
00010000
,
00100000
00000000
00000000
01000000
00000000
00000000
20000000
00000000
00000000
00000000
30010000
00000000
10000000
00000000
01000000
00000000
,
10000000
00100000
01000000
00001000
00010000
00000000
00000010
00000000
,
00000210
00000000
00000301
00001000
00000200
00000000
00001300
00010000
,
00200000
00000000
01300000
10000000
00200000
00000000
01300000
00010000
,
20000000
00000000
30010000
00100000
01000000
00100000
00001000
00000000
,
00010000
00000000
00000010
00000000
00000000
00000001
00000000
00000000
00000010
00000000
00010000
00000000
00001000
00000000
00000000
00000000
,
02100000
00000000
03100000
10000000
02000000
00000000
03100000
00010000
,
20000000
00000000
31000000
00100000
00001000
00010000
00001000
00010000
,
00010010
00000010
00001001
00000100
,
00010100
00000000
00000000
00011000
00000000
00000000
02002000
00000000
00000000
00000000
00000000
00000000
03003000
00000000
00000000
00000000
,
01200000
00000000
02300000
00000000
,
03002000
00000000
00023000
00000000
,
00030200
00000000
00000320
00000000
,
00000031
00000000
00000100
00000000
00000010
00000000
00000000
00010000
00000000
00000000
00000000
00000000
00000000
00000000
00000000
00000000
,
02001000
00000000
03200000
00000000
,
01300000
00010000
00100000
01000000
,
00000000
10000000
00000000
10000000
00100000
00000000
01000000
00000000
,
00010000
00000000
00000000
00001000
00000000
00000000
00000010
00000000
00000100
00000010
00000100
00000010
00000100
00000000
00000000
00000000
,
00000001
00000100
00000001
00000100
00001000
00000100
00001000
00000100
,
00000001
00000010
00000100
00001000
00010000
00100000
01000000
10000000
,
00010000
00100000
00010000
00100000
10000000
00100000
10000000
00100000
,
00010000
10000000
01000000
00100000
00001000
00010000
00000100
00000000
,
00000010
00000001
00000010
00000001
00000010
00000001
00000010
00000001
,
00000100
00000010
00000100
00000010
00000100
00000010
00000100
00000010
,
00010000
00001000
01000000
00010000
00100000
00010000
10000000
00000000
,
10010000
00000000
00000000
01100000
00000000
00000000
20020000
00000000
00000000
00000000
00000000
00000000
30030000
00000000
00000000
00000000
,
10010000
00000000
00000000
00000000
10010000
00000000
00000000
00000000
10000000
00000000
01000000
00100000
00010000
00000000
00001000
00010000
,
00001000
00000000
00011000
00000000
00010000
00000010
00000100
00000001
,
00001001
00000000
00000000
00000000
00001001
00000000
00000000
00000000
00000001
00000000
00000010
00000100
00001000
00000000
00010000
00001000
,
00010000
00000000
00011000
00000000
00001000
10000000
00100000
01000000
,
01100000
00000000
00000000
00000000
01100000
00000000
00000000
00000000
10000000
00000000
00100000
01000000
00001000
00000000
00010000
00001000
,
00010000
00000000
00011000
00000000
00010000
00000010
00000100
00000001
,
00001001
00000000
00000000
00000000
00001001
00000000
00000000
00000000
00000001
00000000
00000010
00000100
00010000
00000000
00001000
00010000
,
00002000
01000000
01003000
00100000
10000000
10000000
00001000
00001000
;

//---------------dance-double - ----------------
#NOTES:
     dance-double:
     :
     Challenge:
     13:
     0.656,0.636,0.165,0.288,0.333:
10000000
00000000
00010000
00000000
10000000
00000000
01000000
00000000
00100000
00000000
00000000
00001000
00000000
00000000
00010000
00000000
,
00000100
00000010
00000001
00000100
00000010
00000100
00000001
00000010
,
00000100
00010000
00000100
00010000
00000100
00000000
00000000
00000000
00010000
00001000
00010000
00001000
00010000
00000000
00000000
00000000
,
00011000
00000000
00000000
01001000
00000000
00000000
02200000
00000000
00000000
00000000
00000000
00000000
03300000
00000000
00000000
00000000
,
10010000
00000000
00000000
00000000
10000000
00000000
00100000
01000000
00100000
00000000
10000000
01000000
00100000
00000000
00001000
00010000
,
00000020
00000000
00000100
00000000
00000130
00000000
00000001
00000000
00000001
00000000
00000010
00000100
00000010
00000000
00000001
00000100
,
00000010
00000000
00000000
00000000
00000200
00000000
00000001
00000000
00000301
00000000
00010000
00000100
00010000
00000000
00001000
01000000
,
00200000
01000000
01300000
00010000
00100000
01000000
10000000
00100000
,
01100000
00000000
00000000
00000000
01000000
00000000
00010000
00100000
00010000
00000000
00100000
00001000
00010000
00000000
00000100
00000010
,
00000002
00000000
00001000
00000000
00001003
00000000
00000010
00000000
00010000
00000000
00001000
00010000
00001000
00000000
00100000
01000000
,
10000000
00000000
00000000
00000000
00020000
00000000
01000000
00000000
01030000
00000000
00100000
10000000
00010000
00000000
00100000
00001000
,
00010000
00000000
00000000
00000000
00000000
00000000
00000000
00000000
00000001
00001000
00000001
00001000
00000001
00000000
00000000
00000000
,
00000100
00000000
00000001
00000000
00000100
00000000
00000001
00000000
00000010
00000000
00000100
00010000
00001000
00000000
00010000
00001000
,
00010000
00000000
00002000
00000000
01000000
00000000
02003000
00000000
00100000
00000000
03100000
01000000
00010000
00000000
00010000
00000000
,
01000000
00000000
00100000
00000000
10000000
00000000
00100000
00000000
01000000
00000000
00001000
00010000
00001000
00000000
00010000
00000010
,
00000100
00000002
00001000
00001003
00000020
00010000
00020030
00001000
,
00031000
00000000
00100000
00000000
01000000
00000000
00100000
00000000
00001000
00000000
00100000
00010000
00100000
00000000
00010000
01000000
,
00100000
00000000
20000000
00000000
00010000
00000000
30020000
00000000
00100000
00000000
00130000
01000000
10000000
00000000
00002000
00000000
,
01000000
00000000
01003000
00000000
00001000
00000000
00010000
00000000
00000100
00000000
00000010
00000001
00000010
00000000
00000001
00000010
,
00000100
00020000
00001000
00031000
00200000
00010000
00320000
10000000
,
10030000
00010000
00100000
01000000
10000000
01000000
00100000
00001000
,
00010000
00000000
00000100
00000010
00000000
00000100
00000010
00000000
00000100
00000010
00000000
00000100
00000010
00000000
00000000
00000000
,
00001001
00000000
00000001
00000000
00000100
00000000
00000010
00000000
00010000
00000000
00001000
00000000
01000000
00000000
00100000
01000000
,
00100000
10000000
01000000
00100000
10000000
00100000
01000000
10000000
,
00010000
01000000
00001000
00010000
00000100
00000010
00000001
00001000
,
00000100
00000100
00001000
00001000
00000010
00000100
00000010
00000000
,
00001001
00000000
00000001
00000000
00000100
00000000
00000010
00000000
00010000
00000000
00001000
00000000
00100000
00000000
01000000
10000000
,
01000000
10000000
00010000
01000000
00100000
00010000
00100000
01000000
,
00010000
00100000
00001000
00010000
00000100
00000010
00000001
00000100
,
00000001
00000000
00010000
00000100
00010000
00000000
00001000
00010000
00001000
00000000
01000000
00100000
01000000
00000000
00000000
00000000
,
10010000
00000000
10000000
00000000
01000000
00000000
00100000
00000000
00001000
00000000
00010000
00000000
00000100
00000000
00000010
00000100
,
00000010
00000001
00000100
00001000
00000100
00000001
00010000
00000010
,
00010000
00001000
00100000
01000000
00100000
00001000
10000000
00100000
,
10000000
00000000
00001000
00000000
00010000
00000000
00000000
00010000
00000000
00000000
00000100
00000000
00000010
00000000
00000100
00000000
,
00001000
00000000
00000010
00000000
00000001
00000000
00000010
00000000
00001000
00000000
00000100
00000000
00010000
00000000
00001000
00010000
,
00001000
00100000
01000000
00100000
00001000
00100000
10000000
00100000
,
00101000
00000000
00010000
00010000
00011000
00000000
00000010
00000010
,
00000110
00000000
00000000
00000101
00000000
00000000
00020020
00000000
00000000
00000000
00000000
00000000
00030030
00000000
00000000
00000000
,
00012000
00000000
00203000
00000000
,
02300000
00000000
23000000
00000000
,
30010000
00000000
00000000
00010000
00000000
00000000
00010000
00000000
01000000
00000000
00000000
01000000
00000000
00000000
01000000
00000000
,
00100000
00000000
10000000
00000000
00001000
00000000
00000000
00010000
00000000
00000000
00000000
00000000
00000010
00000000
00000100
00000000
,
00000010
00000000
00000000
00000100
00000000
00000000
00000001
00000000
00000010
00000000
00000000
00000010
00000000
00000000
00000010
00000000
,
00000100
00010000
00001000
00100000
10000000
00100000
00001000
00010000
,
00000000
00002000
00000000
01000000
01000000
02003000
00000000
00100000
,
03100000
00000000
00000000
10000000
00000000
00000000
00010000
00000000
00100000
01000000
00100000
01000000
00100000
00000000
01000000
00000000
,
10000000
00000000
00001000
00000000
01000000
00000000
00001000
00000000
00100000
00000000
00001000
00010000
00000010
00000000
00000010
00000000
,
00000100
00000000
00000001
00000000
00000010
00000000
00000100
00000000
00001000
00000000
00010000
00001000
01000000
00000000
01000000
00000000
,
00010000
00000000
10000000
00000000
00100000
00000000
01000000
00000000
00001000
00000000
00010000
00000010
00000100
00000000
00000100
00000000
,
00000001
00000000
00000010
00000000
00001000
00000000
00000010
00000000
00000001
00000000
00001000
00000010
00000000
00010000
00000000
00000000
,
00001000
01000000
00100000
01000000
00001000
10000000
01000000
00100000
,
00001000
00010000
00000010
00000100
00000010
00010000
00001000
00010000
,
00000001
00000100
00000001
00000100
00000001
00000100
00000001
00000100
00000001
00001000
00000001
00001000
00000001
00001000
00000001
00000000
,
00001001
00000000
00000000
00010100
00000000
00000000
00022000
00000000
00000000
00000000
00000000
00000000
00033000
00000000
00000000
00000000
,
00011000
00000000
00000000
00000000
00001000
00000000
01000000
00100000
01000000
00000000
00010000
00100000
01000000
00000000
10000000
00100000
,
02000000
00000000
00010000
00000000
03010000
00000000
00200000
00000000
00001000
00000000
00301000
00010000
00000100
00000000
00000010
00000001
,
00000100
00000000
00000000
00000000
00000002
00000000
00001000
00000000
00001003
00000000
00000001
00000100
00000010
00000000
00000100
00000010
,
00020000
00001000
00031000
01000000
00100000
10000000
01000000
00010000
,
01000000
00000000
00000000
00000000
20000000
00000000
00100000
00000000
30100000
00000000
01000000
00010000
10000000
00000000
01000000
10000000
,
00002000
00000000
00010000
00000000
00013000
00000000
00000010
00000000
00000100
00000000
00000001
00000100
00000001
00000000
00000010
00000100
,
00001000
00000000
00000000
00000000
00020000
00000000
00001000
00000000
00031000
00000000
00100000
01000000
10000000
00000000
01000000
00100000
,
00001000
01000000
00001000
01000000
00001000
00000000
00000000
00000000
00010010
00000000
00000010
00000000
00000110
00000000
00000100
00000000
;

//---------------dance-single - ----------------
#NOTES:
     dance-single:
     :
     Beginner:
     3:
     0.126,0.152,0.090,0.000,0.000:
1000
0000
0000
0000
,
0001
0000
0000
0000
,
1000
0000
0000
0000
,
1001
0000
0000
0000
,
0010
0000
0010
0000
,
0010
0000
0010
0000
,
0100
0000
0100
0000
,
0100
0000
0100
0000
,
0010
0000
0010
0000
,
0010
0000
0010
0000
,
0100
0000
0100
0000
,
0100
0000
0000
0000
,
1001
0000
0000
0000
,
0010
0000
0100
0000
,
1000
0000
0000
0000
,
0001
0000
0010
0000
,
0100
0000
0000
0000
,
1000
0000
0010
0000
,
0100
0000
0000
0000
,
0010
0000
0100
0000
,
0001
0000
0000
0000
,
0001
0000
0000
0000
,
1001
0000
0100
0000
,
0010
0000
0001
0000
,
1000
0000
0100
0000
,
0010
0000
0000
0000
,
1001
0000
0010
0000
,
0100
0000
1000
0000
,
0001
0000
0010
0000
,
0100
0000
0000
0000
,
1001
0000
0010
0000
,
0100
0000
0001
0000
,
1000
0000
0010
0000
,
0100
0000
0000
0000
,
1001
0000
0010
0000
,
0100
0000
1000
0000
,
0001
0000
0001
0000
,
1001
0000
0000
0000
,
0010
0000
0000
0000
,
0000
0000
0000
0000
,
0000
0000
0000
0000
,
0000
0000
0000
0000
,
0100
0000
0000
0000
,
0000
0000
0000
0000
,
1000
0000
0000
0000
,
0001
0000
0000
0000
,
1001
0000
0100
0000
,
0010
0000
0001
0000
,
1000
0000
0100
0000
,
0010
0000
0001
0000
,
1000
0000
0100
0000
,
0010
0000
0001
0000
,
1000
0000
0001
0000
,
1001
0000
0000
0000
,
0110
0000
0010
0000
,
0010
0000
0010
0000
,
0100
0000
0100
0000
,
0100
0000
0100
0000
,
0010
0000
0010
0000
,
0010
0000
0010
0000
,
0100
0000
0100
0000
,
0100
0000
0110
0000
;
