#TITLE:煉獄のエルフェリア;
#SUBTITLE:;
#ARTIST:猫叉Master+;
#TITLETRANSLIT:RENGOKU NO ELFERIA;
#SUBTITLETRANSLIT:;
#ARTISTTRANSLIT:Nekomata Master+;
#CREDIT:DigiMindAxel;
#BANNER:RENGOKU NO ELFERIA.png;
#BACKGROUND:RENGOKU NO ELFERIA-bg.png;
#LYRICSPATH:;
#CDTITLE:beatmania IIDX.png;
#MUSIC:RENGOKU NO ELFERIA.ogg;
#METERTYPE:DDR X;
#OFFSET:-8.395;
#SAMPLESTART:26.707;
#SAMPLELENGTH:12.000;
#SELECTABLE:YES;
#BPMS:0.000=183.000,232.000=91.500,248.000=183.000;
#STOPS:;
#BGCHANGES:;

//---------------dance-single - ----------------
#NOTES:
     dance-single:
     :
     Easy:
     6:
     0.264,0.389,0.072,0.200,0.000:
2002
0000
0000
0000
,
0000
0000
0000
0000
,
0000
0000
3003
0000
,
0000
0000
0000
0000
,
1000
0000
0001
0000
,
0010
0000
0001
1000
,
0100
0000
0010
0000
,
0001
0000
0100
0010
,
1000
0000
1000
0000
,
0001
0000
0001
0000
,
1000
0001
1000
0001
,
1000
1000
1000
1000
,
2002
0000
0000
0000
,
3003
0000
0000
0000
,
0001
0100
0001
0000
,
1000
0001
1000
0000
,
0100
0010
0100
0000
,
1000
0010
0100
0001
,
1000
0100
1000
0000
,
0001
1000
0001
0000
,
0010
0001
0100
0010
,
1000
0100
0010
0000
,
0001
1000
0001
0000
,
0100
0001
0100
0000
,
0001
0010
0001
0000
,
1000
0100
0010
0001
,
1000
0100
1000
0000
,
0010
0100
0010
0000
,
1000
0100
0010
0100
,
1000
0000
0001
0100
,
0010
0010
0000
0100
,
0100
0000
0000
0000
,
0001
0001
0000
1000
,
1000
0000
0000
0000
,
0001
0001
0000
1000
,
1000
0000
0000
0000
,
0100
0100
0000
0010
,
0010
0001
0010
0100
,
2002
0000
0000
0000
,
3003
0000
0000
0000
,
2002
0000
0000
0000
,
3003
0000
0000
0000
,
0001
0100
0010
0100
,
0001
1000
0200
0000
,
1300
0010
0100
0010
,
1000
0001
0020
0000
,
0031
0100
0010
0100
,
0001
0010
0200
0000
,
1300
0100
0010
0100
,
2000
3002
0203
0301
,
1000
0100
0010
0001
,
0010
0100
2000
0000
,
3001
0100
0010
1000
,
0010
0100
0002
0000
,
1003
0100
0010
0001
,
0010
0100
2000
0000
,
3001
0010
0100
1000
,
0001
0001
0100
0100
,
0220
0000
0330
0000
,
0000
0000
0000
0000
,
2002
0000
3003
0000
,
0000
0000
0000
0000
,
1001
0000
1000
0000
,
1000
0000
0001
1000
,
0100
0000
0100
0000
,
0100
0000
0010
0001
,
0100
0000
0100
0000
,
0100
0000
0010
1000
,
0001
0000
0001
0000
,
0001
0000
0001
0000
,
0010
0010
0000
0100
,
0100
0000
0000
0000
,
0010
0010
0000
0001
,
0001
0000
0000
0000
,
1000
1000
0000
0010
,
0010
0000
0000
0000
,
1000
1000
0000
0000
,
0000
0001
0010
0100
,
2002
0000
0000
0000
,
3003
0000
0001
0001
,
2002
0000
0000
0000
,
3003
0000
0000
0000
;

//---------------dance-single - ----------------
#NOTES:
     dance-single:
     :
     Medium:
     10:
     0.497,0.552,0.729,0.200,0.092: // measure 1
1001
0000
1000
0000
,  // measure 2
1000
0000
1000
0000
,  // measure 3
0001
0000
0001
0000
,  // measure 4
0001
0000
0001
0000
,  // measure 5
1000
0100
1000
0100
,  // measure 6
1000
0001
1000
0001
,  // measure 7
0100
0010
0100
0010
,  // measure 8
1000
0010
1000
0010
,  // measure 9
0100
0001
0010
0100
,  // measure 10
1000
0001
0010
0100
,  // measure 11
1000
0010
0100
0001
,  // measure 12
1000
0010
0100
0001
,  // measure 13
1001
2000
3002
0203
,  // measure 14
0320
0000
0100
0130
,  // measure 15
1001
1000
1100
1000
,  // measure 16
1001
0001
0101
0110
,  // measure 17
1010
1000
1100
0110
,  // measure 18
0012
0203
0320
2030
,  // measure 19
3001
0001
0011
0001
,  // measure 20
1001
0001
0011
1001
,  // measure 21
1010
0000
0000
0101
0000
0000
0110
0000
0000
0010
0000
1000
,  // measure 22
0010
0000
0000
0100
0000
0010
0100
0000
0000
0000
0000
0000
,  // measure 23
1001
1100
1001
0011
,  // measure 24
1001
0000
0000
1000
0000
0000
1010
0000
0000
0010
0000
0100
,  // measure 25
0010
0000
0000
0100
0000
0000
1001
0000
0000
0001
0000
0010
,  // measure 26
0002
0203
0320
2030
,  // measure 27
3001
0000
0000
0010
0000
0001
0010
0000
0000
0100
0000
1000
,  // measure 28
0100
0000
0000
0010
0000
0001
1000
0000
0000
1001
0000
0000
,  // measure 29
1100
1001
1010
0110
,  // measure 30
0101
0000
0000
0001
0000
1000
0001
0000
0000
0010
0000
0000
,  // measure 31
1100
1100
0000
0110
,  // measure 32
0110
0000
0000
0100
0000
0001
0010
0000
0001
0010
0000
0000
,  // measure 33
1001
1001
0000
1010
,  // measure 34
1010
0000
0000
1000
0000
0100
0010
0000
0100
0010
0000
0000
,  // measure 35
0101
0101
0000
1001
,  // measure 36
1001
0000
0000
1000
0000
0100
1000
0000
0100
1000
0000
0000
,  // measure 37
1100
1100
0000
1001
,  // measure 38
1001
0011
0110
1100
,  // measure 39
2001
0000
0001
0000
,  // measure 40
3001
0000
0001
1000
,  // measure 41
1002
0000
1000
0000
,  // measure 42
1003
0000
1000
0001
,  // measure 43
0100
0001
1000
0000
0100
1000
0100
0000
,  // measure 44
1000
0100
0010
0000
0101
0000
0110
0000
,  // measure 45
0010
1000
0100
0000
0010
0100
0010
0000
,  // measure 46
0001
1000
0100
0000
1100
0000
0110
0000
,  // measure 47
0010
0001
0100
0000
0010
0100
0010
0000
,  // measure 48
0100
0010
1000
0000
1010
0000
0110
0000
,  // measure 49
0100
0001
1000
0000
0100
0010
0100
0000
,  // measure 50
1100
0110
0011
1001
,  // measure 51
1000
0001
0100
0000
0001
1000
0100
0000
,  // measure 52
1000
0100
0010
0000
0011
0000
0110
0000
,  // measure 53
0100
1000
0010
0000
0100
0001
0010
0000
,  // measure 54
0001
0010
0100
0000
1100
0000
0110
0000
,  // measure 55
0010
0001
1000
0000
0010
0100
0001
0000
,  // measure 56
0100
0010
1000
0000
1010
0000
0110
0000
,  // measure 57
0100
0001
1000
0000
0100
0010
0001
0000
,  // measure 58
0011
0110
1100
1001
,  // measure 59
0120
0000
0230
0000
,  // measure 60
0302
0000
2003
0000
,  // measure 61
3002
0000
0023
0000
,  // measure 62
0230
0000
0000
0000
0320
0000
0000
0030
,  // measure 63
1001
0000
0001
0000
,  // measure 64
0010
0000
0010
0100
,  // measure 65
1000
0000
1000
0000
,  // measure 66
0010
0000
0010
0100
,  // measure 67
0001
0000
0001
0000
,  // measure 68
0010
0000
0010
0100
,  // measure 69
1000
0000
1000
0000
,  // measure 70
0010
0100
0001
0100
,  // measure 71
0110
0110
0000
1001
,  // measure 72
1001
0000
0000
0001
0000
0100
0010
0000
0100
0010
0000
0000
,  // measure 73
1100
1100
0000
0011
,  // measure 74
0011
0000
0000
0001
0000
1000
0010
0000
1000
0010
0000
0000
,  // measure 75
0110
0110
0000
1001
,  // measure 76
1001
0000
0000
1000
0000
0100
0010
0000
0100
0010
0000
0000
,  // measure 77
0011
0011
0000
1000
,  // measure 78
0001
0000
0000
1000
0000
0010
1000
0000
0001
0010
0000
0001
,  // measure 79
2000
0000
0000
0000
,  // measure 80
3000
0000
0110
0110
,  // measure 81
2002
0000
0000
0000
,  // measure 82
3003
0000
0000
0000
;

//---------------dance-single - ----------------
#NOTES:
     dance-single:
     :
     Hard:
     13:
     0.644,0.649,0.465,0.240,0.457: // measure 1
1001
0000
0000
1000
0000
0000
1000
0000
0000
1000
0000
0100
,  // measure 2
1000
0000
0000
0010
0000
0000
0010
0000
0100
0010
0000
0100
,  // measure 3
0010
0000
0000
0100
0000
0000
0100
0000
0000
0100
0000
0001
,  // measure 4
0100
0000
0000
0001
0000
1000
0001
0000
1000
0001
0000
0000
,  // measure 5
1001
1001
0100
1100
,  // measure 6
1001
0000
0000
1001
0000
0000
0001
0000
0100
0010
0000
0100
,  // measure 7
0010
1010
0010
0110
,  // measure 8
1001
0000
0000
0001
0000
0010
0001
0000
0010
0001
0000
0010
,  // measure 9
0100
1100
0100
0110
,  // measure 10
0100
0000
0000
1100
0000
0000
0100
0000
1000
0001
0000
0100
,  // measure 11
0001
0101
0100
0110
,  // measure 12
0100
0000
0000
1001
0000
1000
0001
0000
1000
0100
0000
1000
,  // measure 13
0200
0010
0010
0310
,  // measure 14
1002
0000
1000
1003
,  // measure 15
0101
0000
0000
0001
0000
1000
0100
0000
0000
0010
0000
0100
,  // measure 16
2000
0000
0000
0010
0000
0000
3010
0000
1000
0001
0000
1000
,  // measure 17
0020
0000
0000
0100
0000
0000
0130
0000
0001
0010
0000
0001
,  // measure 18
1000
0000
0100
1000
0000
0100
1000
0000
0010
0100
0000
0010
,  // measure 19
0200
0001
0302
1000
,  // measure 20
2003
0100
3100
1001
,  // measure 21
0011
0000
0000
0110
0000
0000
1100
0000
0000
1000
0100
1000
,  // measure 22
0010
0000
0000
0100
0001
0100
0010
0000
0000
0000
0000
0000
,  // measure 23
1001
0000
0000
0001
0000
0100
0010
0000
0000
0100
0000
0001
,  // measure 24
0010
0000
0000
0100
0000
1000
0010
0000
1000
0001
0000
1000
,  // measure 25
0002
0000
0000
0010
0000
0000
0013
0000
0100
1000
0000
0100
,  // measure 26
1000
0000
0001
0100
0000
0001
0100
0000
0001
1000
0000
0001
,  // measure 27
1000
0000
0000
0100
0000
0010
0100
0000
0000
1000
0000
0001
,  // measure 28
0100
0000
0000
0001
0000
1000
0100
0000
0000
1100
0000
0000
,  // measure 29
0110
0011
1001
1010
,  // measure 30
0101
0000
0000
0001
0100
0001
1000
0000
0000
1001
0000
0000
,  // measure 31
1100
2200
3300
1001
,  // measure 32
1001
0000
0000
0001
0010
0001
0010
0100
1000
0100
1000
0010
,  // measure 33
0100
0220
0330
1001
,  // measure 34
1001
0000
0000
1000
0010
1000
0010
0100
0001
0100
0001
1000
,  // measure 35
0100
2200
3300
0110
,  // measure 36
0110
0000
0000
0010
0001
0010
0001
0100
0010
0100
0010
1000
,  // measure 37
0100
2200
3300
0110
,  // measure 38
0110
0000
0000
0100
0000
0100
0001
0000
0001
1000
0000
1000
,  // measure 39
0200
0010
0010
0010
,  // measure 40
0310
0001
0011
0110
,  // measure 41
1200
1000
1000
1000
,  // measure 42
1300
0010
0101
1010
,  // measure 43
1000
0010
0100
0010
1000
0001
0010
0100
,  // measure 44
0010
0001
0100
0010
1000
0100
0001
0100
,  // measure 45
1000
0001
0010
0001
1000
0100
0010
1000
,  // measure 46
0010
0100
1000
0001
1000
0010
0001
0010
,  // measure 47
1000
0010
0100
1000
0100
0010
1000
0001
,  // measure 48
0100
0001
1000
0100
1000
0010
0001
0010
,  // measure 49
1000
0010
0100
0001
1000
0100
0010
0100
,  // measure 50
1000
0100
0000
0000
0010
0100
0000
0000
1000
0010
0000
0000
0100
0001
0000
0000
,  // measure 51
0010
0100
1000
0010
0001
0010
1000
0100
,  // measure 52
0010
0100
1000
0010
1000
0100
0001
0100
,  // measure 53
1000
0010
0100
0001
0100
0010
0001
0010
,  // measure 54
0100
0001
0100
0010
1000
0100
0001
0100
,  // measure 55
1000
0100
0010
0001
0100
0010
0001
0010
,  // measure 56
0100
0001
1000
0100
1000
0010
0001
0010
,  // measure 57
1000
0010
0100
0001
1000
0100
0001
0100
,  // measure 58
1000
0010
0000
0000
0100
0001
0000
0000
0010
0100
0000
0000
1000
0100
0000
0000
,  // measure 59
2002
0000
0000
0000
0000
0000
0000
0000
0000
0003
0000
0000
0200
0000
0000
0000
0000
0000
3300
0000
0010
0000
0001
0000
,  // measure 60
0200
0000
0000
0000
0320
0000
0130
0001
,  // measure 61
2001
0000
0000
0000
0000
0000
0020
0000
0000
3030
0100
0001
,  // measure 62
2000
0000
3200
2300
,  // measure 63
3001
0100
0001
0100
,  // measure 64
1000
0100
1000
0100
,  // measure 65
0001
0010
0001
0010
,  // measure 66
1000
0010
1000
0010
,  // measure 67
0001
0100
0001
0100
,  // measure 68
1000
0100
1000
0100
,  // measure 69
0001
0010
0001
0010
,  // measure 70
0100
1000
0001
0100
,  // measure 71
1001
0000
0000
1001
0000
0000
1000
0100
1000
0010
0000
0000
,  // measure 72
1010
0000
0000
0010
0100
0010
0100
0001
0010
0001
0010
0100
,  // measure 73
1000
0000
0000
1100
0000
0000
0100
1000
0010
0100
0000
0000
,  // measure 74
0110
0000
0000
0010
0100
0010
0100
0001
1000
0001
1000
0010
,  // measure 75
0100
0000
0000
0110
0000
0000
0010
0100
0001
0100
0000
0000
,  // measure 76
0101
0000
0000
0100
0010
0100
0010
1000
0100
1000
0100
0010
,  // measure 77
0001
0000
0000
0011
0000
0000
0010
0001
0010
0001
0100
0010
,  // measure 78
0100
0010
1000
0100
0000
1000
0100
0000
0100
0010
0000
0010
,  // measure 79
0002
0000
0000
0000
,  // measure 80
0003
0000
0000
0000
0000
0000
0101
0000
0100
0010
0000
0010
,  // measure 81
2000
0000
0000
0000
,  // measure 82
3000
0000
0000
0000
;

//---------------dance-single - ----------------
#NOTES:
     dance-single:
     :
     Challenge:
     15:
     0.809,0.843,0.312,0.360,0.997: // measure 1
1001
0000
0000
0001
0000
0000
0001
0000
0000
0001
0000
1000
,  // measure 2
0100
0000
0000
0100
0000
0000
0100
0000
0010
0001
0000
0010
,  // measure 3
0001
0000
0000
0100
0000
0000
0100
0000
0000
0100
0000
0010
,  // measure 4
1000
0000
0000
0001
0000
0010
0001
0010
0001
1000
0010
1000
,  // measure 5
0010
0000
0000
0110
0000
0000
0010
0000
0000
1010
0000
1000
,  // measure 6
0001
0000
0000
1001
0000
0000
1000
0000
0020
0130
0000
0020
,  // measure 7
0130
0000
0000
0101
0000
0000
0001
0000
0000
1001
0000
1000
,  // measure 8
0100
0000
0000
1100
0000
0010
0100
0010
0100
0001
0010
0100
,  // measure 9
1000
0000
0001
0100
0000
0000
0001
0000
1000
0100
0000
0000
,  // measure 10
1000
0000
0001
0100
0000
0000
0001
0000
2000
3100
0000
2000
,  // measure 11
3100
0000
0010
0100
0000
0000
1000
0000
0001
0100
0000
0000
,  // measure 12
0010
0000
1000
0100
0000
0020
0031
0000
0200
0310
0000
2000
,  // measure 13
3002
0000
0000
1003
0100
1000
0001
0100
0001
1000
0100
0010
,  // measure 14
0200
0000
0000
0000
0000
0000
1300
0100
0010
0001
0010
0100
,  // measure 15
1000
0000
0000
0010
1000
0001
0020
0000
0000
0031
0010
0001
,  // measure 16
0200
0000
0000
0010
0000
0000
0310
0000
1000
0100
0010
0001
,  // measure 17
0200
0000
0000
0010
0000
0000
0310
0000
1000
0001
0100
0010
,  // measure 18
1000
0000
1000
0010
0000
0010
0001
0000
0001
0010
0000
0010
,  // measure 19
1000
0000
0000
0010
0100
0010
2000
0000
0000
3001
0100
0001
,  // measure 20
0020
0000
0000
0130
0000
0000
1000
0000
1000
0010
0000
0010
,  // measure 21
0100
0000
0100
0001
0000
0001
1000
0000
1000
0001
0010
0100
,  // measure 22
0020
0000
0000
0031
0100
0010
1000
0001
0010
0100
0010
0001
,  // measure 23
2000
0000
0000
3100
0010
0001
0200
0000
0000
0310
1000
0100
,  // measure 24
0020
0000
0000
0031
0100
0010
1000
0000
0001
0100
0010
1000
,  // measure 25
0200
0000
0000
0010
0000
0000
0310
0000
0001
1000
0100
0010
,  // measure 26
0001
0000
0001
0100
0000
0100
1000
0000
1000
0100
0000
0100
,  // measure 27
0001
0000
0000
1000
0010
1000
0002
0000
0000
0013
0100
1000
,  // measure 28
0020
0000
0000
0130
0001
0010
0100
0000
0100
1000
0000
1000
,  // measure 29
0010
0000
0010
0001
0000
0001
0010
0000
0010
1000
0000
1000
,  // measure 30
0002
0000
0000
0013
0100
1000
0001
0100
0010
0100
0001
1000
,  // measure 31
1100
0000
0000
1100
0000
0000
0010
0001
1000
1010
0000
0000
,  // measure 32
1010
0000
0000
1000
0001
0100
1000
0001
0010
1000
0001
0010
,  // measure 33
0011
0000
0000
0011
0000
0000
0100
1000
0010
1010
0000
0000
,  // measure 34
1010
0000
0000
1000
0001
0100
1000
0001
0010
1000
0001
0010
,  // measure 35
0011
0000
0000
0011
0000
0000
0100
1000
0010
1010
0000
0000
,  // measure 36
1010
0000
0000
1000
0001
0100
1000
0001
0010
1000
0001
0100
,  // measure 37
0101
0000
0000
0101
0000
0000
0010
1000
0001
1001
0000
0000
,  // measure 38
1001
0000
0000
0001
0010
0001
0010
0100
0010
0100
1000
0100
,  // measure 39
2000
0000
0000
0001
0000
0001
0001
0000
0000
0001
0000
0001
,  // measure 40
3001
0000
0100
0010
0000
0100
0010
0000
0100
0010
0000
0100
,  // measure 41
0002
0000
0000
1000
0000
1000
1000
0000
0000
1000
0000
1000
,  // measure 42
1003
0000
0010
0100
0000
0010
0200
0000
0000
0302
0000
0000
,  // measure 43
1003
1000
0010
0010
0100
0001
1000
1000
,  // measure 44
0001
0000
0001
0000
0010
0000
0100
0000
1000
0010
1000
0010
0100
0000
0001
0000
,  // measure 45
1000
1000
0100
0100
0010
0001
1000
1000
,  // measure 46
0010
0000
0010
0000
0100
0000
0001
0000
0010
0100
0010
0100
1000
0000
0001
0000
,  // measure 47
0100
0100
0001
0001
0010
0100
1000
1000
,  // measure 48
0010
0000
0010
0000
0100
0000
0001
0000
1000
0100
1000
0100
0010
0000
0001
0000
,  // measure 49
1000
1000
0010
0010
0100
0001
1000
1000
,  // measure 50
0100
1000
0100
0000
0010
0100
0010
0000
0001
1000
0001
0000
1000
0010
1000
0000
,  // measure 51
0001
0100
1000
0100
0001
1000
0100
0001
,  // measure 52
1000
0000
0010
0000
0001
0000
1000
0000
0001
0100
0001
0100
0010
1000
0010
1000
,  // measure 53
0001
0010
1000
0010
0001
1000
0010
0001
,  // measure 54
1000
0000
0100
0000
0001
0000
1000
0000
0100
0010
0100
0010
0001
0100
0001
0100
,  // measure 55
0010
1000
0100
0010
0100
1000
0010
0001
,  // measure 56
0010
0000
1000
0000
0001
0000
1000
0000
0100
0010
0100
0010
0001
1000
0001
1000
,  // measure 57
0001
0100
0010
0001
0010
0100
0001
1000
,  // measure 58
0010
1000
0010
0000
0100
0001
0100
0000
0010
0100
0010
0000
1000
0001
1000
0000
,  // measure 59
2002
0000
0000
0000
0000
0000
0000
0000
0000
0003
0000
0000
0200
0000
0000
0000
0000
0000
3300
0000
2000
0000
3020
0000
,  // measure 60
0200
0000
0000
0030
0002
0300
2003
3200
,  // measure 61
0320
0000
0000
0000
0000
0000
0002
0000
0000
0030
0203
0320
,  // measure 62
2000
0000
0000
0030
0002
3000
0023
0000
,  // measure 63
0130
0000
0000
0100
0000
0100
1000
0000
0000
0010
0000
0010
,  // measure 64
0100
0000
0000
0001
0000
0001
1000
0100
1000
0100
0010
0001
,  // measure 65
0010
0000
0000
0010
0000
0010
0001
0000
0000
0100
0000
0100
,  // measure 66
0010
0000
0000
1000
0000
1000
0001
0100
0001
0100
0010
1000
,  // measure 67
0001
0000
0000
0001
0000
0001
0010
0000
0000
0100
0000
0100
,  // measure 68
0010
0000
0000
0001
0000
0001
0100
0000
0010
1000
0000
0010
,  // measure 69
1000
0001
1000
0001
0010
0100
0010
0100
1000
0010
1000
0010
,  // measure 70
0100
0001
0100
0001
0010
0100
1000
0100
0001
0100
1000
0010
,  // measure 71
0110
0000
0000
0110
0000
0000
0100
0001
1000
1100
0000
0000
,  // measure 72
1100
0000
0000
1000
0010
0001
0010
1000
0100
0010
0100
1000
,  // measure 73
1001
0000
0000
1001
0000
0000
0001
1000
0010
1010
0000
0000
,  // measure 74
1010
0000
0000
1000
0100
0001
0100
1000
0001
0100
0010
0100
,  // measure 75
0101
0000
0000
0101
0000
0000
0010
1000
0001
0011
0000
0000
,  // measure 76
0011
0000
0000
0001
0100
1000
0100
0001
0010
0100
0010
0001
,  // measure 77
0011
0000
0000
0011
0000
0000
0001
0010
1000
0010
0001
1000
,  // measure 78
0010
1000
0100
0001
1000
0010
0001
1000
0001
0100
1000
0100
,  // measure 79
0002
0000
0000
0000
,  // measure 80
0003
0000
0000
0000
0000
0000
0010
0000
0010
0001
0000
1000
,  // measure 81
2020
0000
0000
0000
,  // measure 82
3030
0000
0000
0000
;

//---------------dance-single - ----------------
#NOTES:
     dance-single:
     :
     Beginner:
     2:
     0.108,0.192,0.176,0.000,0.000:
1000
0000
0000
0000
,
0000
0000
0000
0000
,
0001
0000
0000
0000
,
0000
0000
0000
0000
,
1000
0000
0000
0000
,
0100
0000
0000
0000
,
1000
0000
0000
0000
,
0100
0000
0000
0000
,
0010
0000
0000
0000
,
0001
0000
0000
0000
,
0010
0000
0000
0000
,
0001
0000
0000
0000
,
1000
0000
0000
0000
,
0000
0000
0000
0000
,
1001
0000
0000
0000
,
1000
0000
0000
0000
,
0001
0000
0000
0000
,
0100
0000
0000
0000
,
0001
0000
0000
0000
,
1000
0000
0000
0000
,
0100
0000
0000
0000
,
0010
0000
0000
0000
,
0001
0000
0000
0000
,
0100
0000
0000
0000
,
0010
0000
0000
0000
,
0100
0000
0000
0000
,
0001
0000
0000
0000
,
1000
0000
0000
0000
,
0001
0000
0000
0000
,
0010
0000
0000
0000
,
1001
0000
0000
1001
,
0000
0000
0000
0000
,
1001
0000
0000
1001
,
0000
0000
0000
0000
,
1001
0000
0000
1001
,
0000
0000
0000
0000
,
1001
0000
0000
1001
,
0000
0000
0000
0000
,
1001
0000
0000
0000
,
0000
0000
0001
0000
,
1001
0000
0000
0000
,
0000
0000
0000
0000
,
1000
0000
0000
0000
,
0010
0000
0000
0000
,
0100
0000
0000
0000
,
0010
0000
0000
0000
,
1000
0000
0000
0000
,
0001
0000
0000
0000
,
0010
0000
0000
0000
,
0100
0000
0100
0000
,
0100
0000
0000
0000
,
1000
0000
0000
0000
,
0010
0000
0000
0000
,
0100
0000
0000
0000
,
0010
0000
0000
0000
,
1000
0000
0000
0000
,
0001
0000
0000
0000
,
0010
0000
0010
0000
,
0010
0000
0000
0000
,
0000
0000
0000
0000
,
1001
0000
0000
0000
,
0000
0000
0000
0000
,
1001
0000
0000
0000
,
0000
0000
0000
0000
,
1000
0000
0000
0000
,
0000
0000
0000
0000
,
0001
0000
0000
0000
,
0000
0000
0000
0000
,
0001
0000
0000
0000
,
0000
0000
0000
0000
,
1001
0000
0000
1001
,
0000
0000
0000
0000
,
1001
0000
0000
1001
,
0000
0000
0000
0000
,
1001
0000
0000
1001
,
0000
0000
0000
0000
,
1001
0000
0000
0000
,
0000
0000
0010
0000
,
0110
0000
0000
0000
,
0000
0000
0000
0000
,
0110
0000
0000
0000
;
