#TITLE:Piano Concerto No.1 in B flat minor, Op.23 - 1st movement;
#SUBTITLE:;
#ARTIST:SPEEDMASTER;
#TITLETRANSLIT:;
#SUBTITLETRANSLIT:;
#ARTISTTRANSLIT:;
#CREDIT:DigiMindAxel;
#BANNER:Piano Concerto No.1 in B flat minor, Op.23 - 1st movement.png;
#BACKGROUND:Piano Concerto No.1 in B flat minor, Op.23 - 1st movement-bg.png;
#LYRICSPATH:;
#CDTITLE:classical SPEED 2.png;
#MUSIC:Piano Concerto No.1 in B flat minor, Op.23 - 1st movement.ogg;
#METERTYPE:DDR X;
#OFFSET:-5.611;
#SAMPLESTART:15.274;
#SAMPLELENGTH:12.000;
#SELECTABLE:YES;
#BPMS:0.000=187.700;
#STOPS:;
#BGCHANGES:;

//---------------dance-single - ----------------
#NOTES:
     dance-single:
     :
     Easy:
     6:
     0.344,0.398,0.241,0.089,0.000:
1001
1000
0000
0001
,
0000
0010
0000
0001
,
0000
1000
0000
0001
,
0000
1000
0000
0100
,
0000
1000
0000
0001
,
0000
0100
0000
0010
,
0000
0100
0000
0001
,
0100
0010
0100
0010
,
1001
1000
0000
0010
,
0100
0000
0000
0001
,
1001
0001
0000
0100
,
0010
0000
0000
1000
,
1001
1000
0000
0100
,
0010
0000
0000
0001
,
1001
0000
1000
0010
,
0100
0000
0100
0000
,
1001
1001
0000
0010
,
0001
0000
0000
0100
,
1001
1001
0000
0010
,
1000
0000
0000
0010
,
1001
1000
0001
1000
,
0001
1000
0100
0010
,
1001
0000
1000
0001
,
1000
0010
0100
0001
,
1000
0001
1000
0100
,
0010
0001
1000
0001
,
0100
0010
1000
0001
,
1000
0001
0010
0100
,
1000
0001
0100
0001
,
0010
0100
1000
0001
,
1000
1000
0001
0001
,
1001
1000
0000
0010
,
0100
0000
0000
0001
,
0010
0001
0000
1000
,
0010
0000
0000
0100
,
0010
1000
0000
0010
,
0100
0000
0000
0001
,
0010
0000
0000
0100
,
2002
0000
0000
3003
,
0220
0000
0000
0330
,
2002
0000
0000
3003
,
0220
0000
0000
0330
,
1001
1000
0010
1000
,
0001
0100
0001
1000
,
1001
0001
0010
0001
,
0100
0001
0010
0100
,
1000
0100
0010
0001
,
1000
0000
1000
0000
,
1000
0100
0010
0001
,
0001
0000
0001
0000
,
0001
0001
0010
0100
,
1000
0100
1000
0100
,
1000
0001
0010
0001
,
0010
0001
0010
0100
,
1000
0000
1000
0000
,
1000
0100
0010
0001
,
0001
0000
0001
0000
,
0001
0010
0100
1000
,
1000
0000
1000
0000
,
0000
0000
0000
1001
0000
0000
0000
0000
,
0000
0000
0000
0110
0000
0000
0000
0000
,
0000
1001
0001
1000
,
1000
0001
0010
0100
,
1001
0001
1000
0001
,
1000
0100
0010
0001
,
1000
0000
0100
0000
,
0010
0000
0000
0000
,
0100
0000
0010
0000
,
0001
0000
0000
0000
,
1000
0000
0100
0000
,
0010
0000
0001
0000
,
1001
0000
0000
1000
0000
0000
0000
0000
,
1001
1000
0001
0100
,
0001
0010
0100
1000
,
0100
1000
0010
1000
,
0001
0100
0001
1000
,
1001
1001
0001
0100
,
0001
0010
0100
1000
,
0010
0100
0001
0010
,
0100
0100
0010
0010
,
2002
0000
0000
0000
,
3003
0000
0000
0000
;

//---------------dance-single - ----------------
#NOTES:
     dance-single:
     :
     Hard:
     13:
     0.727,0.651,0.527,0.196,0.049: // measure 1
2000
0000
0001
0001
3001
0000
1000
0000
,  // measure 2
0010
0000
0100
0000
0001
1000
0100
0001
,  // measure 3
0100
0000
0000
1000
0000
0000
0001
0000
0100
0000
0000
0001
0000
0000
0010
0000
,  // measure 4
0100
0000
0000
1000
0000
0000
0001
0000
0100
0000
0000
0001
0000
0000
1000
0000
,  // measure 5
1100
1100
0010
0001
,  // measure 6
0100
0000
0001
0000
1000
0001
0010
1000
,  // measure 7
0010
0001
1000
0000
0001
0100
0001
0000
,  // measure 8
1000
1000
0010
0010
0100
0001
1000
0100
,  // measure 9
1100
1100
0010
0011
,  // measure 10
2001
0000
0000
3001
0000
1000
0100
0010
,  // measure 11
0011
0011
0100
1100
,  // measure 12
1002
0000
0000
1003
0000
0001
0100
0010
,  // measure 13
1010
1010
0100
0101
,  // measure 14
2001
0000
0000
3001
0000
1000
0010
0100
,  // measure 15
0102
0000
0000
1003
0000
0001
0100
0010
,  // measure 16
2010
0000
0000
0000
0000
0000
0000
0000
0000
3001
0000
0000
1000
0000
0100
0000
0010
0000
0100
0000
1000
0000
0001
0000
,  // measure 17
1000
1001
0100
1100
,  // measure 18
0120
0000
0000
0031
0000
1000
0100
0010
,  // measure 19
1001
1001
0010
0011
,  // measure 20
0210
0000
0000
1300
0000
0010
0100
0001
,  // measure 21
1000
0010
1000
0010
0100
0001
0100
0001
,  // measure 22
0010
0100
0010
0100
1000
0010
0001
0010
,  // measure 23
1001
0000
1000
0010
0110
0000
0100
0001
,  // measure 24
1000
0010
0100
1000
0100
0010
1000
0000
,  // measure 25
0001
0100
0010
0001
0010
0100
0001
0000
,  // measure 26
0010
0100
1000
0001
1000
0100
0010
0000
,  // measure 27
0001
1000
0010
1000
0001
0010
0100
1000
,  // measure 28
1001
0000
0001
0010
1000
0010
0001
0000
,  // measure 29
1000
0001
1000
0100
0001
0100
1000
0000
,  // measure 30
0001
1000
0001
0010
1000
0010
0001
1000
,  // measure 31
0001
0001
0100
0100
0010
0010
1000
0001
,  // measure 32
1000
0100
0001
0000
0100
1000
0001
0100
,  // measure 33
0002
0000
1000
1003
0000
0001
0010
0100
,  // measure 34
1000
0010
0001
0000
0010
1000
0001
0010
,  // measure 35
0002
0000
1000
1003
0000
0001
0100
0010
,  // measure 36
1000
0100
0001
0000
0100
1000
0001
0010
,  // measure 37
0200
0000
0010
0310
0000
0001
0010
0100
,  // measure 38
1002
0000
1000
1003
0000
0001
0010
0100
,  // measure 39
1001
0000
0000
0101
0000
0001
0100
0010
,  // measure 40
1001
0000
0000
0011
0000
0001
0010
0100
,  // measure 41
1001
0000
0000
0101
0000
0001
0100
0010
,  // measure 42
1001
0000
0000
0011
0000
0001
0010
0100
,  // measure 43
1000
0001
0010
1000
0010
0001
0100
1000
,  // measure 44
0100
0001
0010
0100
1000
0001
0100
0010
,  // measure 45
1000
0001
0000
0100
0000
0010
0000
0100
,  // measure 46
0000
0001
0000
1000
0000
0001
0010
0100
,  // measure 47
1000
0001
0001
0100
0100
0001
0001
0100
,  // measure 48
0100
0010
0000
0100
0010
1000
0100
0010
,  // measure 49
0001
1000
1000
0100
0100
1000
1000
0001
,  // measure 50
0001
0010
0000
0001
0010
0001
1000
0010
,  // measure 51
0100
0001
0001
1000
1000
0001
0001
1000
,  // measure 52
1000
0001
0010
0000
0001
0010
0100
0000
,  // measure 53
0010
0001
1000
0000
0001
1000
0100
0010
,  // measure 54
0001
1000
1000
0010
0010
1000
1000
0001
,  // measure 55
0001
0010
0000
0001
0010
0001
0100
0010
,  // measure 56
1000
0100
0100
0010
0010
0100
0100
1000
,  // measure 57
1000
0010
0000
1000
0010
0100
0001
0010
,  // measure 58
0100
1000
1000
0001
0001
0100
0100
0001
,  // measure 59
0001
0100
0000
0010
0100
0001
0010
0100
,  // measure 60
1000
0000
0000
1001
0000
0001
0010
0100
,  // measure 61
1000
0000
0000
1001
0000
0001
0010
0100
,  // measure 62
1000
1001
0101
0110
,  // measure 63
1010
0101
0110
1010
,  // measure 64
1001
0001
0100
0010
,  // measure 65
1000
0001
1000
0001
0010
0001
0100
0010
,  // measure 66
2000
0000
0010
3020
0000
0000
0130
0000
,  // measure 67
1002
0000
1000
1003
0000
0001
0010
0100
,  // measure 68
2000
0000
0001
3002
0000
0000
0103
0000
,  // measure 69
2001
0000
0001
3001
0000
1000
0010
0100
,  // measure 70
0002
0000
1000
2003
0000
0000
3100
0000
,  // measure 71
1002
0000
1000
1003
0000
0001
0100
0010
,  // measure 72
1010
0000
0000
0110
0000
0000
0101
0000
,  // measure 73
1001
1100
1001
0011
,  // measure 74
1001
0000
0110
0000
0100
0001
0010
0100
,  // measure 75
1000
0001
0100
0000
0001
0010
1000
0010
,  // measure 76
0001
1000
0010
0000
0100
0010
1000
0001
,  // measure 77
1001
0000
1001
0000
1000
0100
0010
0001
,  // measure 78
1000
0001
0010
0000
0100
1000
0010
0001
,  // measure 79
0010
1000
0100
0000
0010
0100
1000
0000
,  // measure 80
0001
0000
0000
0100
0001
0000
0010
0000
0100
1000
0100
0000
1000
0000
0001
0100
,  // measure 81
0002
0000
0000
0000
,  // measure 82
0003
0000
0000
0000
;

//---------------dance-single - ----------------
#NOTES:
     dance-single:
     :
     Beginner:
     3:
     0.148,0.214,0.116,0.000,0.000:
1000
0000
0000
0000
,
0000
0000
0000
0000
,
0001
0000
0000
0000
,
0000
0000
0000
0000
,
1000
0000
0000
0000
,
0000
0000
0000
0000
,
0010
0000
0000
0000
,
0100
0000
0100
0000
,
1001
0000
0000
0000
,
1000
0000
0000
0000
,
0001
0000
0000
0000
,
1000
0000
0000
0000
,
0100
0000
0000
0000
,
1000
0000
0000
0000
,
0001
0000
0000
0000
,
0100
0000
0000
0000
,
1001
0000
0000
0000
,
1000
0000
0000
0000
,
0010
0000
0000
0000
,
1000
0000
0000
0000
,
0001
0000
0000
0000
,
0100
0000
0000
0000
,
1001
0000
0000
0000
,
0010
0000
0010
0000
,
0010
0000
0000
0000
,
0100
0000
0100
0000
,
0100
0000
0000
0000
,
0001
0000
0001
0000
,
0001
0000
0000
0000
,
1000
0000
1000
0000
,
1000
0000
0000
0000
,
1001
0000
0000
0000
,
0010
0000
0000
0000
,
1001
0000
0000
0000
,
0100
0000
0000
0000
,
1001
0000
0000
0000
,
0010
0000
0000
0000
,
1001
0000
0000
0000
,
0100
0000
0000
0000
,
1001
0000
0000
0000
,
0010
0000
0000
0000
,
1001
0000
0000
0000
,
1000
0000
0100
0000
,
0010
0000
0100
0000
,
1001
0000
0001
0000
,
1000
0000
1000
0000
,
0001
0000
0001
0000
,
0100
0000
0000
0000
,
0010
0000
0010
0000
,
1000
0000
0000
0000
,
0001
0000
0001
0000
,
1000
0000
0001
0000
,
1000
0000
0001
0000
,
0010
0000
0010
0000
,
0100
0000
0000
0000
,
1000
0000
1000
0000
,
0010
0000
0000
0000
,
0100
0000
0100
0000
,
0001
0000
0000
0000
,
0000
0000
0000
0000
,
0000
0000
0000
0000
,
0000
0100
0000
0010
,
0000
0100
0000
0000
,
1001
0000
0001
0000
,
1000
0000
0000
0000
,
0001
0000
0000
0000
,
0100
0000
0000
0000
,
0010
0000
0000
0000
,
1000
0000
0000
0000
,
0001
0000
0000
0000
,
0010
0000
0000
0000
,
0100
0000
0000
0000
,
1001
0000
1000
0000
,
0010
0000
1000
0000
,
0001
0000
1000
0000
,
0001
0000
1000
0000
,
0100
0000
0010
0000
,
0100
0000
1000
0000
,
0001
0000
0100
0000
,
0010
0000
1000
0000
,
1001
0000
0000
0000
;

//---------------dance-single - ----------------
#NOTES:
     dance-single:
     :
     Medium:
     10:
     0.565,0.614,0.687,0.277,0.000:
1002
1000
1003
0001
,
0100
0001
0010
0100
,
1000
0010
0001
0010
,
1000
0100
0001
0100
,
1000
1001
0001
0100
,
0001
0010
0100
1000
,
0001
0100
0001
1000
,
1100
1100
0011
0011
,
1001
1001
0000
1000
,
0020
0000
0000
0130
0000
0001
0100
0000
,
1001
1001
0000
0001
,
0020
0000
0000
0130
0000
1000
0010
0000
,
1001
1001
0000
1000
,
0020
0000
0000
0130
0000
0001
1000
0000
,
1001
0000
0000
1001
0000
1000
0001
0000
,
1001
0000
0000
0000
,
1100
1100
0000
0010
,
0002
0000
0000
1003
0000
0001
0010
0000
,
0011
0011
0000
0100
,
2000
0000
0000
3001
0000
1000
0100
0000
,
1100
0011
1100
0011
,
0110
0000
1001
0000
1000
0001
0010
0001
,
1000
0000
0000
0001
1000
0000
0100
0010
,
0002
0000
0000
0100
0000
0000
0103
0000
,
1001
0000
1000
0000
0001
0000
0010
0100
,
2000
0000
0000
0010
0000
0000
3010
0000
,
1001
0000
1000
0000
0100
0000
0010
0001
,
0200
0000
0000
0010
0000
0000
0310
0000
,
1001
0000
1000
0000
0001
0000
0100
0010
,
2000
0000
0000
0001
0000
0000
3001
0000
,
1100
0000
0011
0000
0001
0010
0100
1000
,
0001
1001
0000
1000
,
0020
0000
0000
0130
0000
0001
0010
0000
,
0011
1001
0000
0001
,
0200
0000
0000
0310
0000
1000
0100
0000
,
1100
1001
0000
1000
,
0020
0000
0000
0130
0000
0001
0100
0000
,
0101
0000
0000
1001
0000
1000
0100
0000
,
1100
0000
0000
2002
0000
0000
3003
0000
,
0011
0000
0000
2002
0000
0000
3003
0000
,
0110
0000
0000
2002
0000
0000
3003
0000
,
0110
0000
0000
2002
0000
0000
3003
0000
,
0011
0100
1000
0001
,
1000
0100
1000
0100
0010
0001
0010
0001
,
2000
0100
0100
3100
,
0020
0001
0001
0031
,
1001
0000
1000
0001
1000
0001
1000
0001
,
1000
0000
0000
0100
0000
0000
0010
0000
,
0001
1000
0001
1000
0001
1000
0001
1000
,
0001
0000
0000
0010
0000
0000
0100
0000
,
1000
0001
1000
0001
1000
0001
1000
0001
,
1000
1100
0100
0110
,
0010
0011
0001
1001
,
1000
0001
1000
0001
1000
0001
1000
0001
,
1000
0000
0000
0010
0000
0000
0100
0000
,
0001
1000
0001
1000
0001
1000
0001
1000
,
0001
0000
0000
0100
0000
0000
0010
0000
,
1000
0001
1000
0001
1000
0001
1000
0001
,
1000
0000
0000
0010
0000
1000
0100
0010
,
0001
0000
0000
1001
0000
1000
0100
0010
,
0001
0000
0000
1001
0000
1000
0100
0010
,
0001
1001
1001
0110
,
0110
1001
1001
0110
,
1001
0000
0001
0000
1000
0010
0100
0000
,
0001
1000
0001
1000
0001
1000
0010
0100
,
0010
0000
0000
1010
0000
0000
0010
0000
,
0022
0000
0000
0033
,
1001
0000
0000
1100
0000
0000
0100
0000
,
0220
0000
0000
0330
,
0011
0000
0000
1001
0000
0000
1000
0000
,
2020
0000
0000
3030
,
1001
0000
0000
0101
0000
0000
1010
0000
,
1001
0000
0001
0000
0100
0010
0100
0000
,
0001
0000
1000
0000
0001
1000
0100
0010
,
0001
1000
0010
1000
,
0001
0100
0010
0000
1000
0100
0010
0000
,
1001
0000
1001
0000
1000
0010
0100
0000
,
0010
0000
0100
0000
0001
1000
0100
0010
,
0001
0000
1000
0010
0100
0000
0001
0000
,
1001
0000
1000
0010
1000
0001
0010
0000
,
2002
0000
0000
0000
,
3003
0000
0000
0000
;
