#TITLE:Pay No Mind;
#SUBTITLE:;
#ARTIST:madeon ft. Passion Pit;
#TITLETRANSLIT:;
#SUBTITLETRANSLIT:;
#ARTISTTRANSLIT:;
#CREDIT:DigiMindAxel;
#BANNER:Pay No Mind.png;
#BACKGROUND:Pay No Mind-bg.png;
#LYRICSPATH:Pay No Mind.lrc;
#CDTITLE:DigiMindAxel original simfile.png;
#MUSIC:Pay No Mind.ogg;
#METERTYPE:DDR X;
#OFFSET:-0.108;
#SAMPLESTART:51.505;
#SAMPLELENGTH:12.000;
#SELECTABLE:YES;
#BPMS:0.000=112.000,128.000=56.000,144.000=112.000;
#STOPS:;
#BGCHANGES:16.000=Pay No Mind.avi=1.000=1=0=1,
99999=-nosongbg-=1.000=0=0=0 // don't automatically add -songbackground-
;

//---------------dance-single - ----------------
#NOTES:
     dance-single:
     :
     Easy:
     4:
     0.158,0.183,0.055,0.086,0.000:
0000
0000
0000
0000
,
0000
0000
0000
0000
,
0000
0000
0000
0000
,
0000
0000
0000
0000
,
1001
0000
0010
0000
,
0100
1000
0100
0000
,
1001
0000
1000
0000
,
0010
0100
0010
0000
,
0100
0000
0000
0000
,
0110
0010
0010
0000
,
1000
0000
0001
0000
,
1000
1000
1000
0000
,
0100
0000
0010
0000
,
0100
0100
0100
0000
,
1000
0000
0010
0000
,
0100
0100
0100
0000
,
0002
0000
0000
0000
,
2003
0000
0000
0000
,
3002
0000
0000
0000
,
2003
0000
0000
0000
,
3001
0001
0001
0001
,
1000
1000
1000
1000
,
0001
0001
0001
0001
,
1000
0100
0010
0000
,
1002
0000
0010
0000
,
1003
0001
0010
0100
,
2000
0000
0100
0000
,
3001
1000
0100
0010
,
0002
0000
0100
0000
,
0013
0001
0100
0010
,
2000
0000
0100
0000
,
3010
0100
0001
1000
,
0100
0000
0100
0000
,
0010
0000
0010
0000
,
0001
0000
0001
0000
,
1000
0000
1000
0000
,
1001
0000
0001
0000
,
1000
0000
0001
0000
,
0010
0000
0100
0000
,
1000
0000
0010
0000
,
1000
0001
1000
0000
,
0100
1000
0100
0000
,
0010
0001
0010
0000
,
0100
0000
0000
0000
,
0110
0010
1000
0010
,
0200
0000
0301
0000
,
1000
0100
0010
0100
,
2000
0000
3001
0000
,
0100
0001
0010
0001
,
0200
0000
0310
0000
,
1000
0100
0010
0001
,
1000
0000
0000
1001
0000
0000
0000
0000
,
0100
0000
0000
0000
;

//---------------dance-single - ----------------
#NOTES:
     dance-single:
     :
     Medium:
     7:
     0.262,0.305,0.102,0.117,0.000:
0000
0000
0000
0000
,
0000
0000
0000
0000
,
0000
0000
0000
0000
,
0000
0000
0000
0000
,
1000
0100
0010
0000
,
0000
0001
0000
0001
0000
0100
0010
0000
,
1000
0100
0010
0000
,
0000
0100
0000
0100
0000
1000
0010
0000
,
0200
0000
0000
0310
,
1000
0100
1000
0000
0001
1000
0001
0000
,
0010
0100
1000
0001
,
0100
0001
0100
0000
0001
1000
0001
0000
,
0100
0010
1000
0100
,
0010
0001
0010
0000
0100
0010
0100
0000
,
1000
0010
0100
0001
,
1000
0100
1000
0000
0001
1000
0001
0000
,
0210
0000
0000
0000
,
0302
0000
0000
0000
,
2003
0000
0000
0000
,
3200
0000
0000
0000
,
1300
0100
0010
0001
,
1000
0100
0010
0001
,
0100
0010
1000
0100
,
0010
0000
0001
0000
1000
1000
1000
0000
,
1001
0000
0010
0100
1000
0000
0001
0010
,
0100
1000
0001
1000
0100
0000
0010
0100
,
0010
0000
0001
0010
0100
0000
0010
0100
,
1000
0001
0100
0001
1000
0000
0010
0100
,
0010
0000
1000
0010
0100
0000
0010
0100
,
0001
1000
0100
1000
0001
0000
0010
0100
,
0010
0000
0001
0100
0010
0000
1000
0010
,
0100
0001
0010
0001
0100
0000
0010
0000
,
2001
0000
3200
0000
,
0320
0000
0230
0000
,
2300
0000
3002
0000
,
0203
0000
0302
0000
,
1003
0000
1001
0000
0000
0010
0010
0000
,
0100
0000
1100
0000
0000
0010
0010
0000
,
0001
0000
1001
0000
0000
0010
0010
0000
,
0100
0000
1100
0000
0000
0010
0010
0000
,
0001
0000
0101
0000
0000
0010
0010
0000
,
1000
0000
1001
0000
0000
0100
0100
0000
,
0010
0000
0011
0000
0000
0100
0100
0000
,
0220
0000
0000
0330
,
0100
0010
0001
0000
0010
0100
1000
0000
,
0001
0100
0001
1000
0100
0000
0010
0000
,
0001
0010
0100
0000
1000
0100
0010
0000
,
0001
0100
0001
0010
0100
0000
1000
0000
,
0100
0010
0001
0000
0010
0100
1000
0000
,
0010
0100
0010
1000
0010
0000
0100
0000
,
0001
0100
0010
0000
1000
0010
0100
0000
,
1001
0000
0000
0110
0000
0000
0000
0000
,
1000
0000
0000
0000
;

//---------------dance-single - ----------------
#NOTES:
     dance-single:
     :
     Hard:
     9:
     0.376,0.366,0.203,0.172,0.168:
0000
0000
0000
0000
,
0000
0000
0000
0000
,
0000
0000
0000
0000
,
0000
0000
0000
0000
,
1001
0000
0000
1000
0000
0001
0000
0010
0000
0100
0000
0000
1100
0000
0000
0000
,
0000
0000
0010
1000
0000
0000
0010
1000
0000
0000
0001
0000
1001
0000
0000
0000
,
0110
0000
0000
0100
0000
0001
0000
0010
0000
0100
0000
0000
1100
0000
0000
0000
,
0000
0000
0100
0001
0000
0000
0100
0001
0000
0000
1000
0000
1001
0000
0000
0000
,
0002
0000
0000
1003
,
0001
0000
0100
0001
0100
0000
0001
1000
0001
0000
0100
0000
0010
0000
0000
0000
,
1000
0100
0010
0100
1000
0001
0010
0000
,
0100
0000
0010
0001
0010
0000
0100
0010
0100
0000
1000
0000
0010
0000
0000
0000
,
1000
0100
0010
0001
0100
0001
0010
0000
,
0001
0000
1000
0010
1000
0000
0001
0010
0001
0000
0100
0000
0010
0000
0000
0000
,
0100
0001
0010
0100
1000
0001
0010
0000
,
0100
0000
1000
0001
1000
0000
0001
0100
0001
0000
0100
0000
0010
0000
0000
0000
,
2001
0100
0000
3100
,
0020
0100
0000
0130
,
2000
0010
0000
3010
,
0200
0001
0000
0301
,
1001
0100
0010
0001
,
1000
0100
0010
0001
,
0100
1000
0100
0001
,
0010
0000
0100
0000
1000
1000
0001
0001
,
0110
0000
0000
0010
1000
0000
0001
0000
0010
0000
0000
0100
0010
0000
0001
0000
,
0100
0010
0010
0100
0100
0010
1000
0100
,
0010
0000
0000
0001
1000
0000
0100
0000
1000
0000
0000
0010
0100
0000
0001
0000
,
0100
0010
0010
0100
0100
0010
1000
0100
,
0010
0000
0000
0001
0100
0000
0010
0000
0100
0000
0000
0010
1000
0000
0100
0000
,
0010
0001
0001
1000
1000
0001
0100
0010
,
1000
0000
0000
0010
0100
0000
0001
0000
0010
0000
0000
0100
0010
0000
0001
0000
,
1000
0010
0010
0100
0100
0001
0010
0000
,
0120
0230
2300
3200
,
0320
0032
0203
0302
,
2003
3200
0320
0032
,
2003
3002
0203
0000
,
0310
0000
0000
0000
0110
0000
0000
1000
0000
0000
0010
0000
0100
0000
0000
0000
,
0101
0000
0000
0000
1001
0000
0000
0010
0000
0000
0100
0000
1000
0000
0000
0000
,
1100
0000
0000
0000
0110
0000
0000
0001
0000
0000
1000
0000
0100
0000
0000
0000
,
0110
0000
0000
0000
0101
0000
0000
0010
0000
0000
1000
0000
0100
0000
0000
0000
,
0011
0000
0000
0000
1001
0000
0000
0100
0000
0000
0010
0000
1000
0000
0000
0000
,
1010
0000
0000
0000
0110
0000
0000
0001
0000
0000
0010
0000
0100
0000
0000
0000
,
1100
0000
0000
0000
1010
0000
0000
0100
0000
0000
0001
0000
0010
0000
0000
0000
,
2002
0000
0000
3003
,
0001
0000
1000
0010
1000
0000
0001
0000
0000
0100
0001
0000
1000
0000
0100
0000
,
0000
0010
0010
0100
0100
1000
0001
0100
,
0001
0000
1000
0100
1000
0000
0001
0000
0000
0100
0001
0000
0010
0000
0100
0000
,
0000
1000
1000
0001
0001
0100
0010
0100
,
0001
0000
0010
0100
0010
0000
0001
0000
0000
1000
0010
0000
0100
0000
0010
0000
,
0000
1000
1000
0010
0010
1000
0100
0010
,
0001
0000
0100
0010
0100
0000
0001
0000
0000
0010
0100
0000
1000
0000
0010
0000
,
0110
0000
0001
0101
0000
0000
0000
0000
,
0100
0000
0000
0000
;

//---------------dance-single - ----------------
#NOTES:
     dance-single:
     :
     Challenge:
     12:
     0.491,0.488,0.321,0.188,0.313:
0000
0000
0000
0000
,
0000
0000
0000
0000
,
0000
0000
0000
0000
,
0000
0000
0000
0000
,
1001
0000
0001
0100
0000
0001
0000
1000
0000
1000
0100
0000
0010
0000
0100
0000
,
0000
0000
1000
0100
0010
0000
0100
0010
0001
0000
0100
0000
0010
0100
0000
0100
,
0001
0000
1000
0100
0000
0010
0000
0001
0000
0001
0100
0000
0010
0000
0100
0000
,
0000
0000
0001
0010
0100
0000
0010
0100
1000
0000
0010
0000
0110
0000
0100
0000
,
0002
0000
0000
1003
,
0001
0000
0100
0010
0100
0000
0001
0100
0001
0000
1000
0000
0100
0000
0010
0000
,
0100
0000
1000
0010
0000
1000
0000
0001
0000
0010
0001
0000
1000
0000
0000
0000
,
0001
0000
1000
0010
1000
0000
0001
1000
0001
0000
0010
0000
0100
0000
1000
0000
,
0001
0000
0100
0001
0000
1000
0000
0100
0000
1000
0001
0000
1000
0000
0000
0000
,
0100
0000
0010
0001
0010
0000
0100
0010
0100
0000
1000
0000
0001
0000
1000
0000
,
0001
0000
0100
0001
0000
1000
0000
0100
0000
1000
0001
0000
0100
0000
0000
0000
,
0001
0000
0100
0010
0100
0000
0010
1000
0010
0000
1000
0000
0100
0000
0010
0000
,
0102
0010
0100
0013
,
0200
1000
0010
1300
,
0020
0001
0100
0031
,
0200
1000
0010
1300
,
1001
0101
1001
0101
,
1100
0110
1100
0110
,
1010
1001
1010
1001
,
0011
0000
0110
0000
1100
0100
0010
0010
,
1001
0000
1000
0100
0010
0000
0010
0001
0100
0000
0010
0100
0010
0000
0010
1000
,
0001
1000
0010
0001
0100
1000
0100
0010
,
0001
0000
0100
0010
0100
0000
0100
0001
0010
0000
0100
1000
0100
0000
0100
0010
,
0001
1000
0100
0001
0010
1000
0010
0100
,
0010
0000
1000
0100
0010
0000
0010
0001
0010
0000
0100
0010
0100
0000
0100
1000
,
0010
1000
0010
0001
0100
1000
0100
0010
,
0100
0000
1000
0001
1000
0000
1000
0010
0100
0000
0001
0100
0001
0000
0001
0010
,
0100
1000
0100
0001
0010
1000
0001
1000
,
1002
0000
0010
0100
2003
0000
0010
0100
,
3020
0000
0100
0001
0230
0000
0001
0010
,
0302
0000
1000
0100
2003
0000
0001
0010
,
3200
0000
0010
0001
2300
0000
0000
0000
,
3001
0000
0000
0000
1001
0000
1000
0100
0000
1000
0100
0000
0110
0000
0000
0000
,
0011
0000
0000
0000
1001
0000
0001
0100
0000
0001
0100
0000
0110
0000
0000
0000
,
1010
0000
0000
0000
1001
0000
0001
0010
0000
0001
0010
0000
0110
0000
0000
0000
,
1100
0000
0000
0000
1001
0000
1000
0010
0000
1000
0010
0000
0110
0000
0000
0000
,
0100
0000
0010
0000
1010
0000
1000
0001
0000
1000
0001
0000
0011
0000
0000
0000
,
0010
0000
0100
0000
1100
0000
1000
0001
0000
1000
0001
0000
0101
0000
0000
0000
,
0001
0000
1000
0000
1010
0000
0010
0100
0000
0010
0100
0000
0101
0000
0000
0000
,
2002
0000
3003
1001
,
0001
0000
0001
0010
0100
0000
0100
1000
0001
0000
0010
0100
1000
0000
1000
0001
,
0200
1000
2300
0001
3002
0100
0103
0010
,
1000
0000
0100
0010
0001
0000
0001
0100
0001
0000
0100
0010
1000
0000
1000
0001
,
2000
0100
3200
0010
0320
0001
0031
1000
,
0010
0000
0100
0001
0010
0000
0010
0100
0010
0000
0001
1000
0100
0000
0100
0010
,
0200
1000
2300
0001
3002
0100
0103
0010
,
1000
0000
0100
0010
0001
0000
0001
0100
0001
0000
1000
0100
0010
0000
0010
0001
,
0100
0010
1010
1001
0010
0100
1000
0100
,
0010
0000
0000
0000
;

//---------------dance-double - ----------------
#NOTES:
     dance-double:
     :
     Easy:
     4:
     0.167,0.183,0.063,0.117,0.000:
00000000
00000000
00000000
00000000
,
00000000
00000000
00000000
00000000
,
00000000
00000000
00000000
00000000
,
00000000
00000000
00000000
00000000
,
20010000
00000000
30020000
00000000
,
00130000
01000000
00100000
00000000
,
00002000
00000000
00023000
00000000
,
00030010
00000100
00000010
00000000
,
00001001
00000000
00000000
00000000
,
00000110
00000010
00000010
00000000
,
00001000
00000100
00001000
00000000
,
00000001
00000001
00000001
00000000
,
00010000
00000010
00010000
00000000
,
00001000
00001000
00001000
00000000
,
00100000
01000000
00100000
00000000
,
00010000
00010000
00010000
00000000
,
20000000
00000000
00000000
00000000
,
32000000
00000000
00000000
00000000
,
23000000
00000000
00000000
00000000
,
32000000
00000000
00000000
03000000
,
10000000
10000000
10000000
10000000
,
00010000
00010000
00010000
00010000
,
10000000
10000000
10000000
10000000
,
01000000
00100000
00010000
00000000
,
00012000
00000000
00010000
00000000
,
00013000
00000010
00000100
00000001
,
00002000
00000000
00000001
00000000
,
00003001
00001000
00000100
00010000
,
00002000
00000000
01000000
00000000
,
01003000
00010000
01000000
00100000
,
20000000
00000000
00010000
00000000
,
30010000
10000000
01000000
00100000
,
00001000
00000000
00001000
00000000
,
00010000
00000000
00010000
00000000
,
00000010
00000000
00000010
00000000
,
00000100
00000000
00000100
00000000
,
00001001
00000000
00001000
00000000
,
00000100
00000000
00001000
00000000
,
00000100
00000000
00010000
00000000
,
00001000
00000000
00010000
00000000
,
00001000
01000000
00001000
00000000
,
01000000
00100000
01000000
00000000
,
00100000
10000000
00100000
00000000
,
01100000
00000000
00000000
00000000
,
10010000
00010000
10000000
00010000
,
02000000
00000000
03001000
00000000
,
00010000
00001000
00010000
00001000
,
00000200
00000000
00000310
00000000
,
00000001
00000100
00000010
00000100
,
00000002
00000000
00001003
00000000
,
00000001
00000100
00000001
00010000
,
00001000
00000000
00000000
00011000
00000000
00000000
00000000
00000000
,
01000000
00000000
00000000
00000000
;

//---------------dance-double - ----------------
#NOTES:
     dance-double:
     :
     Medium:
     7:
     0.270,0.305,0.110,0.149,0.000:
00000000
00000000
00000000
00000000
,
00000000
00000000
00000000
00000000
,
00000000
00000000
00000000
00000000
,
00000000
00000000
00000000
00000000
,
10010000
00100000
01000000
00000000
,
00000000
20000000
00000000
30020000
00000000
10030000
10000000
00000000
,
00001000
00010000
00000100
00000000
,
00000000
00002000
00000000
00003002
00000000
00001003
00001000
00000000
,
00000020
00000000
00000000
00000130
,
00000001
00000010
00000001
00000000
00000100
00000010
00000100
00000000
,
00000001
00000100
00000010
00010000
,
00001000
00100000
00001000
00000000
00100000
01000000
00100000
00000000
,
00010000
10000000
01000000
00100000
,
01000000
10000000
01000000
00000000
00100000
01000000
00100000
00000000
,
00001000
00010000
00000100
00000010
,
00000001
00001000
00000001
00000000
00010000
00000100
00010000
00000000
,
00021000
00000000
00000000
00000000
,
00032000
00000000
00000000
00000000
,
02003000
00000000
00000000
00000000
,
03200000
00000000
00000000
00000000
,
10300000
01000000
00100000
00010000
,
01000000
00001000
00010000
00000100
,
00000010
00000001
00000100
00000010
,
00001000
00000000
00010000
00000000
01000000
01000000
01000000
00000000
,
01100000
00000000
00100000
01000000
10000000
00000000
00010000
00100000
,
01000000
10000000
00001000
10000000
00001000
00000000
00010000
00000010
,
00010000
00000000
00000010
00000100
00000001
00000000
00000100
00000001
,
00000010
00000100
00010000
00001000
00010000
00000000
00001000
01000000
,
00001000
00000000
10000000
01000000
00100000
00000000
01000000
00100000
,
00001000
00010000
00001000
00010000
00000010
00000000
00001000
00000010
,
00001000
00000000
00000100
00000010
00000001
00000000
00000010
00000100
,
00010000
00001000
00010000
00001000
01000000
00000000
01000000
00000000
,
20010000
00000000
32000000
00000000
,
23000000
00000000
30002000
00000000
,
02003000
00000000
03200000
00000000
,
02300000
00000000
03002000
00000000
,
00013000
00000000
00011000
00000000
00000000
00000010
00000010
00000000
,
00000100
00000000
00000110
00000000
00000000
00000001
00000001
00000000
,
00000010
00000000
00000011
00000000
00000000
00010000
00010000
00000000
,
00001000
00000000
00011000
00000000
00000000
01000000
01000000
00000000
,
00100000
00000000
01100000
00000000
00000000
10000000
10000000
00000000
,
01000000
00000000
11000000
00000000
00000000
00010000
00010000
00000000
,
10000000
00000000
10010000
00000000
00000000
00100000
00100000
00000000
,
02200000
00000000
00000000
03300000
,
10000000
01000000
00100000
00000000
01000000
00100000
00001000
00000000
,
00010000
00001000
00010000
00001000
00000100
00000010
00000100
00000000
,
00001000
00000010
00000100
00000000
00000010
00000100
00000001
00000000
,
00000010
00000100
00000010
00000100
00010000
00001000
00010000
00000000
,
00001000
10000000
00100000
00000000
10000000
00010000
01000000
00000000
,
00100000
01000000
00100000
01000000
00010000
00001000
00010000
00000000
,
00000100
00000010
00000001
00000000
00000010
00000100
00001000
00000000
,
00010100
00000000
00000000
00011000
00000000
00000000
00000000
00000000
,
01000000
00000000
00000000
00000000
;

//---------------dance-double - ----------------
#NOTES:
     dance-double:
     :
     Hard:
     9:
     0.374,0.366,0.203,0.172,0.168:
00000000
00000000
00000000
00000000
,
00000000
00000000
00000000
00000000
,
00000000
00000000
00000000
00000000
,
00000000
00000000
00000000
00000000
,
10010000
00000000
00000000
10000000
00000000
00100000
00000000
10000000
00000000
00001000
00000000
00000000
00011000
00000000
00000000
00000000
,
00000000
00000000
00000010
00000100
00000000
00000000
00000010
00000100
00000000
00000000
00000001
00000000
00000011
00000000
00000000
00000000
,
00001001
00000000
00000000
00000001
00000000
00000010
00000000
00000001
00000000
00010000
00000000
00000000
00011000
00000000
00000000
00000000
,
00000000
00000000
00100000
01000000
00000000
00000000
00100000
01000000
00000000
00000000
10000000
00000000
10100000
00000000
00000000
00000000
,
00200000
00000000
00000000
01300000
,
00010000
00000000
10000000
00100000
10000000
00000000
00100000
01000000
00100000
00000000
01000000
00000000
00010000
00000000
00000000
00000000
,
10000000
01000000
00100000
00010000
00001000
00000100
00000010
00000000
,
00000001
00000000
00000100
00000001
00000100
00000000
00000010
00000100
00000010
00000000
00000100
00000000
00000001
00000000
00000000
00000000
,
00000010
00000100
00010000
00001000
00100000
01000000
10000000
00000000
,
00100000
00000000
01000000
00010000
01000000
00000000
00010000
10000000
00010000
00000000
00100000
00000000
01000000
00000000
00000000
00000000
,
10000000
00100000
01000000
00010000
00001000
00000010
00000100
00000000
,
00000001
00000000
00000010
00000001
00000010
00000000
00000100
00000010
00000100
00000000
00010000
00000000
00001000
00000000
00000000
00000000
,
02100000
00010000
00000000
03010000
,
20000000
01000000
00000000
31000000
,
00200000
00001000
00000000
00301000
,
00020000
00000010
00000000
00030010
,
00000110
00000100
00000010
00000001
,
00000010
00000100
00010000
00001000
,
00100000
01000000
10000000
00100000
,
10000000
00000000
00010000
00000000
01000000
01000000
00100000
00100000
,
10010000
00000000
00000000
10000000
00100000
00000000
10000000
00000000
00001000
00000000
00000000
00001000
00010000
00000000
00000100
00000000
,
00000010
00000001
00000001
00000100
00000100
00000001
00000010
00000100
,
00010000
00000000
00000000
00010000
00001000
00000000
00100000
00000000
01000000
00000000
00000000
01000000
10000000
00000000
00100000
00000000
,
01000000
00001000
00001000
00100000
00100000
00010000
00001000
00000010
,
00000100
00000000
00000000
00000100
00000001
00000000
00000010
00000000
00000100
00000000
00000000
00000100
00010000
00000000
00001000
00000000
,
00100000
00000000
01000000
10000000
10000000
00100000
01000000
00100000
,
10000000
00000000
00000000
10000000
00010000
00000000
00100000
00000000
01000000
00000000
00000000
01000000
10000000
00000000
00100000
00000000
,
01000000
00001000
00001000
00010000
00010000
00000100
00000010
00000000
,
00002001
00003200
00002300
00003020
,
00020030
00032000
00203000
02300000
,
03200000
00302000
20003000
30200000
,
02300000
03200000
20300000
00000000
,
30010000
00000000
00000000
00000000
01100000
00000000
00000000
10000000
00000000
00000000
01000000
00000000
00100000
00000000
00000000
00000000
,
00011000
00000000
00000000
00000000
00000110
00000000
00000000
00000001
00000000
00000000
00000010
00000000
00000100
00000000
00000000
00000000
,
00011000
00000000
00000000
00000000
01100000
00000000
00000000
10000000
00000000
00000000
00100000
00000000
01000000
00000000
00000000
00000000
,
00011000
00000000
00000000
00000000
00000110
00000000
00000000
00000001
00000000
00000000
00000100
00000000
00000010
00000000
00000000
00000000
,
00011000
00000000
00000000
00000000
01100000
00000000
00000000
10000000
00000000
00000000
01000000
00000000
00100000
00000000
00000000
00000000
,
00011000
00000000
00000000
00000000
00000110
00000000
00000000
00000001
00000000
00000000
00000100
00000000
00000010
00000000
00000000
00000000
,
00011000
00000000
00000000
00000000
01100000
00000000
00000000
10000000
00000000
00000000
00100000
00000000
01000000
00000000
00000000
00000000
,
00022000
00000000
00000000
00033000
,
00000010
00000000
00000001
00001000
00000001
00000000
00000010
00000000
00000000
00000100
00010000
00000000
00001000
00000000
00100000
00000000
,
00000000
01000000
01000000
00100000
00100000
00010000
10000000
01000000
,
00100000
00000000
00010000
01000000
00010000
00000000
01000000
00000000
00000000
00001000
00010000
00000000
00000100
00000000
00000010
00000000
,
00000000
00000001
00000001
00000100
00000100
00000001
00000010
00000100
,
00001000
00000000
00000001
00000100
00000001
00000000
00000010
00000000
00000000
00000100
00010000
00000000
00001000
00000000
01000000
00000000
,
00000000
00100000
00100000
10000000
10000000
00100000
01000000
00001000
,
00010000
00000000
00000010
00000100
00000010
00000000
00000100
00000000
00000000
00000001
00000100
00000000
00000010
00000000
00010000
00000000
,
00010100
00000000
00100000
01100000
00000000
00000000
00000000
00000000
,
00001000
00000000
00000000
00000000
;

//---------------dance-double - ----------------
#NOTES:
     dance-double:
     :
     Challenge:
     11:
     0.469,0.468,0.164,0.086,0.313: // measure 1
00000000
00000000
00000000
00000000
,  // measure 2
00000000
00000000
00000000
00000000
,  // measure 3
00000000
00000000
00000000
00000000
,  // measure 4
00000000
00000000
00000000
00000000
,  // measure 5
10010000
00000000
00010000
01000000
00000000
00100000
00000000
01000000
00000000
01000000
00001000
00000000
00010000
00000000
00000100
00000000
,  // measure 6
00000000
00000000
00000010
00000001
00000100
00000000
00000010
00010000
00001000
00000000
00100000
00000000
01000000
00100000
00000000
00100000
,  // measure 7
00010000
00000000
10000000
00100000
00000000
01000000
00000000
00100000
00000000
00100000
10000000
00000000
01000000
00000000
00100000
00000000
,  // measure 8
00000000
00000000
00010000
00001000
00000100
00000000
00000010
00000001
00000100
00000000
00000010
00000000
00000110
00000000
00010000
00000000
,  // measure 9
00002000
00000000
00000000
00013000
,  // measure 10
00100000
00000000
01000000
10000000
01000000
00000000
10000000
00010000
10000000
00000000
01000000
00000000
00100000
00000000
00010000
00000000
,  // measure 11
00001000
00000000
00000010
00000100
00000000
00000001
00000000
00000010
00000000
00000001
00000100
00000000
00000010
00000000
00000000
00000000
,  // measure 12
00010000
00000000
00001000
01000000
00001000
00000000
10000000
00100000
10000000
00000000
01000000
00000000
00100000
00000000
00001000
00000000
,  // measure 13
00010000
00000000
00000100
00000010
00000000
00000001
00000000
00000010
00000000
00000100
00001000
00000000
00010000
00000000
00000000
00000000
,  // measure 14
01000000
00000000
00100000
01000000
00100000
00000000
10000000
00010000
10000000
00000000
01000000
00000000
00100000
00000000
00010000
00000000
,  // measure 15
00001000
00000000
00000010
00000100
00000000
00000001
00000000
00000100
00000000
00000010
00010000
00000000
00001000
00000000
00000000
00000000
,  // measure 16
00100000
00000000
00010000
10000000
00010000
00000000
10000000
01000000
10000000
00000000
01000000
00000000
00100000
00000000
00001000
00000000
,  // measure 17
00011000
00010000
00001000
00010000
,  // measure 18
00000010
00000100
00000010
00000100
,  // measure 19
00000001
00000010
00000001
00000010
,  // measure 20
00000100
00010000
00000100
00010000
,  // measure 21
00011000
00001000
00100000
01000000
10000000
00001000
00100000
01000000
,  // measure 22
10000000
00001000
00010000
00000010
00000100
00000010
00010000
00000010
,  // measure 23
00000100
00000010
00001000
00000100
00000010
00000001
00000010
00000100
,  // measure 24
00010000
00001000
00100000
01000000
10000000
10000000
00010000
00010000
,  // measure 25
01100000
00000000
01000000
00010000
10000000
00000000
10000000
01000000
00100000
00000000
00001000
00010000
00001000
00000000
00001000
00010000
,  // measure 26
00000100
00000010
00000001
00000100
00001000
00000100
00000001
00000010
,  // measure 27
00000100
00000000
00001000
00000010
00000100
00000000
00000100
00000001
00000010
00000000
00000100
00010000
00000100
00000000
00000100
00010000
,  // measure 28
00001000
00100000
01000000
10000000
00100000
00010000
00100000
10000000
,  // measure 29
01000000
00000000
00100000
00010000
10000000
00000000
10000000
00100000
01000000
00000000
00001000
00010000
00001000
00000000
00001000
00010000
,  // measure 30
00000010
00000100
00000001
00000010
00001000
00000010
00000001
00000100
,  // measure 31
00000010
00000000
00010000
00000100
00001000
00000000
00001000
00100000
01000000
00000000
10000000
00010000
10000000
00000000
10000000
01000000
,  // measure 32
00100000
00001000
00010000
00000100
00000001
00000100
00010000
00001000
,  // measure 33
01200000
00000000
10000000
10000000
02300000
00000000
00010000
00010000
,  // measure 34
03200000
00000000
00001000
00001000
00320000
00000000
00000010
00000010
,  // measure 35
00030200
00000000
00000001
00000001
00000320
00000000
00010000
00010000
,  // measure 36
00002030
00000000
00100000
00100000
02003000
00000000
00000000
00000000
,  // measure 37
03100000
00000000
00000000
00000000
01100000
00000000
01000000
00010000
00000000
01000000
00010000
00000000
10010000
00000000
00000000
00000000
,  // measure 38
01000000
00000000
00000000
00000000
00011000
00000000
00001000
00010000
00000000
00001000
00010000
00000000
00010010
00000000
00000000
00000000
,  // measure 39
00000001
00000000
00000000
00000000
00000110
00000000
00000010
00001000
00000000
00000010
00001000
00000000
00001001
00000000
00000000
00000000
,  // measure 40
00010000
00000000
00000000
00000000
00011000
00000000
00001000
00100000
00000000
00001000
00100000
00000000
01100000
00000000
00000000
00000000
,  // measure 41
00010000
00000000
10000000
00000000
01000000
00000000
00100000
00001000
00000000
00100000
00001000
00000000
00011000
00000000
00000000
00000000
,  // measure 42
00000100
00000000
00000010
00000000
00000001
00000000
00000100
00000010
00000000
00000100
00000010
00000000
00010010
00000000
00000000
00000000
,  // measure 43
00001000
00000000
01000000
00000000
00100000
00000000
10000000
00010000
00000000
10000000
00010000
00000000
00110000
00000000
00000000
00000000
,  // measure 44
02200000
00000000
03300000
01100000
,  // measure 45
00100000
00000000
00100000
10000000
00010000
00000000
00010000
01000000
00001000
00000000
00010000
00000100
00000010
00000000
00000010
00000001
,  // measure 46
00000100
00000100
00000010
00000010
00010000
00001000
00100000
10000000
,  // measure 47
00100000
00000000
00010000
10000000
00100000
00000000
00100000
01000000
00010000
00000000
00100000
00001000
00010000
00000000
00010000
00000100
,  // measure 48
00000010
00000010
00000001
00000001
00001000
00010000
01000000
10000000
,  // measure 49
01000000
00000000
00010000
00100000
01000000
00000000
01000000
10000000
00100000
00000000
01000000
00010000
00001000
00000000
00001000
00000100
,  // measure 50
00000010
00000010
00000100
00000100
00010000
00001000
00100000
10000000
,  // measure 51
00100000
00000000
00001000
00010000
00000010
00000000
00000010
00000100
00000001
00000000
00000010
00000100
00001000
00000000
00001000
00010000
,  // measure 52
00100000
01000000
11000000
01100000
00100000
00001000
00010000
00000100
,  // measure 53
00000010
00000000
00000000
00000000
;

//---------------dance-single - ----------------
#NOTES:
     dance-single:
     :
     Beginner:
     2:
     0.063,0.081,0.031,0.000,0.000:
0000
0000
0000
0000
,
0000
0000
0000
0000
,
0000
0000
0000
0000
,
0000
0000
0000
0000
,
1000
0000
0000
0000
,
1000
0000
0000
0000
,
0001
0000
0000
0000
,
0001
0000
0000
0000
,
0100
0000
0000
0000
,
0010
0000
0000
0000
,
0100
0000
0000
0000
,
0001
0000
0000
0000
,
0010
0000
0000
0000
,
0001
0000
0000
0000
,
0010
0000
0000
0000
,
0100
0000
0000
0000
,
1000
0000
0000
0000
,
1000
0000
0000
0000
,
0001
0000
0000
0000
,
0001
0000
0000
0000
,
1000
0000
0000
0000
,
1000
0000
0000
0000
,
0001
0000
0000
0000
,
0001
0000
0000
0000
,
0110
0000
0000
0000
,
0010
0000
0000
0000
,
0100
0000
0000
0000
,
1000
0000
0000
0000
,
0001
0000
0000
0000
,
0010
0000
0000
0000
,
0100
0000
0000
0000
,
0010
0000
0000
0000
,
1001
0000
0000
0000
,
0000
0000
0000
0000
,
0001
0000
0000
0000
,
1000
0000
0000
0000
,
1001
0000
0000
0000
,
0001
0000
0000
0000
,
0001
0000
0000
0000
,
0001
0000
0000
0000
,
1000
0000
0000
0000
,
1000
0000
0000
0000
,
1000
0000
0000
0000
,
1001
0000
0000
0000
,
0010
0000
0100
0000
,
0010
0000
0000
0000
,
1000
0000
0001
0000
,
1000
0000
0000
0000
,
0001
0000
0010
0000
,
0001
0000
0000
0000
,
1000
0000
0100
0000
,
1000
0000
0000
0000
,
0010
0000
0000
0000
;
