#TITLE:Paradission;
#SUBTITLE:;
#ARTIST:BlackY;
#TITLETRANSLIT:;
#SUBTITLETRANSLIT:;
#ARTISTTRANSLIT:;
#CREDIT:DigiMindAxel;
#BANNER:Paradission.png;
#BACKGROUND:Paradission-bg.png;
#LYRICSPATH:;
#CDTITLE:MUSECA.png;
#MUSIC:Paradission.ogg;
#METERTYPE:DDR X;
#OFFSET:-8.400;
#SAMPLESTART:14.601;
#SAMPLELENGTH:12.000;
#SELECTABLE:YES;
#BPMS:0.000=154.000,96.000=77.000,104.000=154.000,120.000=77.000,128.000=154.000;
#STOPS:;
#BGCHANGES:;

//---------------dance-single - ----------------
#NOTES:
     dance-single:
     :
     Easy:
     5:
     0.250,0.317,0.140,0.174,0.000:
1001
0000
1001
0000
,
1001
0000
1001
0000
,
1001
0000
0001
1000
,
0001
0000
0000
0000
,
1000
0000
0010
0000
,
0100
0010
0100
0010
,
0100
0000
0001
0000
,
1000
0001
1000
0001
,
1000
0000
0100
0000
,
0010
0001
0010
0001
,
0100
0000
0100
0000
,
0010
1000
0010
1000
,
0002
0000
0000
0000
,
2003
0000
0000
0000
,
3200
0000
0000
0000
,
0320
0000
0000
0030
,
1001
0000
0001
0000
,
0100
0010
1000
0100
,
0010
0000
0001
0000
,
0010
0100
1000
0100
,
0010
0000
0001
0000
,
0100
0010
1000
0001
,
0010
0000
0100
0000
,
1000
0010
0100
0010
,
2000
3001
0200
0301
,
2000
3100
0020
0000
,
0031
0000
0000
1001
0000
0000
1000
0000
,
0000
1001
0000
0000
0001
0000
0000
1000
,
0002
0000
0000
0000
,
0203
0000
0000
0300
,
0001
1000
0100
0000
,
0010
0100
1000
0000
,
0001
0000
0100
0000
,
0010
0100
0010
0000
,
0100
0000
0001
0000
,
1000
0100
1000
0000
,
2002
0000
0000
3003
,
0001
0100
0001
1000
,
0100
0000
0010
0000
,
0001
0100
0010
0100
,
0001
0000
1000
0000
,
0100
0010
0001
0010
,
0100
0000
1000
0000
,
0010
0100
0001
0100
,
0010
0000
0100
0010
,
2000
0001
3002
0010
,
0023
0100
0130
1000
,
0002
0100
0203
0010
,
0320
1000
1030
0000
,
1001
0000
1001
0000
,
1000
0001
0100
0001
,
1001
0000
1001
0000
,
1001
0000
0002
0000
,
2003
0000
0000
0000
,
0000
0000
3000
0000
,
0001
0100
0001
1000
,
0100
0010
0001
0001
,
1000
0100
1000
0001
,
0100
0010
1000
0000
,
0001
0010
0001
1000
,
0001
0100
0010
0000
,
1000
0100
0010
0100
,
1001
0000
0000
1001
0000
0000
1001
0000
,
0002
0000
0000
0000
0000
0000
0000
0103
;

//---------------dance-single - ----------------
#NOTES:
     dance-single:
     :
     Medium:
     8:
     0.437,0.475,0.248,0.256,0.037:
1010
0010
1010
0010
,
0110
0010
1001
1000
,
1001
1000
1001
1000
,
0220
0000
0000
0330
,
1001
0000
0001
0100
0010
0000
0100
0001
,
0020
0000
0130
0000
2000
0000
3010
0100
,
0001
1000
0001
0000
1000
0100
0010
0000
,
0001
1000
0010
0000
0100
0010
0100
0010
,
0100
0000
0001
1000
0100
0000
1000
0100
,
0020
0130
1100
0000
,
1001
0000
1000
0001
0100
0000
0001
1000
,
0100
0000
0000
0100
0000
0000
1100
0000
0000
0100
0000
0000
0101
0000
0000
0000
,
1001
0001
0001
0000
,
0010
0010
0010
0000
,
0100
0100
0100
0100
,
2002
0000
0000
3003
,
0001
1000
0100
0000
1000
0100
0010
0000
,
0100
1000
0001
0000
0100
0001
0010
0000
,
0001
0010
0100
0000
0010
0100
1000
0000
,
0001
0100
0010
0000
0100
0010
1000
0010
,
0200
0000
0000
0000
0301
0010
0100
0010
,
0002
0000
0000
0000
0013
0100
1000
0100
,
0020
0000
0000
0000
0031
1000
0001
0010
,
0001
0000
1001
0000
0001
0100
0010
0100
,
0002
0000
2003
0000
3100
0010
0011
0000
,
0002
0000
1003
0001
0200
0000
0310
1000
,
0001
0000
0000
0010
0000
0000
0001
0000
0000
0010
0000
0000
0001
0000
0000
1000
,
0000
0000
0001
0000
0000
1000
0000
0000
0001
0000
0000
0100
0000
0000
0010
0000
,
2000
0000
0000
0000
,
3000
0001
0001
0000
1000
1000
0000
0000
,
1001
0000
0001
0000
0100
0010
1000
0000
,
0100
0000
0010
0000
0001
1000
0100
1000
,
1001
0001
0100
0001
,
0100
0010
0100
0010
0100
0000
0001
1000
,
0100
0010
0001
1000
,
0100
1000
0100
1000
0010
0100
0010
0000
,
2002
0000
0000
3003
,
1000
0001
0100
0000
0001
1000
0100
0000
,
1000
0100
1000
0000
0100
0010
0100
0010
,
0100
0000
1000
0000
0010
0100
0010
0100
,
0001
0000
0010
0000
0100
1000
0100
0000
,
1000
0001
0100
0000
0001
0100
0010
0000
,
1000
0001
1000
0000
0100
0010
0001
0000
,
0100
0010
0100
0000
0001
1000
0100
0000
,
0010
0100
0010
0100
0010
0100
0010
0000
,
0001
0000
1000
0100
0001
0000
0100
1000
,
0001
0000
1000
0010
0001
0000
0010
1000
,
0001
0000
0010
0000
0100
0010
0001
0000
,
1000
0000
0010
0000
0100
0010
1000
0000
,
2002
3003
2002
3003
,
0011
0110
1100
0110
,
2002
3003
2002
3003
,
2002
0003
0200
3300
,
0020
0000
0000
0000
,
0000
0000
0030
0000
,
0001
1000
0100
0000
1000
0100
0010
0000
,
0001
1000
0001
1000
0010
0100
0010
0000
,
0100
0001
0010
0000
0001
0010
0100
0000
,
1000
0001
1000
0001
0100
0010
0100
0000
,
0010
1000
0100
0000
0010
0001
1000
0000
,
0010
0100
0010
0100
0001
0010
0001
0000
,
0010
0100
1000
0000
0100
1000
0001
0000
,
0100
0000
0000
0001
0000
0000
0100
0000
0000
0001
0000
0000
0100
0000
0000
0000
,
2002
0000
0000
0000
0000
3003
0000
1001
;

//---------------dance-single - ----------------
#NOTES:
     dance-single:
     :
     Hard:
     13:
     0.602,0.792,0.388,0.248,0.496: // measure 1
1000
0000
0000
0100
0000
0000
0010
0000
0100
0000
0000
1000
0000
0000
0001
0000
,  // measure 2
0100
0000
0000
0010
0000
0000
0100
0000
0001
0000
0000
0010
0000
0000
0100
0000
,  // measure 3
1000
0000
0000
0001
0000
0000
0100
0000
0000
0010
0000
0000
1000
0000
0001
0000
,  // measure 4
2002
0000
0000
3003
,  // measure 5
0001
0000
0000
0001
0000
0000
0010
0100
1000
0000
0000
1000
0000
0000
0010
0100
,  // measure 6
0001
0000
0000
0010
0000
0000
0100
0000
0010
0000
0000
0001
0000
1000
0000
0001
,  // measure 7
0100
0000
0000
0100
0000
0000
0010
1000
0001
0000
0000
0001
0000
0000
0010
0100
,  // measure 8
1000
0000
0000
1000
0000
0000
0010
0000
0100
0000
0001
0000
0010
0000
0100
0000
,  // measure 9
1000
0000
0000
1000
0000
0000
0100
0010
0001
0000
0000
0001
0000
0000
0100
0010
,  // measure 10
1000
0000
0000
0001
0000
0000
0010
0000
0100
0000
0000
1000
0000
0001
0000
1000
,  // measure 11
0010
0000
0000
0010
0000
0000
0100
0001
1000
0000
0000
1000
0000
0000
0100
0010
,  // measure 12
0001
0000
0000
1001
0000
0000
1000
0000
0000
1001
0000
0000
0001
0000
0001
0000
,  // measure 13
0100
0000
0010
0000
1000
0010
1000
0010
1000
0000
0010
0000
0000
0000
0000
0000
,  // measure 14
1000
0000
0001
0000
0010
0001
0010
0001
0010
0000
0001
0000
0000
0000
0000
0000
,  // measure 15
0010
0000
0100
0000
1000
0100
1000
0100
1000
0000
0100
0000
0000
0000
0000
0000
,  // measure 16
1002
0000
1000
0000
1003
0001
0010
0100
,  // measure 17
1000
0001
0100
1000
0100
0001
1000
0010
,  // measure 18
0100
0001
0010
1000
0010
0100
1000
0001
,  // measure 19
0010
1000
0010
0001
1000
0010
0100
0010
,  // measure 20
1000
0001
0100
1000
0100
0001
0010
0100
,  // measure 21
2000
0000
3010
0100
0001
0010
0100
1000
,  // measure 22
0002
0000
1003
0001
1000
0010
0100
0001
,  // measure 23
0020
0000
0100
0000
0130
0000
1000
0100
,  // measure 24
0010
0000
0001
0000
1001
0000
1000
0001
1000
0000
0010
0000
0100
0000
0001
0000
,  // measure 25
0020
0000
0100
0000
0230
0000
1000
1300
0001
0010
0100
0000
1010
0000
0010
0010
,  // measure 26
2000
0000
0100
0000
3002
0000
0023
0000
0130
1000
0010
0100
0001
1000
0100
0010
,  // measure 27
0001
0000
0000
0101
0000
0000
0100
0000
0000
0110
0000
0000
0010
0000
0000
1010
,  // measure 28
0000
0000
1000
0000
0000
1100
0000
0000
0110
0000
0000
0011
0000
0000
1001
0000
,  // measure 29
0220
0000
0000
0000
,  // measure 30
0330
0110
1010
0000
0101
0110
0000
0000
,  // measure 31
1001
0000
1000
0100
0010
0001
0010
0001
0200
0000
0000
0000
0310
0000
0000
0000
,  // measure 32
1000
0100
0001
0100
1000
0010
0100
0001
1000
0000
0001
0010
1000
0010
0001
0000
,  // measure 33
1001
0000
0001
0010
0001
0100
0010
1000
,  // measure 34
0001
0000
0100
0000
1000
0000
0100
0000
0001
0000
0000
0010
0000
0000
0100
0000
,  // measure 35
1000
0000
0001
1000
0010
0001
0010
1000
,  // measure 36
0001
0000
0000
0100
0000
0000
0010
0000
0000
1000
0001
0000
0010
0000
0100
0000
,  // measure 37
2002
0000
0000
3003
,  // measure 38
1100
0000
0000
0100
0000
0000
0100
1000
0010
0000
0000
0010
0000
0000
0010
0000
,  // measure 39
0100
0000
0000
0001
0000
0000
0010
0100
1000
0000
0000
1000
0000
0000
1000
0000
,  // measure 40
0100
0000
0000
0100
0000
0000
0100
0010
0001
0000
0100
0000
1000
0000
0100
0000
,  // measure 41
0001
0000
0000
0001
0000
0000
0001
1000
0010
0000
0100
0000
0001
0000
0000
0000
,  // measure 42
0010
0000
0000
0010
0000
0000
0010
0100
1000
0000
0000
1000
0000
0000
1000
0000
,  // measure 43
0100
0000
0000
0010
0000
0000
0001
0000
0100
0000
0000
0010
0000
0000
1000
0000
,  // measure 44
0001
0000
0000
0001
0000
0000
0001
0010
0100
0000
0000
1000
0000
0010
1000
0000
,  // measure 45
0001
0010
1000
0010
0001
0010
0100
1000
,  // measure 46
0020
0000
0000
0000
0130
0000
0001
0010
0200
0000
0000
0000
1300
0000
0001
1000
,  // measure 47
0020
0000
0000
0000
0130
0000
0001
1000
0200
0000
0000
0000
1300
0000
0001
0000
,  // measure 48
0010
0000
0000
0100
0000
0000
1000
0010
0100
0000
0001
0100
0001
0000
1000
0000
,  // measure 49
1100
0000
0000
0000
1001
0000
0000
0000
0101
0000
0001
0000
1000
0000
0100
0010
,  // measure 50
0002
0000
0000
0000
0003
0000
0010
0100
2000
0000
0000
0000
3000
0000
0010
0000
,  // measure 51
1000
0000
0100
0010
0001
0000
0100
0000
0100
0000
0010
0000
1000
0000
0001
0000
,  // measure 52
0020
0000
0000
0000
0030
0000
0001
0100
0020
0000
0000
0000
0130
0000
0001
0000
,  // measure 53
2000
0000
0000
0001
0002
0000
3003
0000
,  // measure 54
0220
0000
0000
0000
,  // measure 55
0000
0000
0330
0000
,  // measure 56
1001
0000
0000
1001
0000
0000
0001
0100
0010
0000
0000
0110
0000
0000
0010
1000
,  // measure 57
0100
0000
0000
1100
0000
0000
1000
0000
1001
0000
0000
0001
0000
0100
0000
0001
,  // measure 58
1000
0000
0000
1100
0000
0000
0100
1000
0010
0000
0000
0110
0000
0010
0100
0000
,  // measure 59
0001
0000
0000
0011
0000
0001
1000
0000
0100
0000
0001
0000
0100
0000
1000
0000
,  // measure 60
0001
0000
0000
0011
0000
0000
0010
0100
1000
0000
0000
1100
0000
0000
0100
0010
,  // measure 61
0001
0000
0000
1001
0000
0000
1000
0000
1010
0000
0000
0010
0000
0100
0000
0010
,  // measure 62
1000
0000
0000
1001
0000
0000
0001
0010
0100
0000
0000
0110
0000
0000
0010
0000
,  // measure 63
1010
0000
0000
1001
0000
0000
1010
0000
0000
1001
0000
0000
1010
0000
0010
0000
,  // measure 64
0220
0000
0000
0000
0000
0330
0000
1001
;

//---------------dance-single - ----------------
#NOTES:
     dance-single:
     :
     Challenge:
     16:
     0.877,1.000,0.372,0.165,1.000: // measure 1
1000
0000
0001
0100
0000
0001
0100
0010
1000
0000
0100
0010
0000
0100
0010
0001
,  // measure 2
0100
0000
0010
1000
0000
0010
1000
0001
0010
0000
0100
1000
0000
0100
1000
0010
,  // measure 3
0100
0000
0000
0101
0000
0000
1001
0000
0000
1100
0000
0000
0011
0000
0110
0000
,  // measure 4
2200
0000
0000
0000
0000
3300
1001
0000
,  // measure 5
0101
0000
0100
0010
0000
0100
0001
0010
0100
0000
1000
0100
0000
1000
0001
0010
,  // measure 6
0100
0000
1000
0010
0000
0010
0100
0000
0100
0000
0000
0001
0000
0100
0000
1000
,  // measure 7
0100
0000
0001
1000
0000
0010
1000
0100
0010
0000
0001
0100
0000
0001
1000
0010
,  // measure 8
0100
0000
0001
0100
0000
0100
0010
0000
1000
0100
0010
0001
1000
0100
0010
0001
,  // measure 9
1000
0000
0010
0100
0000
0001
0010
0100
0010
0000
0001
1000
0000
0010
1000
0100
,  // measure 10
0010
0000
0001
0100
0000
0001
1000
0100
0010
0000
0000
0101
0000
0101
0000
0001
,  // measure 11
1000
0000
0100
1000
0000
0010
0100
0001
0010
0000
0100
0010
0000
0001
1000
0010
,  // measure 12
0100
0000
0001
1000
0000
0010
0100
0000
0001
1000
0000
0010
0100
0000
0110
0000
,  // measure 13
1001
0000
1000
0000
0001
0100
0010
0100
0001
0000
1000
0000
0100
1000
0100
1000
,  // measure 14
0100
0000
0010
0000
0001
1000
0010
1000
0001
0000
0010
0000
0100
0000
1000
0000
,  // measure 15
0001
0100
0001
0000
1000
0100
1000
0000
0100
0010
0001
0000
1000
0010
0100
0000
,  // measure 16
0001
0010
0100
1000
0001
0010
0100
1000
0002
0000
1000
0000
1000
0000
1003
0000
,  // measure 17
0001
0100
0010
0100
0001
0000
1000
0100
1000
0000
0010
0100
0010
0000
1000
0000
,  // measure 18
0001
0010
0100
0010
0001
0000
1000
0010
1000
0000
0001
0010
0001
0000
0010
0000
,  // measure 19
0100
1000
0010
0100
0001
0000
1000
0100
1000
0000
0001
0100
0001
0000
1000
0100
,  // measure 20
0010
0001
0100
0010
0100
0000
0001
1000
0001
0000
1000
0010
1000
0000
0001
0010
,  // measure 21
0100
1000
0001
1000
0100
0000
0010
0001
0010
0000
0100
0010
0100
0000
1000
0100
,  // measure 22
1000
0001
0100
0001
1000
0000
0100
1000
0010
0000
0100
0010
0100
0000
0001
0100
,  // measure 23
0001
0010
0100
0010
0001
0000
0100
0010
1000
0000
0100
0010
0000
0010
0001
0000
,  // measure 24
1000
0010
0100
0010
1000
0000
0001
0010
0001
0000
1000
0000
1010
0000
0010
0000
,  // measure 25
0210
0000
0000
0000
0301
0000
0000
0000
1002
0000
0000
0000
0103
0000
0010
1000
0000
0001
0010
0000
0100
0000
0000
0000
1000
0000
0010
0000
0100
0001
0100
0001
,  // measure 26
0200
0000
0000
0000
0310
0000
0000
0000
2001
0000
0000
0000
3100
0000
0000
0000
0010
0001
0010
0001
1000
0010
1000
0000
0010
0100
0001
0010
0100
1000
0001
0000
,  // measure 27
0101
0000
0000
0110
0000
0000
0101
0000
0000
0110
0000
0000
1100
0000
0000
0110
,  // measure 28
0000
0000
1100
0000
0000
0110
0000
0000
1001
0000
0000
1010
0000
0000
0101
0000
,  // measure 29
2002
0000
0000
0000
,  // measure 30
3003
0101
0110
0000
0110
1010
0000
0000
,  // measure 31
1001
0000
0000
0000
1000
0100
0010
0001
1000
0000
1000
0000
0010
0000
0010
0000
0100
0010
0100
0010
0100
0010
0100
0010
0100
0000
0000
0000
0000
0000
0001
1000
,  // measure 32
0001
0000
0010
0001
0010
0000
0100
0010
0100
0000
1000
0010
0100
0010
1000
0010
0100
0000
0001
0100
0001
1000
0100
0010
0001
0010
0100
1000
0001
0010
0100
0000
,  // measure 33
1100
0000
0000
0000
1000
0100
0010
0001
1000
0000
0010
0000
0010
0000
0100
0000
,  // measure 34
0001
1000
0001
1000
0001
1000
0001
1000
0001
0000
0000
0000
0100
0010
1000
0100
,  // measure 35
0010
0000
0000
0001
0000
0000
0100
0001
1000
0000
0001
0000
0010
0000
0100
0000
,  // measure 36
1000
0000
0001
0100
0000
0100
0010
0000
1000
0000
0100
0010
0000
0010
0001
0000
,  // measure 37
1001
1000
0100
0010
0001
1000
0010
0000
,  // measure 38
1001
0000
1000
0010
0000
0010
0100
0001
0010
0000
0010
0100
0000
0100
1000
0001
,  // measure 39
0100
0000
0100
0010
0000
0010
1000
0100
0010
0000
0010
0001
0000
0001
1000
0000
,  // measure 40
0010
0000
0010
0100
0000
0100
0001
0010
0100
0000
1000
0000
1000
0000
0010
0000
,  // measure 41
0010
0000
0100
0001
0000
0001
1000
0100
0010
0000
0001
0100
0010
0000
1000
0000
,  // measure 42
1001
0000
0001
1000
0000
1000
0100
0010
0100
0000
0100
1000
0000
1000
0010
0000
,  // measure 43
0010
0000
0100
0001
0000
0001
1000
0000
1000
0000
0100
1000
0000
1000
0001
0100
,  // measure 44
0010
0000
0010
1000
0000
1000
0001
0010
0100
0000
1000
0001
0000
0001
0100
0010
,  // measure 45
1000
0000
0001
0010
0000
0010
0100
0000
1000
0010
1000
0001
0010
0001
1000
0100
,  // measure 46
0020
0000
0000
0000
0031
0100
1000
0100
0002
0000
0000
0000
1003
0010
0001
0010
,  // measure 47
2000
0000
0000
0000
3001
0100
1000
0100
0002
0000
0000
0000
1003
0000
0001
0000
,  // measure 48
0100
0000
0000
0001
0000
0000
0000
0000
0000
1000
0000
0000
0100
0000
0000
0000
0000
0000
0010
0000
0000
0100
0000
0000
1000
0000
0000
0000
0000
0000
0010
0000
0100
0000
0010
0000
0100
0000
0000
0000
0000
0000
0001
0000
0000
0000
0000
0000
,  // measure 49
1000
0010
1000
0000
0010
0100
0010
0000
0100
0001
0100
0000
0001
0000
1000
0100
,  // measure 50
0020
0000
0000
0000
0030
0000
0001
1000
0200
0000
0000
1000
0000
0000
1300
0000
,  // measure 51
0001
1000
0100
0010
0001
1000
0010
1000
0001
0000
0000
0000
1000
0010
0001
0010
,  // measure 52
2000
0000
0000
0000
3001
0010
1000
0010
0001
0000
1000
0000
0100
0000
0010
0000
,  // measure 53
0002
0000
0000
0100
0200
0000
0303
0000
,  // measure 54
2002
0000
0000
0000
,  // measure 55
0000
0000
0000
0000
0000
0000
3003
0000
1000
0001
0000
1000
0100
0000
0000
0000
,  // measure 56
1001
0000
1000
0010
0000
0010
0100
0001
0010
0000
0010
0100
0000
0100
1000
0010
,  // measure 57
0100
0000
0100
0001
0000
0001
1000
0100
0010
0000
0000
0001
0000
0100
0000
1000
,  // measure 58
0100
0000
0001
1000
0000
1000
0100
0010
0100
0000
0100
1000
0000
1000
0001
0100
,  // measure 59
0010
0000
0010
1000
0000
1000
0001
0000
1000
0100
0010
0001
1000
0100
0010
0001
,  // measure 60
1000
0000
0010
1000
0000
1000
0001
0010
0100
0000
0100
1000
0000
1000
0001
0100
,  // measure 61
0010
0000
0010
1000
0000
1000
0001
0000
1001
0000
0000
1100
0000
1100
0000
1000
,  // measure 62
0001
0000
0100
0001
0000
0001
1000
0100
0010
0000
0010
0001
0000
0001
1000
0000
,  // measure 63
1010
0000
0010
0100
0000
0001
1000
0000
0010
0100
0000
0001
1000
0000
1100
0000
,  // measure 64
1001
0000
0001
0000
0100
0001
0000
1000
0100
0000
1000
0100
0000
1000
0001
0000
;

//---------------dance-single - ----------------
#NOTES:
     dance-single:
     :
     Beginner:
     2:
     0.106,0.132,0.083,0.000,0.000:
1000
0000
0000
0000
,
0001
0000
0000
0000
,
1000
0000
0000
0000
,
1001
0000
0000
0000
,
1001
0000
0000
0000
,
0001
0000
0000
0000
,
0100
0000
0000
0000
,
0010
0000
0000
0000
,
0100
0000
0000
0000
,
0001
0000
0000
0000
,
1000
0000
0100
0000
,
1000
0000
0000
0000
,
1001
0000
0000
0000
,
0001
0000
0000
0000
,
0001
0000
0000
0000
,
1001
0000
0000
0000
,
1000
0000
0100
0000
,
1000
0000
0000
0000
,
0001
0000
1000
0000
,
0001
0000
0000
0000
,
0010
0000
0001
0000
,
0010
0000
0000
0000
,
0001
0000
1000
0000
,
0001
0000
0000
0000
,
1001
0000
0000
0000
,
1000
0000
0000
0000
,
1001
0000
0000
0000
,
0000
0000
0000
0000
,
1001
0000
0000
0000
,
0000
0000
0000
0000
,
0001
0000
0000
0000
,
0100
0000
0000
0000
,
0010
0000
0000
0000
,
0010
0000
0000
0000
,
0100
0000
0000
0000
,
0100
0000
0000
0000
,
1001
0000
0000
0000
,
0001
0000
0000
0000
,
0010
0000
0000
0000
,
0100
0000
0000
0000
,
0010
0000
0000
0000
,
0001
0000
1000
0000
,
0001
0000
0000
0000
,
1000
0000
0100
0000
,
1000
0000
0000
0000
,
0001
0000
0100
0000
,
0001
0000
1000
0000
,
0100
0000
1000
0000
,
0100
0000
0000
0000
,
0010
0000
0001
0000
,
0010
0000
0000
0000
,
0001
0000
1000
0000
,
0001
0000
0000
0000
,
1001
0000
0000
0000
,
0000
0000
0000
0000
,
1000
0000
0010
0000
,
0100
0000
0010
0000
,
1000
0000
0001
0000
,
1000
0000
0000
0000
,
0001
0000
0100
0000
,
0010
0000
0100
0000
,
0001
0000
1000
0000
,
0001
0000
0000
0000
,
1001
0000
0000
0000
0000
0000
0000
1000
;
