#TITLE:PURE DREAM;
#SUBTITLE:;
#ARTIST:PINK PONG;
#TITLETRANSLIT:;
#SUBTITLETRANSLIT:;
#ARTISTTRANSLIT:;
#CREDIT:DigiMindAxel;
#BANNER:PURE DREAM.png;
#BACKGROUND:PURE DREAM-bg.png;
#LYRICSPATH:;
#CDTITLE:beatmania.png;
#MUSIC:PURE DREAM.ogg;
#METERTYPE:DDR X;
#OFFSET:-8.941;
#SAMPLESTART:51.194;
#SAMPLELENGTH:12.000;
#SELECTABLE:YES;
#BPMS:0.000=142.000;
#STOPS:;
#BGCHANGES:;

//---------------dance-single - ----------------
#NOTES:
     dance-single:
     :
     Easy:
     4:
     0.186,0.200,0.086,0.000,0.000:
1000
0000
0100
0000
,
1000
0000
0001
0000
,
1000
0000
0100
0000
,
1000
0000
0001
0000
,
1001
0000
1000
0000
,
0010
0000
0100
0000
,
0010
0000
1000
0000
,
0001
0000
0010
0000
,
1001
0000
0000
0000
,
0001
0000
0000
0000
,
1001
0000
1000
0000
,
0001
1000
0001
1000
,
0100
0000
0010
0000
,
0100
0000
0010
0000
,
0001
0000
0100
0000
,
0001
0000
0100
0000
,
0001
1000
0001
0000
,
1000
0001
1000
0000
,
0100
1000
0100
0000
,
1000
0100
1000
0000
,
0001
1000
0001
0000
,
0100
0001
0100
0000
,
0001
1000
0001
1000
,
0100
0000
0000
0100
0000
0000
0100
0000
,
0000
0000
0000
0000
,
1001
0000
1000
0000
,
0001
0000
0100
0000
,
0010
0000
1000
0000
,
0100
0010
0100
0010
,
0001
0000
0100
0000
,
0010
0000
1000
0000
,
0100
0010
0100
0010
,
0100
1000
0100
0000
,
1000
0001
0100
0000
,
0001
1000
0100
0000
,
0010
0001
0100
0000
,
0010
0100
0010
0100
,
1001
0000
0000
0000
,
0001
0000
0000
0000
,
1001
0000
1000
0000
,
0001
1000
0001
0110
;

//---------------dance-single - ----------------
#NOTES:
     dance-single:
     :
     Medium:
     8:
     0.382,0.351,0.196,0.025,0.000:
1000
0001
1000
0000
0001
0100
0001
0000
,
1000
0001
1000
0000
0100
1000
0100
0000
,
0010
0100
0010
0000
0001
0100
0001
0000
,
1000
0001
1000
0000
0100
1000
0100
0000
,
1000
0010
0100
0000
0010
0100
0010
0000
,
1000
0001
0010
0000
0001
0010
0001
0000
,
0010
0100
1000
0000
0001
0100
0001
0000
,
0010
0100
1000
0000
0001
0100
0001
0000
,
1001
0000
0000
0000
0000
0000
0000
1000
,
0100
0000
0000
0000
,
1001
0000
0001
0000
,
0011
1100
0011
1100
,
1001
0000
0001
0100
0000
0001
0000
0100
,
0010
0000
0100
0010
0000
1000
0000
0000
,
0100
0000
0010
0001
0000
0010
0000
0001
,
1000
0000
0001
1000
0000
0010
0000
0000
,
1001
0000
1000
0100
0000
1000
0000
0010
,
0100
0000
0010
0100
0000
0001
0000
0000
,
1001
0000
1000
0010
0000
1000
0000
0010
,
0100
0000
0001
1000
0000
0001
1000
0000
,
1100
0000
0100
1000
0000
0010
0000
0100
,
0001
0000
0010
0100
0000
0010
0100
0000
,
1000
0000
0100
0010
0001
0010
0100
0000
,
1010
0000
0000
0101
0000
0000
2002
0000
,
0000
0000
0000
3003
,
0101
0000
0100
0001
1000
0000
0100
1000
,
0001
0000
0100
0001
1000
0000
0100
1000
,
0001
0000
0100
0001
0010
0000
0001
0100
,
0010
0000
1000
0100
0000
1000
0100
0000
,
0010
0100
1000
0000
0100
0010
0001
0000
,
0010
0100
1000
0000
0100
0010
0001
0000
,
0100
0010
1000
0000
0010
0100
0001
0000
,
1000
0000
0010
1000
0000
0001
0010
0000
,
0100
1000
0010
0000
0100
0001
0010
0000
,
0100
1000
0010
0000
0100
0001
0010
0000
,
0001
0010
0100
0000
1000
0100
0010
0000
,
0001
0000
0100
0001
0000
1000
0100
0000
,
1001
0000
0001
0000
0000
0001
0010
0000
,
0100
0000
1000
0000
0000
0001
0100
0000
,
0110
0010
1000
0100
,
0010
0000
0001
0100
0000
0001
1000
0100
;

//---------------dance-single - ----------------
#NOTES:
     dance-single:
     :
     Hard:
     12:
     0.625,0.601,0.331,0.319,0.515:
1000
0000
0010
0000
0000
0100
0000
0000
0001
0000
0010
0000
0000
0100
0000
0000
,
1000
0000
0001
0000
0000
0100
0000
0000
0010
0000
1000
0000
0000
0100
0000
0000
,
0010
0000
0001
0000
0000
0100
0000
0000
0001
0000
1000
0000
0000
0100
0000
0000
,
1000
0000
0001
0000
0000
0010
0000
0000
0001
0000
0100
0000
0000
0010
0000
0000
,
1000
0000
0001
0000
0100
0001
0000
1000
0000
0000
0001
0000
0100
0001
0000
1000
,
0000
0000
0001
0000
1000
0100
0000
1000
0000
0000
0001
0000
1000
0100
0000
1000
,
0000
0000
0001
0000
0100
0010
0000
1000
0000
0000
0001
0000
0100
0010
0000
1000
,
0000
0000
0001
0000
0010
0001
0000
1000
0000
0000
0001
0000
0010
0001
0000
1000
,
0001
0100
0001
1000
0001
0100
0001
1000
,
0100
1000
0001
1000
0100
1000
0001
1000
,
1200
1000
2300
0001
,
3001
0110
1001
0110
,
2001
0000
0010
3020
0000
0230
0000
0301
,
2000
0000
0100
3200
0000
0320
0000
0031
,
2000
0000
0010
3020
0000
0230
0000
0301
,
2000
0000
0100
3200
0000
0310
0001
0010
,
0100
0000
0000
1000
0001
0000
0200
0000
0000
0000
0301
1000
0001
1000
0001
0000
,
1000
0000
0000
0100
1000
0000
0020
0000
0000
0000
0130
0001
0100
0001
0100
0000
,
0001
0000
0000
0010
0100
0000
2000
0000
0000
0000
3100
0010
0100
0010
0100
0000
,
1000
0000
0000
0100
0010
0000
0110
0000
0000
0000
1001
0000
1001
0000
0101
0000
,
0101
0000
0000
0100
0010
0000
2000
0000
0000
0000
3100
0010
0100
0010
0100
0000
,
1000
0000
0000
0010
0100
0000
0110
0000
0000
0000
1001
0000
1001
0000
1100
0000
,
1100
0000
0010
0000
0001
0000
0020
0000
0000
0230
0000
0000
1300
0000
1000
0000
,
1100
0000
0000
0110
0000
0000
0011
0000
0000
0110
0000
0000
2002
0000
0000
0000
,
0000
0000
0000
3003
,
0101
0000
0001
0000
0100
0010
0000
0100
0010
0000
1000
0000
0100
1000
0000
0100
,
1000
0000
0001
0000
0100
0001
0000
0100
0001
0000
1000
0000
0100
0010
0000
0100
,
0010
0000
0001
0000
0100
0001
0000
0100
0001
0000
1000
0000
0100
1000
0000
0100
,
1000
0001
0100
2000
0000
3100
0001
1000
,
1001
0000
0001
0000
0100
0001
0000
0100
0001
0000
1000
0000
0100
1000
0000
0100
,
1000
0000
0001
0000
0010
0100
0000
0010
0100
0000
1000
0000
0001
0100
0000
0001
,
0100
0000
0001
0000
1000
0100
0000
1000
0100
0000
0010
0000
0001
0100
0000
0001
,
0100
0001
0100
2000
0000
3100
0001
1000
,
1001
0000
0001
0000
0100
0001
0000
1000
0001
0000
0010
0001
0100
0010
0000
1000
,
0100
0000
0010
0000
1000
0100
0000
0010
0100
0000
1000
0001
1000
0100
0000
0010
,
0100
0000
1000
0000
0001
0100
0000
0001
1000
0000
0100
1000
0100
0010
0000
0001
,
1000
0100
0001
0200
0000
1300
0001
1000
,
1020
0000
1000
0000
0000
0100
0130
0000
,
0002
0000
0010
0000
0000
1000
1003
0000
,
1001
0000
0001
0000
1000
0100
0000
0010
0100
0000
1000
0000
0001
0100
0000
0010
,
0100
0001
1000
0010
0001
0010
0110
1001
;

//---------------dance-single - ----------------
#NOTES:
     dance-single:
     :
     Beginner:
     2:
     0.086,0.150,0.098,0.000,0.000: // measure 1
1000
0000
0000
0000
,  // measure 2
0100
0000
0000
0000
,  // measure 3
1000
0000
0000
0000
,  // measure 4
0001
0000
0000
0000
,  // measure 5
1001
0000
0000
0000
,  // measure 6
1000
0000
0000
0000
,  // measure 7
0010
0000
0000
0000
,  // measure 8
1000
0000
0000
0000
,  // measure 9
1001
0000
0000
0000
,  // measure 10
0000
0000
0000
0000
,  // measure 11
1001
0000
0001
0000
,  // measure 12
1001
0000
0000
0000
,  // measure 13
1000
0000
0000
0000
,  // measure 14
0010
0000
0000
0000
,  // measure 15
1000
0000
0000
0000
,  // measure 16
0001
0000
0000
0000
,  // measure 17
1000
0000
0000
0000
,  // measure 18
0010
0000
0000
0000
,  // measure 19
1000
0000
0000
0000
,  // measure 20
0001
0000
0000
0000
,  // measure 21
0010
0000
0000
0000
,  // measure 22
0100
0000
0000
0000
,  // measure 23
1000
0000
0000
0000
,  // measure 24
1001
0000
0000
0000
,  // measure 25
0000
0000
0000
0000
,  // measure 26
0001
0000
0000
0000
,  // measure 27
0100
0000
0000
0000
,  // measure 28
0001
0000
0000
0000
,  // measure 29
1000
0000
0000
0000
,  // measure 30
0001
0000
0000
0000
,  // measure 31
0010
0000
0000
0000
,  // measure 32
0001
0000
0000
0000
,  // measure 33
1000
0000
0000
0000
,  // measure 34
0100
0000
0000
0000
,  // measure 35
0010
0000
0000
0000
,  // measure 36
0100
0000
0000
0000
,  // measure 37
1000
0000
0000
0000
,  // measure 38
1001
0000
0000
0000
,  // measure 39
0000
0000
0000
0000
,  // measure 40
1001
0000
1000
0000
,  // measure 41
1001
0000
0000
0010
;
