#TITLE:PICK ME;
#SUBTITLE:;
#ARTIST:PRODUCE 101;
#TITLETRANSLIT:;
#SUBTITLETRANSLIT:;
#ARTISTTRANSLIT:;
#CREDIT:DigiMindAxel;
#BANNER:PICK ME.png;
#BACKGROUND:PICK ME-bg.png;
#LYRICSPATH:PICK ME.lrc;
#CDTITLE:DigiMindAxel original simfile.png;
#MUSIC:PICK ME.ogg;
#METERTYPE:DDR X;
#OFFSET:-0.025;
#SAMPLESTART:63.735;
#SAMPLELENGTH:12.000;
#SELECTABLE:YES;
#BPMS:0.000=128.000;
#STOPS:132.000=0.938
;
#BGCHANGES:0.000=PICK ME.avi=1.000=1=1=0,
99999=-nosongbg-=1.000=0=0=0 // don't automatically add -songbackground-
;

//---------------dance-single - ----------------
#NOTES:
     dance-single:
     :
     Easy:
     4:
     0.186,0.257,0.095,0.135,0.000:
0000
0000
0000
0000
,
0000
0000
0000
0000
,
0000
0000
0000
0000
,
0000
0000
0000
0000
,
0000
0000
0000
0000
,
0000
0000
0000
0000
,
2002
0000
3003
0000
,
0000
0000
0000
0000
,
0200
0000
0300
0000
,
0220
0000
0000
0330
,
0100
0000
1000
0000
,
0100
0000
1000
0000
,
0010
0000
0100
0000
,
0010
0000
0100
0000
,
0001
0000
1000
0000
,
0001
0000
1000
0000
,
0001
0001
0001
0000
,
1000
1000
1000
0000
,
1001
0000
0001
0000
,
0100
0001
0100
0000
,
0001
0000
1000
0000
,
0001
1000
0001
0000
,
1000
0000
0100
0000
,
1000
0100
1000
0000
,
0010
0010
0010
0000
,
0100
0100
0100
0000
,
0001
0000
0001
0000
,
1000
0000
1000
0000
,
0001
0000
0001
0000
,
1000
0000
1000
0000
,
0001
1000
0001
1000
,
0001
1000
0001
1000
,
0200
0000
0320
0000
,
0130
0000
1001
0001
,
0010
0000
1001
0001
,
0010
0000
1001
0001
,
1000
1000
0001
0001
,
0010
0010
1001
1000
,
0010
0000
1001
1000
,
0010
0000
1001
1000
,
0001
0001
1000
0000
,
0000
0000
0010
0000
,
0010
0000
0010
0000
,
0010
0000
0010
0000
,
0010
0000
0110
0000
,
0000
0000
0200
0000
,
1300
0000
0002
0000
,
1003
0000
0020
0000
,
1030
0000
0001
1000
,
0001
1000
0200
0000
,
1300
0000
0020
0000
,
0130
0000
0002
0000
,
0023
0000
0130
0000
,
0000
0000
1001
0001
,
1000
0000
0001
1000
,
0001
0000
1000
0001
,
1000
0000
0010
1000
,
0010
1000
0001
1000
,
0001
0000
1000
0001
,
1000
0000
0100
1000
,
0100
1000
0020
0000
,
0030
0000
0220
0000
,
0000
0000
0000
0000
,
0000
0000
0000
0000
,
0000
0000
0330
0000
;

//---------------dance-single - ----------------
#NOTES:
     dance-single:
     :
     Medium:
     7:
     0.352,0.411,0.318,0.135,0.000:
0000
0000
0000
0000
,
0000
0000
0000
0000
,
0000
0000
0000
0000
,
0000
0000
0000
0000
,
0000
0000
0000
0000
,
0000
0000
0000
0000
,
1000
1000
1000
1000
,
0001
0001
0001
0001
,
1000
1000
1000
1000
,
0120
0000
0000
0130
,
1001
0010
0100
1000
,
0001
0001
0100
0100
,
0001
1000
0100
0010
,
0001
0001
1000
1000
,
0010
0100
0001
0100
,
0010
0010
1000
1000
,
1002
0000
0010
0000
0010
0000
0000
1000
,
0000
1000
0000
0000
1000
0000
1003
0000
,
0110
0010
0100
0010
,
1000
0100
1000
0001
,
0100
0001
0100
0001
,
0010
0100
0010
0100
,
1000
0010
1000
0010
,
1000
0001
1000
0001
,
2001
0000
0001
0000
0001
0000
0000
0100
,
0000
0100
0000
0000
0100
0000
3100
0000
,
1000
0001
1000
0000
0001
1000
0001
0000
,
1000
0001
1000
0000
0001
1000
0001
0000
,
0010
0100
0010
0000
0100
0010
0100
0000
,
0010
0100
0010
0000
0100
0010
0100
0000
,
1000
0010
1000
0000
0010
1000
0010
0000
,
0100
0001
0100
0000
0001
0100
0001
0000
,
1001
0100
0010
0001
,
0000
0110
1010
1010
,
0010
0100
0010
0000
1010
0000
1010
0000
,
0010
0100
0010
0000
1010
0000
1010
0000
,
1001
1001
0011
0011
,
0010
0100
0010
0000
0011
0000
0011
0000
,
0010
0100
0010
0000
0011
0000
0011
0000
,
0010
0100
0010
0000
0011
0000
0011
0000
,
1001
1001
1010
0000
,
0000
0000
0000
0000
0010
0100
0010
0000
,
1000
0010
1000
0000
0010
0100
0010
0000
,
1000
0001
1000
0000
0001
0010
0001
0000
,
0010
0100
0010
0100
2000
0000
0000
0000
,
0001
3001
0101
0101
,
1000
0100
1000
0000
0000
0010
0100
0000
,
0010
0100
0001
0000
1001
0000
1001
0000
,
1100
0000
0000
1000
0002
0000
2003
0000
,
3020
0130
0011
0011
,
0100
0010
0100
0000
0000
0001
1000
0000
,
0100
1000
0100
0000
1001
0000
0110
0000
,
1001
0110
1002
0000
,
1000
1000
1003
0000
0010
1000
0010
0000
,
0100
0001
0010
0000
0100
1000
0100
1000
,
0010
0000
0010
0000
1000
0001
1000
0000
,
0100
0010
0001
0000
0020
0000
0230
0000
,
2300
0000
3001
0000
0100
0001
0010
0000
,
0100
0010
0100
0000
1000
0100
0010
0000
,
0001
1000
0001
0000
2001
0000
3200
0000
,
0302
0000
0203
0000
1300
0000
0001
1000
,
0010
0010
2002
0000
,
0000
0000
0000
0000
,
0000
0000
0000
0000
,
0000
0000
3003
0000
;

//---------------dance-single - ----------------
#NOTES:
     dance-single:
     :
     Hard:
     10:
     0.462,0.488,0.334,0.088,0.056:
0000
0000
0000
0000
,
0000
0000
0000
0000
,
0000
0000
0000
0000
,
0000
0000
0000
0000
,
0000
0000
0000
0000
,
0000
0000
0000
0000
,
1000
1000
0100
0100
,
0010
0000
0010
0000
0001
0000
0100
0100
,
0010
0010
1000
1000
,
0010
0000
0100
0000
0010
0100
0000
0000
0010
0000
0000
0000
0110
0000
0000
0000
,
0010
0100
0010
0100
0001
1000
0100
1000
,
0001
0100
0000
0100
0000
0000
0000
1001
,
0000
1000
0100
1000
0100
0001
0100
1000
,
0001
0010
0000
0010
0000
0000
0000
1001
,
0000
0001
0100
0001
0100
1000
0100
0001
,
0010
0100
0000
0100
0000
1000
0001
0010
,
0100
0000
2000
0000
0010
3010
0000
0110
,
0000
0110
0000
0100
0010
0001
0100
0000
,
0001
1000
0010
1000
0001
1000
0100
0010
,
0001
0010
0100
1000
0010
0000
0100
0010
,
0100
0001
0010
0001
0100
0001
1000
0100
,
0010
0001
0100
0010
1000
0000
0010
0100
,
0010
1000
0100
1000
0001
0100
0001
1000
,
0100
0010
0001
0200
0000
0001
0301
1000
,
0100
0000
0020
0000
0001
0031
0000
0110
,
0000
0110
0000
0100
0010
1000
0100
0000
,
1100
1001
1100
1001
,
0101
0000
0110
0000
1010
1000
0001
0000
,
0011
0110
0011
0110
,
1001
0000
1010
0000
1001
0001
0010
0000
,
0110
0000
0010
0000
1000
0010
0000
0000
1000
0000
0100
0000
0010
0100
0000
0000
,
0010
0001
0100
0010
1000
0100
0011
0000
,
2000
0100
0100
0000
0001
0001
3001
0000
,
0000
0000
0110
0000
1000
1000
0001
0001
,
1000
0100
0010
0000
0001
0001
1000
1000
,
0001
0100
0010
0000
1000
1000
0001
0001
,
0100
0100
0001
0001
1000
1000
0100
0100
,
1000
0001
0010
0000
0100
0100
1000
1000
,
0001
0100
0010
0000
0100
0100
0001
0001
,
1000
0100
0010
0000
0001
0001
0100
0100
,
0001
0001
1000
1000
0000
0000
0000
0000
,
0000
0000
0000
0000
1010
0100
0010
0000
,
0011
0001
1000
0000
1100
0100
0010
0000
,
1001
0001
0100
0000
0110
0010
0001
0100
,
0010
0010
1000
1000
0001
0010
0001
1000
,
0100
1100
1001
1001
,
0101
0000
0000
0100
0010
0000
0100
0000
0000
0000
0001
0000
1000
0000
0100
0000
,
0010
0000
0000
0010
0001
0000
1000
0000
1001
0000
0000
0000
1001
0000
0000
0000
,
1100
0000
0000
0100
0010
0000
0100
0000
1002
0000
0000
0000
0203
0000
0000
0000
,
0310
0000
0000
0010
0100
0000
0001
0000
1000
0000
0100
0000
0010
0000
0100
0000
,
1000
0000
0000
1000
0001
0000
0100
0000
0000
0000
0001
0000
1000
0000
0100
0000
,
0010
0000
0000
0010
0100
0000
2000
0000
3001
0000
0100
0000
0010
0000
0100
0000
,
0001
0000
1000
0000
0100
0000
0010
0000
0101
0000
0100
0000
0100
0000
0001
1000
,
0001
0000
0001
0000
0001
1000
0100
1000
,
0001
0000
1000
0100
1000
0000
0001
0000
0000
0000
0100
0000
0010
0000
0100
0000
,
0001
0000
0100
0010
0100
0000
0001
0000
1000
0000
0010
0000
0100
0000
1000
0000
,
0100
0000
0010
1000
0001
0000
0010
0000
0210
0000
0000
0000
0302
0000
0000
0000
,
1003
0000
0000
1000
0001
0000
1000
0000
0010
0000
0001
0000
0010
0000
1000
0000
,
0100
0010
0101
0000
0001
0100
0010
1000
,
0001
0010
1100
0000
1000
0010
0001
0010
,
1000
0100
0001
0100
1000
1000
0001
0001
,
0100
0010
0220
0000
,
0000
0000
0000
0000
,
0000
0000
0000
0000
,
0000
0000
0330
0000
;

//---------------dance-single - ----------------
#NOTES:
     dance-single:
     :
     Challenge:
     12:
     0.563,0.642,0.366,0.080,0.223:
0000
0000
0000
0000
,
0000
0000
0000
0000
,
0000
0000
0000
0000
,
0000
0000
0000
0000
,
0000
0000
0000
0000
,
0000
0000
0000
0000
,
1000
0001
1000
0001
1000
0001
1000
0001
,
1000
0100
1000
0100
1000
0100
0010
0010
,
0001
0100
0001
0100
0001
0100
0001
0100
,
0010
0000
0010
0000
1000
0001
1000
0000
0001
0000
0000
0000
1001
0000
0000
0000
,
1000
0100
0001
0100
1000
0010
0001
0010
,
0100
1000
0001
0100
0000
0000
0000
0001
,
1000
0100
0001
0100
1000
0010
0001
0010
,
0100
0001
0010
0001
0000
0000
0000
0100
,
0010
1000
0100
0001
0100
1000
0001
0100
,
1000
0100
0010
1000
0000
0001
0010
0100
,
1000
0000
1001
0000
0001
0101
0000
0110
,
0000
0110
0000
0100
0001
0010
0100
0000
,
1000
0010
0001
0010
0100
0001
1000
0100
,
0010
1000
0010
0100
1000
0000
0001
1000
,
0001
0100
1000
0100
0010
1000
0001
0010
,
0100
0010
0001
1000
0100
0000
1000
0001
,
1000
0100
0001
0100
0010
0001
1000
0100
,
0010
0100
1000
0001
0000
0001
0010
0100
,
1000
0000
1001
0000
0001
0101
0000
0110
,
0000
0110
0000
0010
1000
0100
0010
0000
,
0001
0100
0001
0100
0001
0100
1000
0100
,
1000
0000
0100
0000
1000
0000
0100
0000
0001
0000
1000
0000
0001
1000
0001
1000
,
0001
0010
0001
0010
0001
0010
1000
0010
,
1000
0000
0010
0000
1000
0000
0010
0000
0001
0000
1000
0000
0001
1000
0001
1000
,
0001
0000
0100
0000
0010
1000
0010
1000
0001
0000
0010
0000
0100
1000
0100
1000
,
0010
0100
0001
1000
0100
0010
0001
0000
,
0100
0001
0100
0001
0100
0001
0100
0001
0100
0010
0100
0010
0100
0010
0100
0010
,
0000
0000
1001
0000
1100
0100
1100
0100
,
1000
0001
0011
0000
0110
0100
0110
0100
,
0001
1000
1010
0000
1001
0001
1001
0001
,
0110
0100
0110
0010
1001
1000
1001
1000
,
0001
0100
0110
0000
1010
0010
1010
1000
,
0100
0010
0011
0000
0110
0100
0101
0001
,
1000
0100
0110
0000
1001
0001
1001
1000
,
1010
0010
0110
0100
0000
0000
0000
0000
,
0000
0000
0000
0000
0021
0001
0031
1000
,
0020
0100
0130
0001
0020
0001
0031
1000
,
0020
0000
0100
0000
0130
0000
0001
0000
0010
0001
0010
0001
0010
0001
0010
0001
,
0100
0010
0100
0010
0100
0010
0100
0000
0001
0000
1000
0000
0010
0000
0100
0000
,
0001
0000
1001
0000
1010
1000
0010
0001
,
0010
0000
0000
1000
0001
0000
0010
0000
0000
0000
1001
0000
1000
0000
0100
0000
,
0010
0000
0000
0001
0100
0000
0010
0000
0101
0000
0100
0000
0001
0000
0100
0000
,
1000
0000
0000
0100
0001
0000
1000
0000
1200
0000
0000
0000
0320
0000
0000
0000
,
0031
0000
0000
0001
1000
0000
0010
0000
0100
0000
0001
0000
0010
0000
1000
0000
,
0010
0000
0000
0001
0100
0000
0010
0000
0000
0000
1001
0000
0001
0000
0100
0000
,
0010
0000
0000
1000
0001
0000
1000
0000
0001
0010
0001
0010
0001
0010
0001
0010
,
0001
1000
0001
1000
0001
1000
0001
0000
0110
0000
0010
0000
0010
0000
1000
0010
,
1000
0100
0010
0000
0011
0001
0100
1000
,
0100
0000
0001
0010
0100
0000
0010
0000
0000
0000
0001
0000
1000
0000
0100
0000
,
0010
0000
0001
1000
0010
0000
0010
0000
1000
0000
0001
0000
0100
0000
1000
0000
,
0100
0000
0001
0100
0010
0000
1000
0000
1002
0000
0000
0000
0023
0000
0000
0000
,
0130
0000
0000
1000
0001
0000
1000
0000
0001
0100
0001
0000
0100
0010
0100
0000
,
0010
1000
0010
0000
1001
0000
0000
0000
0001
1000
0001
0000
1000
0100
1000
0000
,
0001
0010
0001
0000
1001
0000
0000
0000
0100
1000
0100
1000
0100
1000
0100
1000
,
0010
0100
0010
0100
0010
0100
0010
0100
0001
0000
0001
0000
0010
0000
0100
0000
,
1000
1000
0220
0000
,
0000
0000
0000
0000
,
0000
0000
0000
0000
,
0000
0000
0330
0000
;

//---------------dance-double - ----------------
#NOTES:
     dance-double:
     :
     Easy:
     4:
     0.186,0.231,0.064,0.135,0.000:
00000000
00000000
00000000
00000000
,
00000000
00000000
00000000
00000000
,
00000000
00000000
00000000
00000000
,
00000000
00000000
00000000
00000000
,
00000000
00000000
00000000
00000000
,
00000000
00000000
00000000
00000000
,
20020000
00000000
30030000
00000000
,
00000000
00000000
00000000
00000000
,
02000000
00000000
03000000
00000000
,
02200000
00000000
00000000
03300000
,
01000000
00000000
10000000
00000000
,
01000000
00000000
10000000
00000000
,
00001000
00000000
01000000
00000000
,
00001000
00000000
01000000
00000000
,
00010000
00000000
00001000
00000000
,
00010000
00000000
00001000
00000000
,
00000010
00000010
00000010
00000000
,
00000100
00000100
00000100
00000000
,
00001001
00001000
00000001
00001000
,
00000001
00000000
00010000
00000000
,
00001000
00010000
00001000
00010000
,
00001000
00000000
01000000
00000000
,
00100000
01000000
00100000
01000000
,
00100000
00000000
10000000
00010000
,
10000000
10000000
10000000
00000000
,
01000000
01000000
01000000
00000000
,
01100000
00000000
00100000
00000000
,
01000000
00000000
01000000
00000000
,
00011000
00000000
00001000
00000000
,
00010000
00000000
00010000
00000000
,
00000100
00000010
00000100
00000010
,
00000100
00000010
00000100
00000010
,
00000002
00000000
00002003
00000000
,
00003001
00000000
00000100
00000100
,
00000010
00000000
00000100
00000100
,
00000010
00000000
00010000
00010000
,
00001000
00001000
01000000
01000000
,
00100000
00100000
10000000
10000000
,
00100000
00000000
10000000
10000000
,
00100000
00000000
10000000
10000000
,
00001000
00001000
00010000
00000000
,
00000000
00000000
00000010
00000000
,
00000010
00000000
00000010
00000000
,
00000010
00000000
00000010
00000000
,
00000010
00000000
00000110
00000000
,
00000000
00000000
00000020
00000000
,
00000031
00000000
00000200
00000000
,
00000310
00000000
00000002
00000000
,
00000013
00000000
00000100
00010000
,
00000100
00010000
00002000
00000000
,
01003000
00000000
00200000
00000000
,
01300000
00000000
00020000
00000000
,
00230000
00000000
01300000
00000000
,
00000000
00000000
10010000
00010000
,
10000000
00000000
00001000
01000000
,
00001000
00000000
00010000
00001000
,
00010000
00000000
00000010
00000100
,
00000010
00000100
00000001
00000010
,
00000001
00000000
00000100
00000010
,
00010000
00000000
00001000
01000000
,
00100000
01000000
00200000
00000000
,
00300000
00000000
02200000
00000000
,
00000000
00000000
00000000
00000000
,
00000000
00000000
00000000
00000000
,
00000000
00000000
03300000
00000000
;

//---------------dance-double - ----------------
#NOTES:
     dance-double:
     :
     Medium:
     7:
     0.355,0.411,0.318,0.119,0.000:
00000000
00000000
00000000
00000000
,
00000000
00000000
00000000
00000000
,
00000000
00000000
00000000
00000000
,
00000000
00000000
00000000
00000000
,
00000000
00000000
00000000
00000000
,
00000000
00000000
00000000
00000000
,
10000000
10000000
10000000
10000000
,
00010000
00010000
00010000
00010000
,
10000000
10000000
10000000
10000000
,
02100000
00000000
00000000
03100000
,
10000000
01000000
00010000
00000100
,
00000001
00001000
00000001
00001000
,
00000001
00000100
00010000
01000000
,
10000000
00010000
10000000
00010000
,
10000000
01000000
00010000
00000100
,
00000001
00001000
00000001
00001000
,
00000001
00000000
00000110
00000000
00000110
00000000
00000000
00010000
,
00000000
00001000
00000000
00000000
01000000
00000000
01100000
00000000
,
10000000
01000000
00010000
00000100
,
00000001
00001000
00000001
00001000
,
00000001
00000100
00001000
01000000
,
10000000
00010000
10000000
00010000
,
10000000
01000000
00001000
00000100
,
00000001
00000100
00001000
00000001
,
00000100
00000000
00000110
00000000
00000110
00000000
00000000
00001000
,
00000000
00010000
00000000
00000000
00100000
00000000
01100000
00000000
,
01000000
10000000
01000000
00000000
10000000
01000000
10000000
00000000
,
00100000
01000000
00100000
00000000
01000000
00100000
01000000
00000000
,
00001000
00100000
00001000
00000000
00100000
00001000
00100000
00000000
,
00001000
00010000
00001000
00000000
00010000
00001000
00010000
00000000
,
00000010
00000010
00000100
00000000
00000010
00000010
00000100
00000000
,
00000001
00000010
00000001
00000010
00000001
00000010
00000001
00000000
,
00010000
00000010
00010000
00000010
00010000
00000010
00010000
00001000
,
00000000
00011000
01001000
01001000
,
00100000
01000000
00100000
00000000
11000000
00000000
11000000
00000000
,
00100000
01000000
00100000
00000000
11000000
00000000
11000000
00000000
,
01001000
01001000
00011000
00011000
,
00000010
00000100
00000010
00000000
00000101
00000000
00000101
00000000
,
00000010
00000100
00000010
00000000
00001100
00000000
00001100
00000000
,
00000010
00000100
00000010
00000000
00000101
00000000
00000101
00000000
,
00010100
00010100
00000000
00000000
,
00000000
00000000
00000000
00000000
00100000
01000000
10000000
00000000
,
00100000
10000000
00100000
00000000
10000000
00010000
00100000
00000000
,
01000000
00100000
01000000
00000000
10000000
00100000
01000000
00000000
,
00001000
00100000
00001000
00100000
00002000
00000000
00000000
00000000
,
00010000
00013000
00010010
00010010
,
00000100
00000001
00000010
00000000
00000000
00000001
00001000
00000000
,
00000010
00000100
00000010
00000000
00011000
00000000
00011000
00000000
,
01001000
00000000
00000000
01000000
00200000
00000000
02300000
00000000
,
03020000
10030000
10100000
10100000
,
00100000
10000000
00001000
00000000
00000000
00010000
00001000
00000000
,
00010000
00000100
00010000
00000000
00000110
00000000
00000110
00000000
,
00000011
00000011
00002001
00000000
,
00000100
00000100
00003100
00000000
00010000
00001000
00010000
00000000
,
00001000
00100000
01000000
00000000
10000000
01000000
00100000
01000000
,
10000000
00000000
10000000
00000000
01000000
00100000
01000000
00000000
,
00100000
00001000
00010000
00000000
00000020
00000000
00000230
00000000
,
00000302
00000000
00000103
00000000
00000010
00001000
00000100
00000000
,
00010000
00001000
00010000
00000000
00001000
00100000
01000000
00000000
,
10000000
01000000
10000000
00000000
20010000
00000000
30020000
00000000
,
00230000
00000000
00320000
00000000
01030000
00000000
00100000
01000000
,
00001000
00000100
00000220
00000000
,
00000000
00000000
00000000
00000000
,
00000000
00000000
00000000
00000000
,
00000000
00000000
00000330
00000000
;

//---------------dance-double - ----------------
#NOTES:
     dance-double:
     :
     Hard:
     10:
     0.459,0.513,0.255,0.103,0.052:
00000000
00000000
00000000
00000000
,
00000000
00000000
00000000
00000000
,
00000000
00000000
00000000
00000000
,
00000000
00000000
00000000
00000000
,
00000000
00000000
00000000
00000000
,
00000000
00000000
00000000
00000000
,
00010000
00010000
10000000
10000000
,
00010000
00000000
00010000
00000000
10000000
00000000
10000000
10000000
,
00001000
00001000
00100000
00100000
,
00001000
00010000
00000100
00000010
00000001
00000000
00000110
00000000
,
00000100
00000001
00000100
00000001
00000010
00000100
00000010
00000100
,
00010000
00001000
00000000
00001000
00000000
00000000
00000000
01100000
,
00000000
01000000
10000000
01000000
10000000
00100000
01000000
00100000
,
01000000
00001000
00000000
00001000
00000000
00000000
00000000
00000110
,
00000000
00000100
00000001
00000100
00000001
00000010
00000100
00000010
,
00000100
00010000
00000000
00010000
00000000
00001000
01000000
00100000
,
10000000
00000000
00200000
00000000
01000000
01300000
00000000
00001000
,
00000000
00001000
00000000
00001000
00010000
00000100
00000010
00000000
,
00000001
00000010
00000100
00000010
00000001
00000010
00000100
00010000
,
00001000
00100000
10000000
00100000
00001000
00000000
10000000
00010000
,
10000000
01000000
00100000
01000000
10000000
01000000
00100000
00001000
,
00010000
00000100
00000001
00000100
00010000
00000000
00000001
00001000
,
00000001
00000100
00000010
00000100
00000001
00000100
00000010
00001000
,
00010000
00100000
01000000
20000000
00000000
00010000
30010000
00100000
,
01000000
00000000
00200000
00000000
00010000
00310000
00000000
00001000
,
00000000
00001000
00000000
00001000
00000010
00000100
00000101
00000000
,
00000110
00001001
00000110
00001001
,
00000110
00000000
00001001
00000000
00000110
00000010
00010000
00000000
,
00011000
01001000
00011000
01001000
,
00011000
00000000
01001000
00000000
01100000
01000000
10000000
00000000
,
10010000
00000000
00010000
00000000
01000000
00010000
01000000
00000000
00001000
00000000
00010000
00000000
00000100
00000010
00000100
00000000
,
00001000
00000001
00000010
00000100
00001000
00010000
00011000
00000000
,
00100000
01000000
10000000
00100000
01000000
00010000
00100000
00001000
,
00000000
00000000
00000110
00000000
00000001
00000001
00001000
00001000
,
00000001
00000100
00000010
00000000
00010000
00010000
00001000
00001000
,
10000000
01000000
00100000
00000000
00010000
00010000
00001000
00001000
,
00000010
00000010
00000100
00000100
00000001
00000001
00000010
00000010
,
00000100
00001000
00000010
00000000
00001000
00001000
00000001
00000001
,
00001000
00000100
00000010
00000000
00000100
00000100
00010000
00010000
,
00001000
10000000
00100000
00000000
01000000
01000000
00001000
00001000
,
00010000
00010000
00000100
00000100
00000000
00000000
00000000
00000000
,
00000000
00000000
00000000
00000000
00001001
00000010
00000100
00010000
,
00011000
01000000
00100000
00000000
10010000
01000000
00100000
00001000
,
00011000
00000100
00000010
00000000
00001001
00000100
00000010
00000001
,
00010000
00010000
00001000
00001000
00100000
01000000
10000000
00100000
,
01000000
01100000
21000000
30200000
,
01300000
00000000
00000000
00010000
01000000
00000000
00001000
00000000
00000000
00000000
00010000
00000000
00010000
00000000
00000100
00000000
,
00000010
00000000
00000000
00000001
00000100
00000000
00000010
00000000
00000200
00000000
00000000
00000000
00000302
00000000
00000000
00000000
,
00001003
00000000
00000000
00000001
00001000
00000000
00000010
00000000
00020000
00000000
00000000
00000000
00032000
00000000
00000000
00000000
,
01003000
00000000
00000000
00100000
10000000
00000000
01000000
00000000
00100000
00000000
10000000
00000000
00100000
00000000
01000000
00000000
,
10000000
00000000
00000000
00100000
01000000
00000000
00001000
00000000
00000000
00000000
00010000
00000000
00010000
00000000
00000010
00000000
,
00000100
00000000
00000000
00000001
00001000
00000000
00000100
00000000
00000010
00000000
00000001
00000000
00000100
00000000
00001000
00000000
,
00000100
00000000
00000001
00000000
00000010
00000000
00000100
00000000
00011000
00000000
00010000
00000000
00010000
00000000
00001000
00010000
,
00001000
00000000
00001000
00000000
01000000
00100000
10000000
00100000
,
01000000
00000000
00001000
01000000
00001000
00000000
00010000
00000000
00000000
00000000
00000100
00000000
00000010
00000000
00000001
00000000
,
00000010
00000000
00000100
00000010
00000100
00000000
00001000
00000000
00000001
00000000
00000010
00000000
00000100
00000000
00001000
00000000
,
00000010
00000000
00010000
00000010
00010000
00000000
00001000
00000000
02000000
00000000
00000000
00000000
03200000
00000000
00000000
00000000
,
10300000
00000000
00000000
00100000
01000000
00000000
00010000
00000000
10000000
00000000
01000000
00000000
00010000
00000000
01000000
00000000
,
10000000
00001000
01001000
00000000
00010000
00000010
00000100
00000010
,
00010000
00000001
00000011
00000000
00000100
00010000
00001000
00010000
,
00000100
00001000
00010000
01000000
00100000
00100000
10000000
10000000
,
01000000
00100000
20020000
00000000
,
00000000
00000000
00000000
00000000
,
00000000
00000000
00000000
00000000
,
00000000
00000000
30030000
00000000
;

//---------------dance-double - ----------------
#NOTES:
     dance-double:
     :
     Challenge:
     12:
     0.566,0.642,0.406,0.064,0.223:
00000000
00000000
00000000
00000000
,
00000000
00000000
00000000
00000000
,
00000000
00000000
00000000
00000000
,
00000000
00000000
00000000
00000000
,
00000000
00000000
00000000
00000000
,
00000000
00000000
00000000
00000000
,
10000000
01000000
10000000
01000000
10000000
01000000
10000000
01000000
,
10000000
00010000
10000000
00010000
10000000
00010000
10000000
10000000
,
00100000
01000000
00100000
01000000
00100000
01000000
00100000
01000000
,
00001000
00000000
00010000
00000000
00000100
00000010
00000100
00000000
00000010
00000000
00000000
00000000
00000110
00000000
00000000
00000000
,
00000100
00000010
00000001
00000010
00000100
00010000
00001000
00100000
,
10000000
00100000
00001000
00010000
00000000
00000000
00000000
00001000
,
00001000
10000000
01000000
00100000
10000000
00100000
01000000
10000000
,
00100000
00010000
00100000
10000000
00000000
00000000
00000000
00001000
,
00001000
00010000
00000100
00000010
00000100
00010000
00000010
00000001
,
00000010
00010000
00000100
00000010
00000000
00000010
00000001
00000100
,
00000010
00000000
00012000
00000000
00100000
00103000
00000000
01100000
,
00000000
01100000
00000000
10010000
01000000
00100000
00010000
00000000
,
10000000
00100000
01000000
00100000
10000000
01000000
00010000
01000000
,
10000000
00100000
01000000
00010000
00001000
00000000
00000010
00000100
,
00000001
00000010
00000100
00000010
00000001
00000100
00001000
00000100
,
00000001
00000010
00000100
00001000
00010000
00000000
01000000
00100000
,
01000000
00010000
00100000
10000000
00100000
00010000
10000000
01000000
,
00100000
00001000
00010000
00000010
00000000
00000010
00000100
00000001
,
00000010
00000000
00012000
00000000
01000000
01003000
00000000
01100000
,
00000000
01100000
00000000
10010000
00100000
01000000
10000000
00000000
,
00100000
01000000
00100000
01000000
00100000
01000000
00001000
00100000
,
00001000
00000000
00100000
00000000
00001000
00000000
00100000
00000000
00001000
00000000
00001000
00000000
00010000
00001000
00010000
00001000
,
00010000
00000010
00010000
00000010
00010000
00000010
00000100
00000010
,
00000100
00000000
00000010
00000000
00000100
00000000
00000010
00000000
00010000
00000000
00010000
00000000
00001000
00010000
00001000
00010000
,
00001000
00000000
00100000
00000000
01000000
10000000
01000000
10000000
00100000
00000000
01000000
00000000
00001000
01000000
00001000
01000000
,
00010000
00100000
00001000
00010000
00000100
00000010
00001001
00000000
,
00000100
00000010
00000100
00000010
00000100
00000010
00000100
00000010
00010000
00001000
00010000
00001000
00010000
00001000
00010000
00001000
,
00000000
00000000
01100000
00000000
10010000
10000000
10010000
00010000
,
01000000
00100000
10100000
00000000
10010000
00010000
10010000
00010000
,
10000000
00100000
01100000
00000000
00011000
00010000
00010010
00000010
,
00000110
00000100
00000101
00000001
00001001
00001000
00001100
00000100
,
00000101
00000001
00000011
00000000
00001001
00001000
00001001
00000001
,
00001000
00000100
00000110
00000000
00000101
00000100
00000110
00000010
,
00001000
00000001
00000011
00000000
00011000
00001000
01001000
01000000
,
01100000
00100000
10100000
10000000
00000000
00000000
00000000
00000000
,
00000000
00000000
00000000
00000000
10010000
00100000
01000000
10000000
,
01010000
00010000
00100000
00001000
00011000
00010000
00000100
00000010
,
00000101
00000000
00000100
00000000
00000010
00000000
00010000
00000000
00001000
00100000
00001000
00100000
00001000
00100000
00001000
00100000
,
01000000
10000000
01000000
10000000
01000000
10000000
01000000
00000000
00100000
00000000
00100000
00000000
00001000
00000000
00001000
00000000
,
00010000
00000000
00011000
00000000
00000110
00000100
00000010
00000001
,
00000010
00000000
00000000
00001000
00000010
00000000
00010000
00000000
00000000
00000000
00011000
00000000
00001000
00000000
00100000
00000000
,
01000000
00000000
00000000
10000000
00010000
00000000
01000000
00000000
01100000
00000000
00100000
00000000
01000000
00000000
10000000
00000000
,
00100000
00000000
00000000
01000000
00001000
00000000
00010000
00000000
00021000
00000000
00000000
00000000
00030020
00000000
00000000
00000000
,
00000130
00000000
00000000
00000001
00000100
00000000
00000010
00000000
00010000
00000000
00001000
00000000
10000000
00000000
01000000
00000000
,
10000000
00000000
00000000
00100000
01000000
00000000
00001000
00000000
00000000
00000000
00011000
00000000
00010000
00000000
00000010
00000000
,
00000100
00000000
00000000
00000001
00001000
00000000
00000100
00000000
00010000
00001000
00010000
00001000
00010000
00001000
00010000
00001000
,
00100000
01000000
00100000
01000000
00100000
01000000
00100000
00000000
10010000
00000000
10000000
00000000
10000000
00000000
01000000
10000000
,
00100000
00100000
01000000
00000000
01100000
00100000
01000000
10000000
,
00100000
00000000
01000000
00001000
00100000
00000000
00001000
00000000
00000000
00000000
00010000
00000000
00000100
00000000
00000010
00000000
,
00000001
00000000
00000100
00000001
00000010
00000000
00000001
00000000
00000100
00000000
00000010
00000000
00010000
00000000
00001000
00000000
,
00100000
00000000
01000000
10000000
00100000
00000000
01000000
00000000
01200000
00000000
00000000
00000000
20300000
00000000
00000000
00000000
,
30010000
00000000
00000000
01000000
00100000
00000000
01000000
00000000
00001000
00010000
00001000
00000000
00010000
00000010
00010000
00000000
,
00000001
00000010
00000001
00000000
00000110
00000000
00000000
00000000
00010000
00001000
00010000
00000000
00001000
01000000
00001000
00000000
,
01000000
00100000
01000000
00000000
10010000
00000000
00000000
00000000
00010000
01000000
00010000
01000000
00010000
01000000
00010000
01000000
,
00001000
00010000
00001000
00010000
00001000
00010000
00001000
00010000
00000100
00000000
00000100
00000000
00000010
00000000
00000001
00000000
,
00000100
00000100
00000220
00000000
,
00000000
00000000
00000000
00000000
,
00000000
00000000
00000000
00000000
,
00000000
00000000
00000330
00000000
;

//---------------dance-single - ----------------
#NOTES:
     dance-single:
     :
     Beginner:
     2:
     0.085,0.122,0.072,0.000,0.000: // measure 1
0000
0000
0000
0000
,  // measure 2
0000
0000
0000
0000
,  // measure 3
0000
0000
0000
0000
,  // measure 4
0000
0000
0000
0000
,  // measure 5
0000
0000
0000
0000
,  // measure 6
0000
0000
0000
0000
,  // measure 7
1000
0000
0000
0000
,  // measure 8
0000
0000
0000
0000
,  // measure 9
0010
0000
0000
0000
,  // measure 10
0100
0000
0000
0000
,  // measure 11
1001
0000
0000
0000
,  // measure 12
0000
0000
0000
0000
,  // measure 13
0001
0000
0000
0000
,  // measure 14
0000
0000
0000
0000
,  // measure 15
1000
0000
0000
0000
,  // measure 16
0000
0000
0000
0000
,  // measure 17
0001
0000
0000
0000
,  // measure 18
0000
0000
0000
0000
,  // measure 19
0100
0000
0010
0000
,  // measure 20
0100
0000
0000
0000
,  // measure 21
0010
0000
0100
0000
,  // measure 22
0010
0000
0000
0000
,  // measure 23
1000
0000
0001
0000
,  // measure 24
1000
0000
0000
0000
,  // measure 25
0001
0000
1000
0000
,  // measure 26
0001
0000
0000
0000
,  // measure 27
1001
0000
0000
0000
,  // measure 28
0100
0000
0000
0000
,  // measure 29
0010
0000
0000
0000
,  // measure 30
0001
0000
0000
0000
,  // measure 31
1000
0000
0000
0000
,  // measure 32
0100
0000
0000
0000
,  // measure 33
0010
0000
0000
0000
,  // measure 34
0000
0000
0100
0000
,  // measure 35
0010
0000
0100
0000
,  // measure 36
0010
0000
0100
0000
,  // measure 37
0001
0000
0100
0000
,  // measure 38
0010
0000
1000
0000
,  // measure 39
0010
0000
1000
0000
,  // measure 40
0010
0000
1000
0000
,  // measure 41
0001
0000
0000
0000
,  // measure 42
0000
0000
1001
0000
,  // measure 43
1000
0000
1000
0000
,  // measure 44
1000
0000
1000
0000
,  // measure 45
0000
0000
0000
0000
,  // measure 46
0000
0000
1001
0000
,  // measure 47
0000
0000
0010
0000
,  // measure 48
0000
0000
0100
0000
,  // measure 49
0000
0000
1000
0000
,  // measure 50
0000
0000
0001
0000
,  // measure 51
0000
0000
0100
0000
,  // measure 52
0000
0000
0010
0000
,  // measure 53
0000
0000
0010
0000
,  // measure 54
0000
0000
1001
0000
,  // measure 55
0100
0000
0010
0000
,  // measure 56
0001
0000
0010
0000
,  // measure 57
0100
0000
1000
0000
,  // measure 58
1000
0000
1001
0000
,  // measure 59
0000
0000
0110
0000
,  // measure 60
0000
0000
1001
0000
,  // measure 61
0000
0000
0010
0000
,  // measure 62
0000
0000
0110
0000
;
