#TITLE:Out Of Control;
#SUBTITLE:;
#ARTIST:The Chemical Brothers;
#TITLETRANSLIT:;
#SUBTITLETRANSLIT:;
#ARTISTTRANSLIT:;
#CREDIT:DigiMindAxel;
#BANNER:Out Of Control.png;
#BACKGROUND:Out Of Control-bg.png;
#LYRICSPATH:Out Of Control.lrc;
#CDTITLE:DigiMindAxel original simfile.png;
#MUSIC:Out Of Control.ogg;
#METERTYPE:DDR X;
#OFFSET:-0.171;
#SAMPLESTART:24.593;
#SAMPLELENGTH:12.000;
#SELECTABLE:YES;
#BPMS:0.000=132.000;
#STOPS:;
#BGCHANGES:0.000=Out Of Control.avi=1.000=1=1=0,
99999=-nosongbg-=1.000=0=0=0 // don't automatically add -songbackground-
;

//---------------dance-single - ----------------
#NOTES:
     dance-single:
     :
     Easy:
     4:
     0.218,0.241,0.067,0.209,0.000:
0000
0000
0000
0000
,
0000
0000
0000
0000
,
0000
0000
0000
0000
,
0000
0000
0000
0000
,
2000
0000
0000
0000
,
3002
0000
0000
0000
,
2003
0000
0000
0000
,
3020
0000
0000
0000
,
0230
0000
0000
0000
,
0302
0000
0000
0000
,
2003
0000
0000
0000
,
3200
0000
0000
0000
,
2300
0000
0000
0000
,
3020
0000
0000
0000
,
0130
0010
0100
0100
,
0001
1000
0001
0001
,
0010
0001
0010
0010
,
0100
0010
0100
0100
,
1000
1001
0000
1001
,
0000
0110
0000
0110
,
0000
1001
0000
1001
,
0000
0110
0000
0110
,
0020
0000
1030
0000
,
0001
1000
0001
0000
,
0020
0000
0031
0000
,
0100
0010
0100
0000
,
0002
0000
1003
0000
,
0100
1000
0100
0000
,
0020
0000
0031
0000
,
0200
0000
0310
0000
,
1000
0001
1000
0000
,
0100
0010
0001
0000
,
1000
0001
1000
0000
,
0010
0100
0001
0000
,
0010
0100
0010
0000
,
0001
0010
0100
0000
,
1000
0100
1000
0000
,
0100
1000
0010
0000
,
0100
0100
0001
0001
,
0100
0100
0001
0001
,
1000
1000
0100
0100
,
0010
0010
0100
0100
,
1000
0001
1000
0000
,
0010
1000
0001
0000
,
0010
0001
0100
0000
,
0001
0010
0100
1000
,
0002
0000
0100
0000
,
0103
0000
0020
0000
,
1000
0000
1030
0000
,
2000
0000
0001
0000
,
3001
0000
0020
0000
,
0001
0000
0031
0000
,
0200
0000
0010
0000
,
0310
0000
1000
0001
,
2000
0000
0100
0000
,
3010
0000
0100
0001
,
0020
0000
0100
0000
,
0130
1000
0100
0010
,
0002
0000
0010
0000
,
0103
0000
1000
0100
,
0020
0000
0001
0000
,
0130
0000
1000
0001
,
0020
0000
0100
0000
,
0100
0000
0100
0000
,
0130
0000
0000
0000
;

//---------------dance-single - ----------------
#NOTES:
     dance-single:
     :
     Medium:
     7:
     0.380,0.481,0.150,0.150,0.000:
0000
0000
0000
0000
,
0000
0000
0000
0000
,
0000
0000
0000
0000
,
0000
0000
0000
0000
,
2000
0000
3200
0000
,
2300
0000
3002
0000
,
0013
0100
0010
0100
,
1000
0010
1000
0010
,
1000
0001
1000
0001
,
0010
0100
0010
0100
,
1000
0010
1000
0010
,
1000
0001
1000
0001
,
0100
0010
0100
0010
,
1000
0100
1000
0100
,
1001
0000
0101
0000
1001
1000
0001
0000
,
0011
0000
0110
0000
0011
0001
1000
0000
,
1010
0000
0110
0000
1010
1000
0001
0000
,
0110
0000
1100
0000
0110
0010
0100
0000
,
0001
0101
0001
0101
,
1000
1100
1000
1100
,
0010
0110
0010
0110
,
0001
1000
0001
0000
0001
1000
0001
0000
,
0010
0100
1000
0100
,
0010
0100
1000
0010
,
0100
0001
0100
0000
0001
1000
0001
0000
,
0010
1000
0010
0000
0001
1000
0001
0000
,
0010
0100
1000
0100
,
0010
0001
0010
0100
,
2000
0010
3010
1000
,
0002
1000
1003
0001
,
0100
0010
0100
0001
,
0100
0010
0100
0001
,
1000
0100
1000
0000
0001
1000
0001
0000
,
0100
1000
0100
0000
0001
1000
0001
0000
,
0010
0100
0010
0001
,
1000
0010
0100
0010
,
2000
0000
0010
0000
,
0001
0000
0010
0000
,
3001
1000
0001
0000
1000
0100
1000
0000
,
0001
1000
0001
0000
0100
0001
0100
0000
,
0001
1000
0001
0000
1000
0100
1000
0000
,
0010
0100
0010
0000
1000
0100
1000
0000
,
0001
0100
0010
0000
0100
0001
0010
0000
,
0001
0010
0100
0000
0010
0001
1000
0000
,
0100
0010
0001
0000
0010
0100
1000
0000
,
0010
1000
0001
0000
0100
0001
1000
0000
,
0100
0000
1000
0100
0000
0010
0001
0100
,
0000
0010
0000
0100
0000
0000
0001
0010
,
0200
1000
0010
1300
,
0020
0001
0100
0031
,
1000
0001
0000
0010
0000
0100
0000
0010
,
0001
0100
0000
0010
0000
0100
0000
0001
,
2000
0000
0001
0000
0000
0000
3001
0100
,
0010
0100
0001
0000
0010
0100
1000
0000
,
0002
0100
1000
0103
,
0020
0100
0000
0130
,
0001
0010
0001
0000
0010
1000
0010
0000
,
0001
0010
0001
0000
0100
0010
0100
0010
,
1000
0000
0100
0000
0010
0001
0010
0001
,
1000
0000
0010
0000
0100
0010
0100
0010
,
1000
0000
0001
0000
0010
0100
0010
0100
,
1000
0001
1000
0000
0001
1000
0001
1000
,
0200
0320
0032
1003
,
0002
0023
0230
1300
,
0001
0000
0000
0000
;

//---------------dance-single - ----------------
#NOTES:
     dance-single:
     :
     Hard:
     11:
     0.497,0.535,0.109,0.201,0.376:
0000
0000
0000
0000
,
0000
0000
0000
0000
,
0000
0000
0000
0000
,
0000
0000
0000
0000
,
2000
3100
0020
0130
,
2000
3001
0200
0301
,
1000
0000
0100
0010
0100
0000
1000
0001
,
0100
0000
0001
0010
0100
0000
1000
0001
,
0100
0000
0001
0010
0100
0000
1000
0001
,
0010
0000
0100
1000
0100
0000
0010
0100
,
1000
0000
0000
0001
0000
0000
0100
0000
0001
0000
0000
1000
0000
0000
0100
0000
,
0010
0000
0000
0001
0000
0000
1000
0000
0010
0000
0000
1000
0000
0000
0001
0000
,
0010
0000
0000
0100
0000
0000
1000
0000
0010
0000
0000
1000
0000
0000
0001
0000
,
0020
0100
0130
0000
2000
0001
3001
0000
,
1001
0000
0000
1000
0000
1000
0010
0000
0100
0000
0100
0000
0110
0000
0000
0000
,
1001
0000
0000
0001
0000
0001
0010
0000
0100
0000
0100
0000
0110
0000
0000
0000
,
1001
0000
0000
1000
0000
1000
0100
0000
0010
0000
0010
0000
0110
0000
0000
0000
,
1001
0000
0000
0001
0000
0001
0100
0000
0010
0000
0010
0000
0110
0000
0000
0000
,
0100
0000
0000
0100
1000
0000
0000
0000
0100
0000
0000
0100
0010
0000
0000
0000
,
0001
0000
0000
0001
0100
0000
0000
0000
0010
0000
0000
0010
0100
0000
0000
0000
,
0001
0000
0000
0001
1000
0000
0000
0000
0010
0000
0000
0010
1000
0000
0000
0000
,
0002
0010
0013
0000
0200
0010
0310
0000
,
0001
0100
0001
0000
0010
0100
1000
0000
,
0010
0001
0010
0000
1000
0001
0100
0000
,
0001
0000
1001
0000
0100
0010
0001
0010
,
0100
0000
1100
0000
0010
0100
0001
1000
,
0100
0010
0100
0000
1000
0001
0100
0000
,
1000
0001
1000
0000
0100
0001
1000
0000
,
0100
1000
0100
1000
0010
0100
0010
0100
0000
0000
0000
0000
,
0001
0010
0001
0010
0100
0010
0100
1000
0000
0000
0000
0000
,
0001
1000
0001
0000
0100
0001
0010
0000
,
1000
0001
1000
0000
0010
0001
1000
0000
,
0100
0000
1100
0000
0010
0001
0100
0000
,
0001
1000
0100
0010
0001
0010
0100
0000
,
1000
0001
0100
0000
1000
0100
0010
0000
,
1000
0001
0010
0000
1000
0010
0001
0000
,
0100
0000
0110
0000
1000
0100
0010
0001
,
0100
0000
0110
0000
0010
1000
0100
1000
,
0001
0000
0000
0100
0000
0000
0001
0000
0000
0000
0000
1000
0000
0000
1000
0000
,
0001
0000
0000
0010
0000
0000
0001
0000
0000
0000
0000
0100
0000
0000
0100
0000
,
0010
0000
0000
1000
0000
0000
0100
0000
0000
0000
0000
0010
0000
0000
0010
0000
,
0001
0000
0000
1000
0000
0000
0100
0000
0000
0000
0000
0010
0000
0000
0010
0000
,
0002
0000
0000
0100
0000
0000
0103
0000
0000
0000
0000
0001
0000
0000
1000
0000
,
0200
0000
0000
1000
0000
0000
1300
0000
0000
0000
0000
0010
0000
0000
0100
0000
,
0002
0000
0000
1000
0000
0000
1003
0000
0000
0000
0000
0001
0000
0000
0010
0000
,
0200
1000
1300
0000
0020
0100
0130
0000
,
0002
0000
0000
0100
0000
0000
0103
0000
0000
0000
0001
1000
0000
0000
0001
0000
,
2000
0000
0000
0100
0000
0000
3100
0000
0000
0000
0010
0001
0000
0000
0100
0000
,
0020
0000
0000
0100
0000
0000
0130
0000
0000
0000
0001
1000
0000
0000
0001
0000
,
2000
0000
0000
0100
0000
0000
3100
0000
0000
0000
1000
0001
0000
0000
1000
0000
,
0002
0000
0000
0100
0000
0000
0103
0000
0000
0000
0001
1000
0000
0001
1000
0000
,
0200
0000
0000
1000
0000
0000
1300
0000
0000
0000
0010
0100
0000
0010
0100
0000
,
0002
0000
0000
0100
0000
0000
0103
0000
0000
0000
0001
1000
0000
0001
1000
0000
,
0200
1000
1300
0000
0020
0100
0130
0000
,
0001
0000
0100
0001
0000
0000
0100
0000
0000
0000
0001
1000
0000
0100
1000
0000
,
0010
0000
0100
0010
0000
0000
0100
0000
0000
0000
0001
1000
0000
0001
0010
0000
,
0100
0000
1000
0010
0000
0000
1000
0000
0000
0000
0010
0100
0000
0001
0010
0000
,
0100
0000
1000
0010
0000
0000
1000
0000
0000
0000
0100
0010
0000
0001
0100
0000
,
0001
0000
1000
0100
0000
0000
1000
0000
0000
0000
0001
1000
0000
0001
0100
0000
,
0001
0000
0010
0100
0000
0000
0010
0000
0000
0000
0001
0100
0000
0001
1000
0000
,
0100
0000
0010
0100
0000
0000
0010
0000
0000
0000
0001
0100
0000
0001
1000
0000
,
0200
1000
1300
0000
0002
1000
1003
0000
,
0001
0100
0000
0000
0100
0010
0000
0000
0010
1000
0000
0000
1000
0001
0000
0000
,
0001
0010
0000
0000
0010
0100
0000
0000
0100
1000
0000
0000
1000
0010
0000
0000
,
0010
0000
0000
0000
;

//---------------dance-double - ----------------
#NOTES:
     dance-double:
     :
     Easy:
     5:
     0.248,0.294,0.058,0.334,0.000:
00000000
00000000
00000000
00000000
,
00000000
00000000
00000000
00000000
,
00000000
00000000
00000000
00000000
,
00000000
00000000
00000000
00000000
,
20000000
00000000
30020000
00000000
,
20030000
00000000
30020000
00000000
,
20030000
00000000
30020000
00000000
,
20030000
00000000
30020000
00000000
,
02030000
00000000
03002000
00000000
,
02003000
00000000
03002000
00000000
,
02003000
00000000
03002000
00000000
,
00023000
00000000
00032000
00000000
,
00023000
00000000
00032000
00000000
,
00013000
00010000
00010000
00010000
,
00011000
00000000
00001000
00010000
,
00000010
00000000
00000100
00000001
,
00000010
00000000
00000100
00010000
,
00001000
00000000
00100000
01000000
,
10000000
10010000
00000000
10010000
,
00000000
01100000
00000000
01100000
,
00000000
10010000
00000000
10010000
,
00100000
00100000
01000000
01000000
,
00002000
00000000
00013000
00000000
,
00000001
00000100
00000001
00000000
,
00000200
00000000
00000310
00000000
,
00010000
00000100
00010000
00000000
,
00002000
00000000
00013000
00000000
,
01000000
00100000
01000000
00000000
,
20000000
00000000
30010000
00000000
,
02000000
00000000
03100000
00000000
,
10000000
00010000
10000000
00000000
,
01000000
00100000
00010000
00000000
,
00001000
00010000
00001000
00000000
,
00010000
00000010
00000100
00000000
,
00000001
00001000
00000001
00000000
,
00000010
00000100
00010000
00000000
,
00001000
00010000
00001000
00000000
,
01000000
00100000
10000000
00000000
,
00020000
01000000
01030000
00010000
,
20000000
01000000
31000000
00100000
,
00002000
00010000
00013000
00000010
,
00000200
00000010
00000310
00001000
,
00000100
00000010
00000001
00000000
,
00000010
00000100
00010000
00000000
,
00001000
00100000
01000000
00000000
,
10000000
01000000
00100000
00010000
,
20000000
00000000
00100000
00000000
,
30100000
00000000
02000000
00000000
,
00001000
00000000
03001000
00000000
,
00020000
00000000
00001000
00000000
,
00031000
00000000
00000020
00000000
,
00000100
00000000
00000130
00000000
,
00002000
00000000
00000001
00000000
,
00003001
00000000
00000100
00000010
,
00020000
00000000
00001000
00000000
,
00031000
00000000
01000000
00100000
,
20000000
00000000
00010000
00000000
,
30010000
10000000
00100000
01000000
,
00002000
00000000
00010000
00000000
,
00013000
00000010
00000100
00000001
,
00000020
00000000
00000001
00000000
,
00000031
00000000
00000100
00000010
,
00020000
00000000
00032000
00000000
,
00023000
00000000
00032000
00000000
,
00013000
00000000
00000000
00000000
;

//---------------dance-double - ----------------
#NOTES:
     dance-double:
     :
     Medium:
     8:
     0.376,0.428,0.117,0.117,0.000:
00000000
00000000
00000000
00000000
,
00000000
00000000
00000000
00000000
,
00000000
00000000
00000000
00000000
,
00000000
00000000
00000000
00000000
,
10000000
00010000
10000000
00010000
,
10000000
00010000
10000000
00010000
,
00100000
01000000
10000000
00010000
,
00100000
01000000
10000000
00001000
,
01000000
00100000
01000000
00001000
,
00010000
00000100
00000010
00000100
,
00010000
00000100
00000010
00000100
,
00010000
00100000
01000000
00100000
,
00010000
00001000
00000100
00000010
,
00000100
00001000
00010000
00001000
,
00011000
00000000
00011000
00000000
00100000
01000000
10000000
00000000
,
10010000
00000000
10010000
00000000
00100000
01000000
00001000
00000000
,
00011000
00000000
00011000
00000000
00000100
00000010
00000001
00000000
,
00001001
00000000
00001001
00000000
00000100
00000010
00010000
00000000
,
00001000
01100000
00001000
01100000
,
10000000
01100000
10000000
01100000
,
00001000
00010010
00001000
00010010
,
00000100
00000010
00000100
00000000
00000100
00000010
00000100
00000000
,
00000001
00000010
00000100
00000010
,
00000001
00000010
00000100
00001000
,
01000000
00100000
01000000
00000000
00100000
01000000
00010000
00000000
,
00100000
01000000
00100000
00000000
00010000
00100000
01000000
00000000
,
10000000
00100000
01000000
00100000
,
10000000
00100000
01000000
00100000
,
20000000
01000000
31000000
00100000
,
00002000
00010000
00013000
00000010
,
00000100
00000001
00000100
00000010
,
00010000
00001000
00010000
00001000
,
01000000
00100000
01000000
00000000
00100000
01000000
00100000
00000000
,
00010000
01000000
00010000
00000000
00100000
01000000
00100000
00000000
,
00001000
00010000
00000100
00000010
,
00000100
00010000
00001000
00100000
,
02000000
00000000
10000000
00000000
,
00100000
00000000
10000000
00000000
,
03100000
01000000
00100000
00000000
00001000
00100000
00001000
00000000
,
00010000
00001000
00010000
00000000
00000010
00000100
00000010
00000000
,
00000100
00000001
00000100
00000000
00000001
00001000
00000001
00000000
,
00010000
00000100
00010000
00000000
00001000
00010000
00001000
00000000
,
00100000
01000000
10000000
00000000
01000000
00100000
00010000
00000000
,
00001000
00010000
00000010
00000000
00000100
00000001
00000010
00000000
,
00000001
00000010
00000100
00000000
00000010
00000100
00010000
00000000
,
00001000
01000000
00100000
00000000
01000000
00100000
10000000
00000000
,
01000000
00000000
00100000
00010000
00000000
00001000
00010000
00001000
,
00000000
00010000
00000000
00010000
00000000
00000000
00000100
00000010
,
00000002
00000010
00000010
00000013
,
00000200
00001000
00001000
00001300
,
00010000
00001000
00000000
01000000
00000000
01000000
00000000
00100000
,
01000000
00100000
00000000
10000000
00000000
01000000
00000000
00100000
,
00002000
00000000
00010000
00000000
00010000
00000000
00013000
00000100
,
00000010
00000001
00010000
00000000
00000010
00010000
00001000
00000000
,
02000000
00100000
00100000
03100000
,
20000000
00010000
00010000
30010000
,
10000000
01000000
10000000
00000000
10000000
00010000
10000000
00000000
,
00100000
01000000
00100000
00000000
00100000
10000000
00100000
01000000
,
00001000
00000000
00001000
00000000
00010000
00000100
00000010
00000001
,
00010000
00000000
00000001
00000000
00000010
00000100
00010000
00001000
,
00100000
00000000
00100000
00000000
01000000
10000000
00100000
01000000
,
00001000
00000000
00001000
00000000
00010000
00000100
00000010
00000001
,
00020000
00032000
00203000
01300000
,
20000000
30200000
02300000
03001000
,
00010000
00000000
00000000
00000000
;

//---------------dance-double - ----------------
#NOTES:
     dance-double:
     :
     Hard:
     11:
     0.483,0.535,0.109,0.100,0.380:
00000000
00000000
00000000
00000000
,
00000000
00000000
00000000
00000000
,
00000000
00000000
00000000
00000000
,
00000000
00000000
00000000
00000000
,
01000000
10000000
01000000
10000000
,
00100000
01000000
00100000
01000000
,
00001000
00000000
00010000
00001000
00010000
00000000
00000100
00000010
,
00000001
00000000
00010000
00001000
00010000
00000000
00000010
00000100
,
00000001
00000000
00010000
00000001
00010000
00000000
00000100
00000010
,
00000001
00000000
00010000
00000001
00010000
00000000
00000010
00000100
,
00000001
00000000
00000000
00000010
00000000
00000000
00000100
00000000
00001000
00000000
00000000
00000010
00000000
00000000
00001000
00000000
,
00010000
00000000
00000000
01000000
00000000
00000000
00100000
00000000
10000000
00000000
00000000
00100000
00000000
00000000
10000000
00000000
,
00001000
00000000
00000000
00010000
00000000
00000000
00000010
00000000
00000100
00000000
00000000
00000001
00000000
00000000
00000100
00000000
,
00000020
00000100
00000130
00000000
00000002
00001000
00001003
00000000
,
00000110
00000000
00000000
00000100
00000000
00000100
00000001
00000000
00000010
00000000
00000100
00000000
00011000
00000000
00000000
00000000
,
01100000
00000000
00000000
01000000
00000000
01000000
00010000
00000000
00100000
00000000
00001000
00000000
00011000
00000000
00000000
00000000
,
00000110
00000000
00000000
00000010
00000000
00000010
00000100
00000000
00001000
00000000
00010000
00000000
00011000
00000000
00000000
00000000
,
01100000
00000000
00000000
01000000
00000000
01000000
10000000
00000000
00100000
00000000
01000000
00000000
00011000
00000000
00000000
00000000
,
00000010
00000000
00000000
00000010
00000100
00000000
00000000
00000000
00000001
00000000
00000000
00000001
00000010
00000000
00000000
00000000
,
00000100
00000000
00000000
00000100
00010000
00000000
00000000
00000000
00001000
00000000
00000000
00001000
01000000
00000000
00000000
00000000
,
00100000
00000000
00000000
00100000
10000000
00000000
00000000
00000000
01000000
00000000
00000000
01000000
00100000
00000000
00000000
00000000
,
00010000
00001000
00001000
00000000
00000010
00000100
00000100
00000000
,
00001000
00000001
00001000
00000000
00000010
00000100
00000001
00000000
,
00000010
00000100
00000010
00000000
00000001
00000010
00000100
00000000
,
00010000
00000000
00011000
00000000
00001000
00100000
01000000
10000000
,
00100000
00000000
01100000
00000000
01000000
00100000
00001000
00010000
,
00000100
00000010
00000100
00000000
00001000
00000100
00000010
00000000
,
00000001
00001000
00000001
00000000
00000100
00000010
00001000
00000000
,
00000010
00010000
00000010
00010000
00001000
00010000
00001000
00100000
00000000
00000000
00000000
00000000
,
01000000
10000000
01000000
00100000
01000000
00100000
00010000
00001000
00000000
00000000
00000000
00000000
,
00000010
00000100
00000010
00000000
00000100
00000001
00000010
00000000
,
00000100
00000010
00000100
00000000
00010000
00001000
00100000
00000000
,
01000000
00000000
01100000
00000000
01000000
00100000
10000000
00000000
,
01000000
00100000
00001000
00010000
00000100
00000010
00000100
00000000
,
00001000
00000100
00000010
00000000
00000001
00000100
00000010
00000000
,
00010000
00001000
00010000
00000000
00001000
00100000
01000000
00000000
,
10000000
00000000
10010000
00000000
00010000
10000000
01000000
00100000
,
00001000
00000000
00011000
00000000
00010000
00000010
00000100
00000001
,
00000100
00000000
00000000
00000010
00000000
00000000
00000100
00000000
00000000
00000000
00000000
00000001
00000000
00000000
00000001
00000000
,
00010000
00000000
00000000
00000100
00000000
00000000
00010000
00000000
00000000
00000000
00000000
00001000
00000000
00000000
00001000
00000000
,
00100000
00000000
00000000
01000000
00000000
00000000
00100000
00000000
00000000
00000000
00000000
00001000
00000000
00000000
00001000
00000000
,
00010000
00000000
00000000
00000100
00000000
00000000
00010000
00000000
00000000
00000000
00000000
00000010
00000000
00000000
00000010
00000000
,
00000200
00000000
00000000
00000001
00000000
00000000
00000301
00000000
00000000
00000000
00000000
00000100
00000000
00000000
00000010
00000000
,
00020000
00000000
00000000
00001000
00000000
00000000
00031000
00000000
00000000
00000000
00000000
00100000
00000000
00000000
01000000
00000000
,
20000000
00000000
00000000
00100000
00000000
00000000
30100000
00000000
00000000
00000000
00000000
01000000
00000000
00000000
00010000
00000000
,
10000000
01000000
01000000
00000000
00100000
00001000
00001000
00000000
,
00020000
00000000
00000000
00001000
00000000
00000000
00031000
00000000
00000000
00000000
00000010
00000100
00000000
00000000
00000010
00000000
,
00000200
00000000
00000000
00000001
00000000
00000000
00000301
00000000
00000000
00000000
00010000
00001000
00000000
00000000
01000000
00000000
,
00200000
00000000
00000000
10000000
00000000
00000000
10300000
00000000
00000000
00000000
00100000
01000000
00000000
00000000
00001000
00000000
,
00020000
00000000
00000000
00001000
00000000
00000000
00031000
00000000
00000000
00000000
00000100
00000010
00000000
00000000
00000100
00000000
,
00000020
00000000
00000000
00000001
00000000
00000000
00000031
00000000
00000000
00000000
00010000
00000010
00000000
00010000
00000010
00000000
,
00020000
00000000
00000000
00001000
00000000
00000000
00031000
00000000
00000000
00000000
01000000
00100000
00000000
01000000
00100000
00000000
,
20000000
00000000
00000000
01000000
00000000
00000000
31000000
00000000
00000000
00000000
00100000
00001000
00000000
00100000
00001000
00000000
,
00010000
00000100
00000100
00000000
00000010
00000100
00000100
00000000
,
00001000
00000000
00000001
00001000
00000000
00000000
00000001
00000000
00000000
00000000
00000010
00000100
00000000
00001000
00000100
00000000
,
00000010
00000000
00000001
00000010
00000000
00000000
00000001
00000000
00000000
00000000
00010000
00000010
00000000
00010000
00001000
00000000
,
00100000
00000000
01000000
00100000
00000000
00000000
01000000
00000000
00000000
00000000
10000000
00100000
00000000
01000000
00100000
00000000
,
10000000
00000000
00100000
10000000
00000000
00000000
00100000
00000000
00000000
00000000
10000000
00010000
00000000
01000000
00001000
00000000
,
00010000
00000000
00000100
00000010
00000000
00000001
00000010
00000000
00000000
00000000
00000001
00000100
00000000
00000010
00000100
00000000
,
00000001
00000000
00010000
00000100
00000000
00000000
00010000
00000000
00000000
00000000
00001000
01000000
00000000
00100000
01000000
00000000
,
00100000
00000000
10000000
01000000
00000000
00000000
10000000
00000000
00000000
00000000
00100000
01000000
00000000
00001000
00100000
00000000
,
00001000
00010000
00010000
00000000
00000100
00000010
00000010
00000000
,
00000001
00000100
00000000
00000000
00000100
00000010
00000000
00000000
00000010
00010000
00000000
00000000
00010000
00001000
00000000
00000000
,
00001000
01000000
00000000
00000000
01000000
00100000
00000000
00000000
00100000
10000000
00000000
00000000
10000000
00001000
00000000
00000000
,
00001000
00000000
00000000
00000000
;

//---------------dance-single - ----------------
#NOTES:
     dance-single:
     :
     Beginner:
     1:
     0.062,0.107,0.008,0.000,0.000: // measure 1
0000
0000
0000
0000
,  // measure 2
0000
0000
0000
0000
,  // measure 3
0000
0000
0000
0000
,  // measure 4
0000
0000
0000
0000
,  // measure 5
0000
0000
0000
0000
,  // measure 6
0000
0000
0000
0000
,  // measure 7
1000
0000
0000
0000
,  // measure 8
0001
0000
0000
0000
,  // measure 9
1000
0000
0000
0000
,  // measure 10
0001
0000
0000
0000
,  // measure 11
0100
0000
0000
0000
,  // measure 12
0010
0000
0000
0000
,  // measure 13
0100
0000
0000
0000
,  // measure 14
0010
0000
0000
0000
,  // measure 15
1001
0000
0000
0000
,  // measure 16
1000
0000
0000
0000
,  // measure 17
0001
0000
0000
0000
,  // measure 18
1000
0000
0000
0000
,  // measure 19
0100
0000
0000
0000
,  // measure 20
0100
0000
0000
0000
,  // measure 21
0010
0000
0000
0000
,  // measure 22
0010
0000
0000
0000
,  // measure 23
0001
0000
0000
0000
,  // measure 24
0000
0000
0000
0000
,  // measure 25
1000
0000
0000
0000
,  // measure 26
0000
0000
0000
0000
,  // measure 27
0001
0000
0000
0000
,  // measure 28
0000
0000
0000
0000
,  // measure 29
1000
0000
0000
0000
,  // measure 30
0000
0000
0000
0000
,  // measure 31
0100
0000
0000
0000
,  // measure 32
0000
0000
0000
0000
,  // measure 33
0010
0000
0000
0000
,  // measure 34
0000
0000
0000
0000
,  // measure 35
0100
0000
0000
0000
,  // measure 36
0000
0000
0000
0000
,  // measure 37
0010
0000
0000
0000
,  // measure 38
0000
0000
0000
0000
,  // measure 39
0001
0000
0000
0000
,  // measure 40
0100
0000
0000
0000
,  // measure 41
0001
0000
0000
0000
,  // measure 42
0100
0000
0000
0000
,  // measure 43
0001
0000
0000
0000
,  // measure 44
1000
0000
0000
0000
,  // measure 45
0001
0000
0000
0000
,  // measure 46
1000
0000
0000
0000
,  // measure 47
0100
0000
0000
0000
,  // measure 48
0010
0000
0000
0000
,  // measure 49
0100
0000
0000
0000
,  // measure 50
0010
0000
0000
0000
,  // measure 51
0001
0000
0000
0000
,  // measure 52
0100
0000
0000
0000
,  // measure 53
0010
0000
0000
0000
,  // measure 54
0100
0000
0000
0000
,  // measure 55
0001
0000
0000
0000
,  // measure 56
0010
0000
0000
0000
,  // measure 57
0100
0000
0000
0000
,  // measure 58
1000
0000
0000
0000
,  // measure 59
0001
0000
0000
0000
,  // measure 60
0010
0000
0000
0000
,  // measure 61
0100
0000
0000
0000
,  // measure 62
1000
0000
0000
0000
,  // measure 63
0001
0000
0000
0000
,  // measure 64
0001
0000
0000
0000
,  // measure 65
0001
0000
0000
0000
;
