#TITLE:OVERDRIVERS;
#SUBTITLE:;
#ARTIST:P*Light feat. mow*2;
#TITLETRANSLIT:;
#SUBTITLETRANSLIT:;
#ARTISTTRANSLIT:;
#CREDIT:DigiMindAxel;
#BANNER:OVERDRIVERS.png;
#BACKGROUND:OVERDRIVERS-bg.png;
#LYRICSPATH:OVERDRIVERS.lrc;
#CDTITLE:SOUND VOLTEX.png;
#MUSIC:OVERDRIVERS.ogg;
#METERTYPE:DDR X;
#OFFSET:-9.204;
#SAMPLESTART:35.618;
#SAMPLELENGTH:12.000;
#SELECTABLE:YES;
#BPMS:0.000=177.000;
#STOPS:;
#BGCHANGES:;

//---------------dance-single - ----------------
#NOTES:
     dance-single:
     :
     Easy:
     3:
     0.175,0.259,0.099,0.166,0.000:
1000
0000
0100
0000
,
1000
0000
0001
0000
,
0010
0000
0100
0000
,
1001
0000
0000
0000
,
1000
0000
0000
0000
,
0001
0000
0001
0000
,
1001
0000
0001
0000
,
1000
0000
0100
0000
,
1000
0000
1000
0000
,
0010
0000
0010
0000
,
0100
0000
0001
0000
,
0010
0000
0100
0000
,
2000
0000
0000
0000
,
3001
0000
0100
0000
,
0002
0000
0000
0000
,
1003
0000
0100
0000
,
0020
0000
0000
0000
,
0032
0000
0000
0000
,
1003
0000
0001
0000
,
1000
0000
0000
0000
,
0002
0000
0000
0000
,
0203
0000
0000
0300
,
0010
0000
0100
0000
,
0010
0000
1000
0000
,
0002
0000
0000
0000
,
2003
0000
0000
3000
,
0100
0000
0010
0000
,
0001
0000
0000
0000
,
1000
0000
1000
0000
,
1000
0000
0000
0000
,
0010
0000
0010
0000
,
0010
0000
0000
0000
,
0100
0000
0100
0000
,
0100
0000
0000
0000
,
0001
0000
1000
0000
,
0001
0000
0000
0000
,
1001
0000
0000
0000
,
0000
0000
0000
0000
,
1001
0000
0000
0000
,
1000
0000
0000
0000
,
0001
0000
0000
0000
,
0100
0000
0000
0000
,
0010
0000
1000
0000
,
0001
0000
0000
0000
,
2000
0000
0100
0000
,
3200
0000
0010
0000
,
0320
0000
0001
0000
,
0032
0000
1000
0000
,
2003
0000
0000
0000
,
3002
0000
0000
0000
,
0203
0000
0320
0000
,
0230
0000
0000
0300
,
1001
0000
0000
0000
,
1001
0000
0000
0000
,
1001
0000
0000
0000
,
1001
0000
0000
0000
,
1001
0000
0000
0000
,
0000
0000
0000
0000
,
1001
0000
0000
0000
,
0001
1000
0001
0000
,
1000
0000
0010
0000
,
0100
0001
0100
0000
,
0001
0000
1000
0000
,
0100
1000
0100
0000
,
0010
0000
0001
0000
,
0100
0000
0010
0000
,
2000
0000
0000
0000
,
3000
0000
0000
0000
,
1001
0000
0001
0000
,
1000
0000
1000
0000
,
0001
0000
0100
0000
,
0010
0000
0000
0000
,
0100
0000
0100
0000
,
0001
0000
0001
0000
,
1000
0000
0100
0000
,
0010
0000
0000
0000
,
2002
0000
0000
0000
,
0000
0000
0000
0000
,
3003
0000
0000
0000
;

//---------------dance-single - ----------------
#NOTES:
     dance-single:
     :
     Medium:
     9:
     0.436,0.517,0.348,0.116,0.000:
1010
0010
0010
0010
,
1001
0001
0001
0001
,
0010
0100
1000
0010
,
0000
0100
0000
0100
0000
0110
0000
0000
,
1001
0000
0000
0000
,
1100
0000
0000
1100
0000
0000
0000
0000
,
0001
1000
0001
0000
0010
0000
0100
0000
,
1000
0010
0000
1000
0001
0000
0100
0000
,
0001
1000
0100
1000
,
0010
1000
0000
0001
0010
0000
0001
0000
,
1000
0100
0010
0001
,
1000
0000
0010
1000
0000
0001
0010
0000
,
0200
1000
1000
1000
,
1300
0000
0010
0100
0010
0100
0001
0000
,
0020
0001
0001
0001
,
0031
0000
0010
0000
0100
1000
0100
1000
,
0010
0000
0100
0001
1000
0000
0100
1000
,
0100
0000
0010
0001
0010
0000
0100
0000
,
1001
1001
0110
0110
,
1000
0001
1000
0000
0000
0000
1001
0000
,
0001
1000
0000
0100
0000
1000
0000
0010
,
0000
0100
0000
0001
0000
0010
0000
0100
,
0000
1000
0000
0010
0000
0100
0000
0001
,
0000
1000
0000
0100
0000
0010
0000
0001
,
0000
0100
0000
1000
0000
0100
0000
0001
,
0000
0010
0000
0100
0000
0010
0000
0001
,
0000
1000
0000
0010
0000
1000
0000
0100
,
0000
0010
0000
0001
0000
1000
0000
0000
,
1001
0001
1001
1000
,
0001
0010
0100
1000
0000
1010
0000
0000
,
1001
0001
1001
1000
,
0001
0010
0100
1000
0000
0001
1000
0001
,
0000
0000
0010
0100
0000
1000
0000
0010
,
0000
1000
0000
0001
0010
0100
1000
0001
,
0000
0100
0000
0001
1000
0000
0000
0000
,
2002
0000
0000
3003
,
1001
0000
0000
0000
,
0000
0000
0000
0000
,
1100
0000
0000
1100
0000
0000
0000
0000
,
1001
0000
0000
1001
0000
0000
0000
0000
,
0001
0100
1000
0100
,
0001
0010
1000
0010
,
0001
0100
1000
0100
,
0002
0000
0000
1003
,
0002
1000
0100
1003
,
0200
1000
0320
0001
,
0230
1000
0010
1300
,
0020
0001
0230
1000
,
0310
0001
0010
0000
0001
1000
0001
0000
,
1000
0010
1000
0000
0001
1000
0001
0000
,
0010
0100
1000
0000
0100
0010
0001
0000
,
1000
0001
2000
0000
0000
0000
3001
0000
,
1001
0000
0000
0000
0000
0000
0001
0100
,
0000
0000
0000
0000
,
1001
0000
0000
1001
0000
0000
1000
0100
,
0000
0000
0000
0000
,
1001
0000
0000
0000
0000
0000
0001
0100
,
0000
0000
0000
0000
,
1001
0000
0000
1001
0000
0000
0001
1000
,
0001
0010
0100
0000
1000
0001
0100
0000
,
0001
1000
0001
0000
1000
0100
1000
0000
,
0001
1000
0000
0100
0000
0010
0000
0001
,
1000
0010
1000
0000
0100
0010
0001
0000
,
0100
0001
0000
0010
0000
0100
0000
1000
,
0010
0100
0010
0000
0100
0001
0010
0000
,
0100
1000
0010
0000
0100
0001
0010
0100
,
1000
0001
0000
0100
0000
1000
0000
0100
,
0000
0000
0000
1001
,
0011
0000
0011
0000
0100
1000
0001
0000
,
1001
0000
1001
0000
0100
0010
0001
0000
,
0110
0000
0110
0000
0010
1000
0001
0000
,
0010
0100
0000
0100
0000
0110
0000
0000
,
1001
0000
1000
0000
0001
0100
0010
1000
,
1001
0000
0001
0000
0010
0100
1000
0001
,
0100
0010
0100
0010
1000
0001
1000
0001
,
0000
1001
0000
1001
0000
1001
0000
0000
,
0220
0000
0000
0000
,
0000
0000
0000
0000
,
0330
0000
0000
0000
;

//---------------dance-single - ----------------
#NOTES:
     dance-single:
     :
     Hard:
     13:
     0.631,0.711,0.348,0.447,0.120: // measure 1
1000
0000
0000
0001
0000
0000
0100
0000
0000
0001
1000
0000
0100
0000
0000
0000
,  // measure 2
0010
0000
0000
0001
0000
0000
0100
0000
0000
0010
0100
0000
0001
0000
0000
0000
,  // measure 3
0010
0100
1000
0001
0100
0001
1000
0010
,  // measure 4
0000
0110
0000
0110
0000
0110
0000
0000
,  // measure 5
2200
0000
0000
3300
,  // measure 6
1002
0000
0000
0020
0000
0000
0033
0000
,  // measure 7
0001
0000
1000
0100
0001
0100
1000
0000
,  // measure 8
0001
0000
1000
0100
0000
0010
0100
0000
,  // measure 9
1000
0000
0001
0010
1000
0010
0001
0000
,  // measure 10
0100
0000
0010
1000
0000
0100
0010
0000
,  // measure 11
0001
0000
1000
0010
0001
0010
1000
0000
,  // measure 12
0100
0000
0010
0100
0000
1000
0010
0100
,  // measure 13
0002
1000
1000
1003
,  // measure 14
0001
0000
0100
0001
1000
0100
0010
0001
,  // measure 15
1000
0000
0001
0100
0000
0001
1000
0100
,  // measure 16
1000
0000
0001
1000
0000
0001
1000
0100
,  // measure 17
0020
0000
0001
0031
0200
0000
0010
0310
,  // measure 18
2000
0000
0100
3100
0020
0000
0031
0000
,  // measure 19
1000
0000
1000
0000
0001
0000
0001
0000
0100
0010
0100
0010
0100
0010
0100
0000
,  // measure 20
0001
0001
2002
0000
0000
3003
1001
0000
,  // measure 21
1000
0010
0001
0010
0100
0001
1000
0010
,  // measure 22
1000
0001
0010
0100
1000
0010
0001
0010
,  // measure 23
1000
0000
0100
0010
0001
1000
0000
0002
,  // measure 24
0000
1000
0000
1003
0001
0010
1000
0010
,  // measure 25
0001
0100
1000
0100
0010
1000
0001
0010
,  // measure 26
0100
1000
0001
1000
0001
0010
1000
0010
,  // measure 27
0001
0000
0100
0010
1000
0100
0000
2000
,  // measure 28
0000
0001
0000
3001
1000
0100
1000
0100
,  // measure 29
1000
0001
0100
1000
0100
0001
0010
1000
,  // measure 30
0010
0001
1000
0010
0000
2002
0000
3003
,  // measure 31
0000
1000
0010
0001
0010
1000
0001
0100
,  // measure 32
1000
0100
0001
0010
0100
1000
0001
0100
,  // measure 33
0001
0000
2000
0100
0000
3100
0010
0001
,  // measure 34
0100
0010
0000
1000
0100
1000
0010
0100
,  // measure 35
0001
0000
0001
0000
0100
0000
0100
0000
0010
0000
0000
1000
0000
0000
0001
0000
,  // measure 36
0022
0000
0000
0000
0000
0033
0011
0000
,  // measure 37
2002
0000
0000
0000
,  // measure 38
0000
0000
0000
3003
,  // measure 39
1010
0000
0000
1000
0000
0000
1001
0000
0000
0001
0000
0000
0101
0000
0100
0000
,  // measure 40
0010
1000
0010
0000
0000
0000
1001
0000
0000
0000
1001
0000
0000
0000
0000
0000
,  // measure 41
0001
0100
1000
0100
0001
1000
0100
0010
,  // measure 42
0001
0100
1000
0100
0001
0010
0100
1000
,  // measure 43
0001
0001
1000
0010
0100
0100
0001
0010
,  // measure 44
0200
0000
0000
0000
0000
0000
0000
0000
1300
0001
1000
0001
1000
0000
0000
0000
,  // measure 45
0002
0000
1000
1000
0000
1000
1003
0000
,  // measure 46
0020
0000
0100
0230
0000
0001
0301
1000
,  // measure 47
0200
0000
0010
0010
0000
0010
0310
0000
,  // measure 48
0002
0000
0010
0023
0000
0001
0031
1000
,  // measure 49
0010
0100
0010
1000
0100
0001
0100
1000
,  // measure 50
0001
0100
0010
0100
0001
0100
1000
0100
,  // measure 51
0001
1000
0100
0001
1000
0010
0001
1000
,  // measure 52
0001
0001
2002
0000
0000
3003
1001
0000
,  // measure 53
2020
0000
0000
0000
3000
0000
0230
0002
,  // measure 54
0000
0000
0000
0303
,  // measure 55
0220
0000
0330
0220
0000
0330
0110
2002
,  // measure 56
0000
0000
0000
3003
,  // measure 57
0022
0000
0000
0000
0000
0030
2003
0200
,  // measure 58
0000
0000
0000
3300
,  // measure 59
0220
0000
0330
0220
0000
0330
0110
1001
,  // measure 60
1000
0000
1000
0000
0010
0000
0010
0000
0100
0010
0100
0010
0100
0000
0000
0000
,  // measure 61
0001
0100
1000
0100
0010
1000
0001
0010
,  // measure 62
0100
0010
0001
0100
0000
2002
0000
3003
,  // measure 63
0000
1000
0010
0001
0010
0100
0001
1000
,  // measure 64
0001
0100
1000
0100
0001
1000
0100
1000
,  // measure 65
0001
0000
0200
0001
0000
0301
1000
0100
,  // measure 66
0010
0100
0000
1000
0001
0010
1000
0010
,  // measure 67
0001
0000
1000
0000
0100
0000
1000
0000
0001
0000
0000
0100
0000
0000
0010
0000
,  // measure 68
2020
0000
0000
0000
0000
3030
1010
0000
,  // measure 69
1001
0000
0000
1000
0000
0000
0010
0000
0000
0100
0001
0000
0010
0000
0100
0000
,  // measure 70
1000
0000
0000
0010
0000
0000
0100
0000
0000
0001
1000
0000
0100
0000
0010
0000
,  // measure 71
0001
0000
0000
0100
0000
0000
0001
0000
0000
1000
0100
0000
0010
0000
0001
0000
,  // measure 72
0100
0110
0000
0110
0000
0110
1001
0000
,  // measure 73
0101
0000
0000
0001
1000
0000
0100
0000
0000
1000
0001
0000
0010
0000
0100
0000
,  // measure 74
0110
0000
0000
0010
0001
0000
1000
0000
0000
0010
1000
0000
0100
0000
0010
0000
,  // measure 75
0001
0000
0100
0000
1000
0000
0100
0000
0001
1000
0001
1000
0001
1000
0001
0000
,  // measure 76
0000
0110
0000
0110
0000
0110
0000
0000
,  // measure 77
2020
0000
0000
0000
,  // measure 78
0000
0000
0000
0000
,  // measure 79
3030
0000
0000
0000
;

//---------------dance-single - ----------------
#NOTES:
     dance-single:
     :
     Beginner:
     1:
     0.070,0.126,0.066,0.000,0.000:
1000
0000
0000
0000
,
1000
0000
0000
0000
,
0001
0000
0000
0000
,
0001
0000
0000
0000
,
1001
0000
0000
0000
,
0000
0000
0000
0000
,
1000
0000
0000
0000
,
0100
0000
0000
0000
,
1000
0000
0000
0000
,
0100
0000
0000
0000
,
0010
0000
0000
0000
,
0001
0000
0000
0000
,
1000
0000
0000
0000
,
0000
0000
0000
0000
,
1000
0000
0000
0000
,
0000
0000
0000
0000
,
1001
0000
0000
0000
,
0000
0000
0000
0000
,
0001
0000
0000
0000
,
0000
0000
0000
0000
,
0100
0000
0000
0000
,
0000
0000
0000
0000
,
0010
0000
0000
0000
,
0000
0000
0000
0000
,
0100
0000
0000
0000
,
0000
0000
0000
0000
,
0001
0000
0000
0000
,
0000
0000
0000
0000
,
1000
0000
0000
0000
,
0000
0000
0000
0000
,
0100
0000
0000
0000
,
0000
0000
0000
0000
,
1000
0000
0000
0000
,
1000
0000
0000
0000
,
1000
0000
0000
0000
,
0000
0000
0000
0000
,
1001
0000
0000
0000
,
0000
0000
0000
0000
,
0000
0000
0000
0000
,
0000
0000
0000
0000
,
0001
0000
0000
0000
,
0100
0000
0000
0000
,
0001
0000
0000
0000
,
0000
0000
0000
0000
,
1001
0000
0000
0000
,
0000
0000
0000
0000
,
1000
0000
0000
0000
,
0000
0000
0000
0000
,
0010
0000
0000
0000
,
0000
0000
0000
0000
,
0100
0000
0000
0000
,
0000
0000
0000
0000
,
1001
0000
0000
0000
,
0000
0000
0000
0000
,
0001
0000
0000
0000
,
0000
0000
0000
0000
,
1001
0000
0000
0000
,
0000
0000
0000
0000
,
1000
0000
0000
0000
,
0000
0000
0000
0000
,
0100
0000
0000
0000
,
0010
0000
0000
0000
,
0100
0000
0000
0000
,
0010
0000
0000
0000
,
0001
0000
0000
0000
,
0100
0000
0000
0000
,
0001
0000
0000
0000
,
0000
0000
0000
0000
,
1000
0000
0000
0000
,
0001
0000
0000
0000
,
1000
0000
0000
0000
,
1001
0000
0000
0000
,
0001
0000
0000
0000
,
1000
0000
0000
0000
,
0001
0000
0000
0000
,
0000
0000
0000
0000
,
1001
0000
0000
0000
;
