#TITLE:鬼天;
#SUBTITLE:;
#ARTIST:兎々;
#TITLETRANSLIT:ONIGAMI;
#SUBTITLETRANSLIT:;
#ARTISTTRANSLIT:TOTTO;
#CREDIT:DigiMindAxel;
#BANNER:ONIGAMI.png;
#BACKGROUND:ONIGAMI-bg.png;
#LYRICSPATH:;
#CDTITLE:REFLEC BEAT.png;
#MUSIC:ONIGAMI.ogg;
#METERTYPE:DDR X;
#OFFSET:-6.702;
#SAMPLESTART:15.627;
#SAMPLELENGTH:12.000;
#SELECTABLE:YES;
#BPMS:0.000=161.000,152.000=80.500,168.000=161.000;
#STOPS:;
#BGCHANGES:;

//---------------dance-single - ----------------
#NOTES:
     dance-single:
     :
     Easy:
     5:
     0.220,0.256,0.018,0.088,0.009:
1000
0000
0000
1000
0000
0000
0000
0000
,
0000
0000
0000
0000
,
0001
0000
0000
0001
0000
0000
0000
0000
,
0000
0000
0000
0000
,
2000
0000
0000
0000
,
3001
0000
0000
0000
,
1000
0000
0010
0000
,
0100
0000
0001
0000
,
1000
0000
0100
0000
,
0010
0000
0001
0010
,
0100
0000
1000
0000
,
0010
0000
0100
0000
,
0001
0000
1000
0000
,
0010
0000
0100
0001
,
1000
0000
1000
0000
,
0100
0010
0001
0000
,
1000
0000
1000
0000
,
0010
0100
0001
0000
,
0010
0000
0010
0000
,
0100
0000
0100
0000
,
1000
0001
0100
0000
,
0001
1000
0100
0010
,
0001
0000
0001
0000
,
0010
0100
1000
0000
,
0001
0000
0001
0000
,
0100
0010
1000
0000
,
0001
0000
0010
0000
,
0100
0010
0001
1000
,
0010
0000
0010
0000
,
0100
0001
1000
0100
,
0010
0000
0001
0000
,
0100
0000
0010
1000
,
0001
0000
0010
0000
,
0100
0000
0010
0001
,
1000
0000
0010
0000
,
0100
0000
0001
0010
,
0100
0000
0010
0000
,
0001
1000
0100
1000
,
0002
0000
2003
0000
,
3002
0000
2003
0000
,
3001
0000
0000
0001
0000
0000
0000
0000
0000
0000
0000
0000
0000
0000
0000
0000
,
1000
0000
0000
1000
0000
0000
0000
0000
2002
0000
0000
0000
0000
0000
3003
0000
,
0001
0100
0001
0100
,
0010
1000
0010
1000
,
0100
0010
0100
0010
,
0001
1000
0001
1000
,
0100
1000
0100
1000
,
0010
0100
0010
0100
,
0001
0010
0001
0010
,
0100
1000
0010
0000
,
0100
0001
0100
0001
,
1000
0100
1000
0100
,
0010
0001
0010
0001
,
0100
0010
0100
0010
,
1000
0001
0010
0000
,
0100
1000
0001
0010
,
0001
0010
0100
0000
,
2000
0000
0000
0000
,
3001
0000
0000
0001
0000
0000
0000
0000
,
0010
0000
0100
0000
,
1000
0000
0000
1000
0000
0000
0000
0000
,
0100
0000
0010
0000
,
2002
0000
0000
0000
,
0000
0000
0000
0000
,
0000
0000
0000
0000
,
3003
0000
0000
0000
;

//---------------dance-single - ----------------
#NOTES:
     dance-single:
     :
     Medium:
     9:
     0.470,0.512,0.289,0.464,0.026: // measure 1
1100
0000
0000
1100
0000
0000
0000
0000
,  // measure 2
1000
0100
0010
0001
,  // measure 3
0011
0000
0000
0011
0000
0000
0000
0000
,  // measure 4
0001
0100
0010
1000
,  // measure 5
0200
0000
0000
0000
,  // measure 6
0310
0010
0010
0000
0001
0001
0001
0000
,  // measure 7
1001
0000
0000
1000
1100
0000
0000
0100
,  // measure 8
0110
0000
0000
0010
0001
0010
0100
1000
,  // measure 9
1001
0000
0000
0001
0101
0000
0000
0100
,  // measure 10
0220
0000
0000
0330
2002
0000
0000
3003
,  // measure 11
1001
0000
1000
0010
0110
0000
0100
0001
,  // measure 12
0011
0000
0000
0100
1000
0001
0010
0100
,  // measure 13
1100
0000
1000
0001
0101
0000
0100
0010
,  // measure 14
1010
0110
0101
1001
,  // measure 15
1001
0002
0203
0302
,  // measure 16
1003
0000
0001
0100
0010
0000
0100
0010
,  // measure 17
1000
0002
2003
3200
,  // measure 18
1300
0001
0100
0000
0010
1000
0001
0000
,  // measure 19
2000
0000
3100
0010
0100
0000
1000
0000
,  // measure 20
0002
0000
0103
0010
0100
0000
0001
1000
,  // measure 21
0200
0010
0010
0010
,  // measure 22
0310
0000
0001
0000
0100
0001
1000
0100
,  // measure 23
0010
0000
0001
0100
0010
0000
0100
0010
,  // measure 24
2000
0000
3002
0000
0203
0000
0301
1000
,  // measure 25
0100
0000
0010
0001
0100
0010
1000
0000
,  // measure 26
0002
2003
3200
0320
,  // measure 27
0130
0000
1000
0001
0200
0000
0000
0000
,  // measure 28
0301
0000
1000
0000
0100
0010
0001
1000
,  // measure 29
0020
0100
0130
0001
,  // measure 30
1001
1001
0110
0110
,  // measure 31
1002
0000
0000
0010
0013
0000
0100
1000
,  // measure 32
0002
0000
0000
0100
0103
0001
0010
0100
,  // measure 33
2000
0000
0000
0010
3010
0000
0100
0001
,  // measure 34
2002
0000
0000
3003
0220
0000
0000
0330
,  // measure 35
2001
0000
0000
0100
3100
0000
0010
0001
,  // measure 36
2000
0000
0000
0010
3010
1000
0100
0010
,  // measure 37
0002
0000
0000
0100
0103
0000
0010
1000
,  // measure 38
0002
0023
0230
2300
,  // measure 39
3001
0000
0000
0001
0000
0000
0000
0000
0100
0000
0000
0000
0100
0000
0010
0000
,  // measure 40
1000
0000
0000
1000
0000
0000
0000
0000
0100
0000
0000
0000
0010
0000
0000
0000
,  // measure 41
0001
0000
0000
0001
0000
0000
0000
0000
0010
0000
0000
0000
0010
0000
0100
0000
,  // measure 42
1000
0000
0000
0000
0000
0000
1000
0000
0000
0000
0000
0000
0000
0000
0000
0000
0001
0000
0000
1000
0000
0000
0001
0000
1000
0000
0000
0000
0000
0000
0000
0000
,  // measure 43
0001
0100
0001
0000
1000
0100
2000
0000
,  // measure 44
3010
0100
0010
0000
1000
0001
2000
0000
,  // measure 45
3100
1000
0100
0000
0010
0100
0010
0000
,  // measure 46
0001
1000
0100
0000
0010
0000
0001
0100
,  // measure 47
0002
1003
0100
0020
,  // measure 48
0031
0100
0010
0000
1000
0001
1000
0001
,  // measure 49
0020
0130
2000
3001
,  // measure 50
1000
0100
1000
0000
0100
0010
0001
0010
,  // measure 51
0200
1000
1300
0020
,  // measure 52
0032
0000
0100
0000
0103
0000
0010
0100
,  // measure 53
0020
0000
1000
0000
1000
0000
1030
0001
,  // measure 54
0010
0000
0001
0010
0100
0000
1000
0001
,  // measure 55
0200
0000
0010
0000
0310
1000
0001
0000
,  // measure 56
0020
0000
0100
0000
0130
1000
0001
0000
,  // measure 57
0020
0001
0031
0100
,  // measure 58
2000
0000
0001
0000
,  // measure 59
3001
0000
0000
1001
0000
0000
0000
0000
,  // measure 60
1000
0010
0100
0001
,  // measure 61
1001
0000
0000
1001
0000
0000
0000
0000
,  // measure 62
0001
0010
0100
1000
,  // measure 63
0220
0000
0000
0000
,  // measure 64
0000
0000
0000
0000
,  // measure 65
0000
0000
0000
0000
,  // measure 66
0330
0000
0000
0000
;

//---------------dance-single - ----------------
#NOTES:
     dance-single:
     :
     Hard:
     13:
     0.623,0.626,0.385,0.096,0.377: // measure 1
1001
0000
0000
1001
0000
0000
0001
0100
,  // measure 2
0010
0000
0100
0010
1000
0000
0010
1000
,  // measure 3
1001
0000
0000
1001
0000
0000
1000
0100
,  // measure 4
0010
0001
0100
0010
1000
0001
0010
0100
,  // measure 5
2002
0000
0000
0000
0000
0000
0000
3003
,  // measure 6
1000
0010
1000
0000
0001
1000
0001
0000
0010
0000
0001
0010
0001
0000
0000
0000
,  // measure 7
1001
0000
0000
1000
0000
0000
0010
0000
0110
0000
0000
0100
0000
0000
0001
0000
,  // measure 8
1001
0000
0000
1000
0000
0000
0010
0000
1000
0000
0100
0000
0010
0000
0001
0000
,  // measure 9
0101
0000
0000
0100
0000
0000
0010
0000
1010
0000
0000
1000
0000
0000
0001
0000
,  // measure 10
0011
0000
0000
0011
0000
0000
1001
0000
1000
0000
0010
0000
0001
0000
0010
0000
,  // measure 11
1010
0000
0000
1000
0000
0000
0001
0000
0011
0000
0000
0010
0000
0000
0100
0000
,  // measure 12
0110
0000
0000
0100
0000
0000
1000
0000
0001
0000
0010
0000
1000
0000
0010
0000
,  // measure 13
0011
0000
0000
0001
0000
0000
0010
0000
0110
0000
0000
0100
0000
0000
1000
0000
,  // measure 14
1100
0000
0000
0100
1000
0000
0000
1000
0010
0000
0000
0010
0100
0000
0000
0000
,  // measure 15
0001
0000
1000
0100
1000
0000
0100
1000
0100
0000
0010
0000
0001
0000
0100
0000
,  // measure 16
0010
0100
0001
0010
1000
0010
0001
1000
,  // measure 17
0000
0000
0010
1000
0010
0000
1000
0010
1000
0000
0001
0000
0010
0000
0100
0000
,  // measure 18
0010
0001
0100
1000
0100
0001
0010
0100
,  // measure 19
2000
0000
3001
1000
0010
0200
0000
0301
,  // measure 20
2000
0000
3001
0010
0100
0010
0001
1000
,  // measure 21
0020
1000
1000
0000
0100
0000
0130
0000
,  // measure 22
0001
1000
0001
0000
1000
0100
1000
0000
0001
0000
0010
0100
0010
0000
0001
0000
,  // measure 23
1000
0000
0001
0100
0001
0000
0100
0001
0100
0000
0001
0000
0010
0000
0100
0000
,  // measure 24
1000
0010
0001
0010
1000
0100
0010
0100
,  // measure 25
0000
0000
1000
0010
1000
0000
0010
1000
0010
0000
1000
0000
0001
0000
0010
0000
,  // measure 26
0100
0010
0001
0100
1000
0100
0001
0010
,  // measure 27
0100
0000
0000
0100
1000
0000
0010
0000
0200
0000
0001
0000
0000
0000
0301
0000
,  // measure 28
1000
0000
0000
1000
0001
0000
0100
0000
0010
0000
1000
0000
0100
0000
0010
0000
,  // measure 29
0100
0000
0000
0100
1000
0000
0001
0000
0100
0000
0001
0000
0010
0000
0100
0000
,  // measure 30
1000
0001
1000
0000
0001
0100
0001
0000
1000
0000
0100
0010
0100
0000
1000
0000
,  // measure 31
0010
0000
0000
0010
0000
0000
0010
0000
1001
0000
0000
0001
0000
0000
0001
0000
,  // measure 32
0011
0000
0000
0010
0000
0000
0010
0000
0100
0000
1000
0000
0001
0000
0100
0000
,  // measure 33
0110
0000
0000
0010
0000
0000
0010
0000
1001
0000
0000
1000
0000
0000
1000
0000
,  // measure 34
1010
0000
0000
1010
0000
0000
0110
0000
0100
0000
0001
0000
0010
0000
0100
0000
,  // measure 35
1100
0000
0000
1000
0000
0000
1000
0000
1010
0000
0000
0010
0000
0000
0010
0000
,  // measure 36
0110
0000
0000
0100
0000
0000
0100
0000
0001
0000
0010
0000
0100
0000
1000
0000
,  // measure 37
1001
0000
0000
0001
0000
0000
0001
0000
0011
0000
0000
0010
0000
0000
0010
0000
,  // measure 38
0100
1000
0100
0000
1000
0001
1000
0000
0100
1000
0100
0000
1000
0001
1000
0000
,  // measure 39
1100
0000
0000
1100
0000
0000
0000
0000
1000
0000
0100
0000
0010
0000
0001
0000
,  // measure 40
1001
0000
0000
1001
0000
0000
0000
0000
0001
0000
0010
0000
0100
0000
0010
0000
,  // measure 41
0011
0000
0000
0011
0000
0000
0000
0000
0001
0000
1000
0000
0010
0000
1000
0000
,  // measure 42
1001
0000
0000
0000
0000
0000
1001
0000
0000
0000
0000
0000
0000
0000
0000
0000
0100
0000
0000
0100
0000
0000
0100
0000
1001
0000
0000
0000
0000
0000
0000
0000
,  // measure 43
1000
0000
0000
1000
0010
0000
0100
0000
0001
0000
0010
0000
0100
0000
0000
0000
,  // measure 44
0010
0000
0000
0010
0001
0000
1000
0000
0100
0000
0000
0100
0010
0000
0000
0010
,  // measure 45
0001
0000
0100
0000
0010
0000
0000
0010
1000
0000
0100
0000
0010
0000
0000
0010
,  // measure 46
0001
0000
0100
0000
0001
0000
1000
0000
0100
0000
0010
0000
0100
1000
0100
1000
,  // measure 47
0100
0000
0000
0100
0010
0000
0001
0000
1000
0000
0100
0000
0010
0000
0000
0010
,  // measure 48
0001
0000
1000
0000
0010
0000
0000
0010
0100
0000
0001
0000
0100
0000
0010
0000
,  // measure 49
1000
0000
0000
1000
0001
0000
0010
0000
0100
0000
0000
0100
1000
0000
0001
0000
,  // measure 50
0100
0000
0010
0000
0100
0000
0000
0100
0001
0000
1000
0000
0100
0010
0100
0010
,  // measure 51
0100
0000
0000
0100
1000
0000
0010
0000
0100
0000
0010
0000
1000
0000
0000
1000
,  // measure 52
0001
0000
0010
0000
0100
0000
0010
0000
0001
0000
0000
0001
0100
0000
0000
0100
,  // measure 53
0010
0000
1000
0000
0100
0000
0010
0000
0100
0000
0000
0100
1000
0000
0010
0000
,  // measure 54
0100
0000
0000
0100
0001
0000
0000
0001
1000
0000
0000
1000
0100
0000
0000
0100
,  // measure 55
0010
0000
0001
0000
1000
0000
0010
0100
0010
0000
1000
0000
0001
0000
0010
0100
,  // measure 56
0010
0000
0000
0001
1000
0000
0000
1000
0010
0000
0000
0010
0100
0000
0000
0100
,  // measure 57
0001
1000
0100
0010
0100
1000
0001
0100
,  // measure 58
0020
0000
2030
0000
,  // measure 59
3001
0000
0000
1001
0000
0000
0000
0000
,  // measure 60
1000
0100
0010
0000
0001
0010
0100
0000
,  // measure 61
1001
0000
0000
1001
0000
0000
0000
0000
,  // measure 62
0001
0100
0010
0000
0100
0010
1000
0000
,  // measure 63
2002
0000
0000
0000
,  // measure 64
0000
0000
0000
0000
,  // measure 65
0000
0000
0000
0000
,  // measure 66
3003
0000
0000
0000
;

//---------------dance-single - ----------------
#NOTES:
     dance-single:
     :
     Challenge:
     16:
     0.860,0.854,0.368,0.061,0.990: // measure 1
1100
0000
0000
1100
0000
0000
0010
0001
,  // measure 2
0100
0010
1000
0100
0010
0001
1000
0010
,  // measure 3
1010
0000
0000
1010
0000
0000
0100
0001
,  // measure 4
0100
0001
0010
0100
1000
0001
0100
0001
,  // measure 5
2002
0000
0000
0000
0000
0000
0000
3003
,  // measure 6
1000
0100
1000
0000
0100
0010
0100
0000
0010
0001
0010
0001
0100
0010
0100
0000
,  // measure 7
1001
0000
0000
1001
0000
0000
0100
1000
0100
0000
0000
1100
0000
0000
0010
0100
,  // measure 8
0010
0000
0000
0110
0000
0000
0100
0001
0100
0001
0010
0100
1000
0001
0010
0001
,  // measure 9
1000
0000
0000
1001
0000
0000
0100
0001
0100
0000
0000
0101
0000
0000
0010
1000
,  // measure 10
0010
0000
0000
1010
0000
0000
0110
0000
0100
0010
1000
0100
0010
0001
1000
0010
,  // measure 11
1000
0000
0000
1010
0000
0000
0100
0010
0100
0000
0000
0110
0000
0000
0001
0010
,  // measure 12
0001
0000
0000
0011
0000
0000
0010
0100
0010
0100
1000
0010
0100
0001
1000
0010
,  // measure 13
1000
0000
0000
1010
0000
0000
0100
0010
0100
0000
0000
0110
0000
0000
0001
0100
,  // measure 14
0001
0010
0100
1000
0001
0100
0001
1000
0100
0010
0001
1000
0100
1000
0001
0000
,  // measure 15
1001
0000
1000
0100
0010
0000
0010
0001
1000
0000
0100
1000
0100
0000
0010
0001
,  // measure 16
0010
0000
0001
0100
0010
0000
0010
0100
0001
0000
0001
0100
0010
0000
1000
0000
,  // measure 17
0100
0000
1000
0100
0010
0000
0010
0100
1000
0000
0001
0100
0001
0000
1000
0010
,  // measure 18
1000
0000
0100
0010
0001
0000
0001
0010
0100
0000
0100
0010
0001
0000
1000
0000
,  // measure 19
0010
0000
0100
0001
1000
0000
0100
0000
0010
0000
0001
0100
0001
0000
1000
0000
,  // measure 20
0100
0000
0010
0100
1000
0000
0001
0000
0100
0000
0010
0100
0010
1000
0100
0010
,  // measure 21
0001
0000
0100
0010
1000
0000
0000
1000
0001
0000
0000
0001
0100
0000
0000
0100
,  // measure 22
0010
1000
0010
0000
0100
0001
0100
0000
0001
1000
0001
1000
0100
0010
0001
0010
,  // measure 23
0100
0000
1000
0010
0100
0000
0010
0100
0001
0000
1000
0100
1000
0000
0001
0010
,  // measure 24
0001
0000
1000
0100
0010
0000
0010
0100
1000
0000
1000
0100
0010
0000
0001
0000
,  // measure 25
0100
0000
0010
0100
0001
0000
0100
0010
1000
0000
0010
0100
0010
0000
1000
0001
,  // measure 26
1000
0000
0010
0100
0001
0000
0001
0100
0010
0000
0010
0100
0001
0000
1000
0000
,  // measure 27
0100
0000
0010
0100
1000
0000
0001
0000
0100
0000
0010
0100
0010
0000
1000
0000
,  // measure 28
0001
0000
0100
0010
1000
0000
0010
0000
0100
0001
1000
0100
0010
0001
1000
0000
,  // measure 29
0001
0000
0100
0001
1000
0000
0100
0010
0001
0000
0010
0000
0100
0000
1000
0000
,  // measure 30
0001
0100
0001
0000
1000
0010
1000
0000
0100
0010
0100
0010
0001
0100
0010
0000
,  // measure 31
1010
0000
0000
1010
0000
0000
0010
1000
0001
0000
0000
1001
0000
0000
0001
0010
,  // measure 32
0100
0000
0000
0110
0000
0000
0010
0100
0010
0100
1000
0010
1000
0010
0100
0001
,  // measure 33
1000
0000
0000
1001
0000
0000
1000
0100
0010
0000
0000
0110
0000
0000
0100
0010
,  // measure 34
0001
0000
0000
0011
0000
0000
0001
1000
0001
0010
1000
0010
0001
0010
0100
1000
,  // measure 35
0010
0000
0000
1010
0000
0000
0010
1000
0001
0000
0000
1001
0000
0000
0001
0010
,  // measure 36
0100
0000
0000
0110
0000
0000
0010
0100
1000
0010
0001
0010
1000
0100
0010
0001
,  // measure 37
0100
0000
0000
0101
0000
0000
0001
1000
0100
0000
0000
1100
0000
0000
0100
1000
,  // measure 38
0001
0100
0001
0100
0010
1000
0010
1000
0001
0010
0100
0010
0001
0010
0100
1000
,  // measure 39
0001
0000
0000
1001
0000
0000
0000
0000
1000
0001
0100
0000
0010
1000
0100
0010
,  // measure 40
1001
0000
0000
1001
0000
0000
0000
0000
1000
0001
0010
0000
0100
1000
0001
0100
,  // measure 41
0101
0000
0000
0101
0000
0000
0000
0000
0100
0010
1000
0100
0010
0001
1000
0010
,  // measure 42
1010
0000
0000
0000
0000
0000
1010
0000
0000
0000
0000
0000
0010
0000
0100
0000
0001
0000
0000
0001
0000
0000
0001
0000
1000
0100
1000
0100
0010
0001
0010
0001
,  // measure 43
1000
0000
0001
0100
0001
0000
0100
0010
0100
0000
0010
1000
0010
0000
0000
0000
,  // measure 44
1000
0000
0100
1000
0100
0000
0010
0100
0010
0000
0001
0100
0010
0000
0010
0100
,  // measure 45
0001
0000
1000
0100
1000
0000
0010
0100
0010
0000
0100
0001
1000
0000
1000
0001
,  // measure 46
0100
0000
0001
1000
0001
0000
1000
0100
1000
0000
0001
0010
0001
1000
0100
0010
,  // measure 47
0001
0000
0100
0001
0100
0000
0010
0100
0010
0000
1000
0010
0100
0000
0100
0010
,  // measure 48
1000
0000
0001
1000
0001
0000
0010
0001
0010
0000
0100
0010
0001
0000
0001
0010
,  // measure 49
0100
0000
1000
0010
1000
0000
0001
1000
0001
0000
0010
0001
0100
0000
0100
0001
,  // measure 50
0010
0000
0100
1000
0100
0000
1000
0010
0100
0000
0010
0000
1000
0100
0010
0001
,  // measure 51
1000
0000
0001
0100
0001
0000
0100
0010
0100
0000
0010
1000
0100
0000
0100
1000
,  // measure 52
0010
0000
0100
0010
0100
0000
0001
1000
0001
0000
0010
0100
1000
0000
1000
0100
,  // measure 53
0010
0000
0001
0100
0001
0000
0100
0010
0100
0000
0010
0100
0001
0000
0010
0000
,  // measure 54
0100
0000
1000
0010
0100
0000
0100
0001
0010
0000
0010
0100
1000
0000
1000
0001
,  // measure 55
0200
0000
0001
0000
0301
0000
1000
0100
0020
0000
0001
0000
0031
0000
0100
1000
,  // measure 56
0010
0000
0010
0100
0001
0000
0001
1000
0100
0000
0100
0010
0001
0000
0001
1000
,  // measure 57
0010
0000
0100
0000
0001
0000
1000
0100
1000
0001
0100
0010
1000
0001
0010
0100
,  // measure 58
0020
0000
0000
0000
0002
0000
0000
0033
,  // measure 59
1001
1000
0010
0110
0000
0000
0100
0001
,  // measure 60
0010
1000
0010
0001
0100
0001
1000
0001
,  // measure 61
1001
1000
0100
0110
0000
0000
0010
0001
,  // measure 62
0100
0000
1000
0000
0100
0000
0001
0000
1000
0000
0001
0000
0010
0000
0100
1000
,  // measure 63
0020
0000
0000
0000
,  // measure 64
0000
0000
0000
0000
,  // measure 65
0000
0000
0000
0000
,  // measure 66
0030
0000
0000
0000
;

//---------------dance-single - ----------------
#NOTES:
     dance-single:
     :
     Beginner:
     2:
     0.096,0.163,0.096,0.000,0.000:
1000
0000
0000
0000
,
0000
0000
0000
0000
,
1000
0000
0000
0000
,
0000
0000
0000
0000
,
1001
0000
0000
0000
,
0000
0000
0000
0000
,
0001
0000
0000
0000
,
0100
0000
0000
0000
,
0010
0000
0000
0000
,
1000
0000
0000
0000
,
0001
0000
0000
0000
,
0010
0000
0000
0000
,
0100
0000
0000
0000
,
0010
0000
0000
0000
,
0001
0000
0001
0000
,
0001
0000
0000
0000
,
1000
0000
1000
0000
,
1000
0000
0000
0000
,
0001
0000
1000
0000
,
0001
0000
0000
0000
,
1000
0000
0000
0000
,
0100
0000
0010
0000
,
0100
0000
0000
0000
,
1000
0000
0000
0000
,
0001
0000
0100
0000
,
0001
0000
0000
0000
,
0100
0000
0010
0000
,
0100
0000
0000
0000
,
0001
0000
1000
0000
,
0001
0000
0000
0000
,
1001
0000
0000
0000
,
0010
0000
0000
0000
,
1001
0000
0000
0000
,
0110
0000
0000
0000
,
1001
0000
0000
0000
,
0100
0000
0000
0000
,
1001
0000
0000
0000
,
0110
0000
0000
0000
,
0110
0000
0000
0000
,
0010
0000
0000
0000
,
0010
0000
0000
0000
,
0000
0000
0000
0000
,
1001
0000
0000
0000
,
1000
0000
0000
0000
,
0100
0000
0000
0000
,
1000
0000
0000
0000
,
0001
0000
0000
0000
,
0100
0000
0000
0000
,
0010
0000
0000
0000
,
0100
0000
0000
0000
,
0001
0000
0000
0000
,
1000
0000
0000
0000
,
0100
0000
0000
0000
,
0010
0000
0000
0000
,
0100
0000
1000
0000
,
0100
0000
0000
0000
,
1000
0000
0001
0000
,
1000
0000
0000
0000
,
1001
0000
0000
0000
,
0000
0000
0000
0000
,
0001
0000
0000
0000
,
0000
0000
0000
0000
,
1001
0000
0000
0000
;
