#TITLE:NoN-Fiction Story!;
#SUBTITLE:;
#ARTIST:Creative Life;
#TITLETRANSLIT:;
#SUBTITLETRANSLIT:;
#ARTISTTRANSLIT:;
#CREDIT:DigiMindAxel;
#BANNER:NoN-Fiction Story!.png;
#BACKGROUND:NoN-Fiction Story!-bg.png;
#LYRICSPATH:NoN-Fiction Story!.lrc;
#CDTITLE:beatmania IIDX.png;
#MUSIC:NoN-Fiction Story!.ogg;
#METERTYPE:DDR X;
#OFFSET:0.360;
#SAMPLESTART:36.400;
#SAMPLELENGTH:12.000;
#SELECTABLE:YES;
#BPMS:0.000=160.000;
#STOPS:;
#BGCHANGES:-4.000=NoN-Fiction Story!.avi=1.000=1=1=0,
99999=-nosongbg-=1.000=0=0=0 // don't automatically add -songbackground-
;

//---------------dance-single - ----------------
#NOTES:
     dance-single:
     :
     Easy:
     6:
     0.331,0.456,0.233,0.149,0.000:
0000
0000
0000
0000
,
0000
0000
0000
0000
,
0000
0000
0000
0000
,
1000
0010
1000
0001
,
0010
0100
1000
0001
,
0200
0000
0000
0000
,
0002
0000
0303
0000
,
1001
1000
1000
0000
,
0002
0000
0000
0103
0000
0000
0000
0000
,
1001
0001
0001
0000
,
2000
0000
0000
3010
0000
0000
0000
0000
,
1000
0001
1000
0000
,
0010
0100
0001
0000
,
0010
0001
0010
0001
,
1000
0001
1000
0000
,
0001
0010
0000
0001
,
0100
0010
0100
0001
,
1000
0100
0000
1000
,
0010
0100
0010
1000
,
0001
0001
1000
1000
,
0001
0001
1000
1000
,
0020
0000
0200
0000
,
0330
0000
0000
0000
,
0100
0001
2000
0000
,
3001
0000
0000
0000
,
1001
0010
0100
1000
,
0010
1000
0000
1000
,
0100
0010
0001
0100
,
0001
1000
0000
0001
,
0010
0100
1000
0100
,
1000
0001
0000
1000
,
0100
0010
0001
0100
,
0010
0100
0110
0000
,
1001
0001
0001
1000
,
0100
0010
0001
0000
,
1000
1000
1000
0001
,
0010
0100
1000
0000
,
0001
0001
0001
1000
,
0010
0100
0001
0000
,
1001
1000
1000
1000
,
0110
0010
0010
0010
,
1001
0001
1001
1000
,
0110
0110
0110
0000
,
1001
0000
0000
0000
,
1000
0010
0100
0001
,
1000
0010
0100
0001
,
1000
0001
0010
0100
,
1000
0001
0010
0100
,
1000
0000
1000
1000
,
1001
0000
0001
0001
,
1001
0000
0100
0100
,
0010
0010
0100
0100
,
0001
0010
0100
1000
,
2002
0000
0000
3003
,
0100
0100
0100
0010
,
2000
0000
0000
0000
,
3010
0010
0010
0100
,
2002
0000
0000
3003
,
0001
0100
0010
1000
,
0001
0100
0010
1000
,
1001
0001
0001
0100
,
0110
0010
0010
0000
,
1001
0001
1001
1000
,
0110
0110
0110
0000
,
1001
0100
0010
0001
,
1000
0010
0100
0001
,
2000
0000
0000
0000
,
0020
3000
0200
0000
,
0330
0000
0100
0001
,
1000
0000
0000
0000
0002
0000
0000
1003
;

//---------------dance-single - ----------------
#NOTES:
     dance-single:
     :
     Medium:
     9:
     0.506,0.521,0.484,0.075,0.000:
0000
0000
0000
0000
,
0000
0000
0000
0000
,
0000
0000
0000
0000
,
1000
0100
0010
0001
,
0100
0010
1000
0100
,
0012
0000
0000
1000
2000
0000
3003
0000
,
1001
0000
1001
1001
,
1001
0000
1000
0000
1000
0001
0010
0100
,
2000
0000
0001
3001
0000
0000
0000
0000
,
0001
0000
0001
0000
0001
1000
0100
0010
,
0002
0000
1000
1003
0000
0000
0000
0000
,
0010
0000
0010
0000
0010
1000
0100
0010
,
0001
1000
0001
1000
0000
0001
0010
0100
,
1000
0000
0100
0000
0010
0000
0001
1000
,
0000
1000
0000
0001
1000
0000
0000
0000
,
0011
0000
0001
1000
0000
0001
1000
0000
,
0100
0010
0100
1000
,
0010
0000
1000
0001
0000
1000
0001
0000
,
0010
0100
0010
0001
,
0101
0001
0101
1000
,
1010
1000
1010
0001
,
0100
0010
0100
0001
0000
1000
0000
0001
,
0010
0001
0000
1000
0100
1000
0000
0001
,
0100
0001
0000
1000
0010
0100
0001
0000
,
1001
1000
1000
0000
,
0001
0100
0001
0100
0001
1000
0000
0010
,
0000
1000
0001
1000
0000
0000
0001
0000
,
1000
0010
1000
0010
1000
0001
0000
0100
,
0000
0001
1000
0001
0000
0000
1000
0000
,
0001
0010
0001
0010
0001
1000
0000
0010
,
0000
1000
0001
1000
0000
0001
0010
0000
,
0001
0000
0010
0000
0100
0000
1000
0001
,
0000
0001
0000
1000
0001
0000
0000
0000
,
1000
0100
1000
0100
1000
0001
0000
0100
,
0000
0001
1000
0001
0000
1000
0100
1000
,
0001
0010
0001
0010
0001
1000
0000
0010
,
0000
1000
0001
1000
0000
0001
0010
0001
,
1000
0010
1000
0010
1000
0001
0000
0010
,
0000
0001
1000
0001
0000
1000
0100
0000
,
1001
1000
1010
0001
,
1001
0000
0000
1000
0010
1000
0001
0000
,
1001
0001
0101
1000
,
1001
0000
1001
0000
0001
0001
0001
0000
,
1001
0000
0000
1000
0001
0010
0100
0000
,
1000
0100
1000
0100
1000
0000
0001
0000
,
1000
0000
0001
0010
0100
1000
0001
0000
,
0001
0010
0001
0010
0001
0000
1000
0000
,
0001
0000
1000
0100
0010
0001
1000
0000
,
1010
0000
1010
1010
,
1001
0000
0101
0101
,
1001
0000
0110
0110
,
1001
0000
0110
0110
,
1001
1001
0110
0110
,
2002
0000
0000
3003
,
0010
0000
0010
0000
0010
0000
0010
1000
,
0000
0001
0100
0001
0000
0000
0000
0000
,
0100
0100
0100
0100
,
0101
0000
0000
1000
0000
0001
0010
0001
,
1000
0100
1000
0100
1000
0001
0100
0001
,
0000
1000
0100
1000
0000
0001
1000
0000
,
1001
0001
0011
1000
,
1001
0000
0000
0001
0100
0010
1000
0000
,
1001
1000
1100
0001
,
1001
0000
1001
0000
1000
1000
1000
0000
,
1001
0010
0011
0011
,
1001
0100
1100
1100
,
2001
0000
0000
0001
0002
0000
3003
0000
,
1001
0000
0000
0000
1000
1000
1000
0000
,
0001
0010
0001
0001
1000
0100
0010
0001
,
1000
0000
0000
0001
0100
0000
0001
1000
;

//---------------dance-single - ----------------
#NOTES:
     dance-single:
     :
     Hard:
     12:
     0.604,0.586,0.363,0.261,0.023:
0000
0000
0000
0000
,
0000
0000
0000
0000
,
0000
0000
0000
0000
,
0002
2003
3200
0302
,
0203
2300
3020
2030
,
3002
0000
0000
1000
2000
0000
3003
0000
,
0110
0000
0000
0000
0010
0100
0001
0000
,
1001
0000
0011
0000
0001
0010
0001
1000
,
0100
0000
1000
0001
0000
0001
0010
0100
,
1001
0000
1100
0000
1000
0100
1000
0001
,
0010
0000
0001
1000
0000
1000
0100
0010
,
0001
0000
1001
0000
1000
0001
0010
0100
,
1000
0001
0010
0100
0000
0010
0001
1000
,
0010
0000
0110
0000
1010
0000
0100
0001
,
0000
0001
0000
0100
0001
1000
0100
0000
,
1000
0010
0100
0001
0000
0010
0100
1000
,
0010
0000
1000
0001
0010
0001
0000
1000
,
0001
0100
0010
1000
0000
0100
0010
0001
,
0100
0000
0001
1000
0100
1000
0000
0001
,
2000
0010
3010
0100
,
0002
0100
0103
0010
,
1000
0100
0010
0002
0000
1000
0000
1003
,
0010
0100
0000
0010
0100
0001
0000
0010
,
0100
1000
0001
1000
0100
0010
0001
0000
,
1001
0011
1010
0000
,
1000
0100
0010
0100
1000
0001
0010
0100
,
0000
1000
0100
0010
0000
0001
0100
0001
,
1000
0100
0010
0100
1000
0001
0100
0010
,
0000
0100
0010
1000
0000
0001
0010
0001
,
1000
0010
0001
0010
1000
0001
0010
0100
,
0000
1000
0100
0010
0000
0001
0100
0001
,
1000
0000
0100
0000
0010
0000
0001
1000
,
0000
0100
0010
0001
1001
0000
0000
0000
,
0001
0010
0100
0010
0001
1000
0010
0100
,
0000
0010
0100
0001
0000
1000
0010
1000
,
0001
0010
0100
0010
0001
1000
0010
0100
,
0000
0010
0100
0001
0000
1000
0100
1000
,
0001
0100
1000
0100
0001
1000
0100
0010
,
0000
0001
0010
0100
0000
1000
0010
1000
,
0001
0000
0010
0000
0100
0000
1000
0010
,
0000
0100
0000
1002
0000
0000
1003
0000
,
1001
0000
0100
0000
0110
0000
0001
0101
,
0000
1100
0000
0001
1000
0010
0110
0000
,
1001
0000
0000
0000
0000
0000
0001
1000
0001
0000
0010
0000
0100
0000
0000
0000
,
1000
0010
0100
0001
0010
0100
0010
0000
,
0001
0000
0100
0001
1000
0100
0010
0001
,
1000
0010
0100
0001
0010
0100
0010
0000
,
0001
0000
0100
0001
1000
0100
0010
0001
,
0010
0100
0010
0000
0100
0000
0000
0000
1001
0000
0000
0000
1001
0000
0000
0000
,
0100
0010
0100
0000
0010
0000
0000
0000
1001
0000
0000
0000
1001
0000
0000
0000
,
0010
0100
0010
0000
0100
0000
0000
0000
1001
0000
0000
0000
1001
0000
0000
0000
,
1000
0100
0001
0100
1000
0001
0100
0001
,
1000
0010
0001
0010
1000
0001
0100
0010
,
0220
0000
0000
0330
,
0010
0001
0010
0001
0010
0001
0010
0100
,
0000
1000
0100
0010
0000
0001
1000
0000
,
0100
1000
0100
1000
0100
1000
0100
0010
,
0000
0001
0010
0100
0000
1000
0001
0000
,
1000
0010
0100
0001
0010
0100
0010
0001
,
0000
0010
0100
1000
0000
0001
0010
0100
,
1000
0000
1010
0000
0011
0000
1000
1010
,
0000
0011
0000
2001
0000
0000
3001
0000
,
1001
0000
0101
0000
1100
0000
0001
0101
,
0000
1100
0000
0001
1000
0010
0110
0000
,
1002
0023
2030
3020
,
0032
0203
0320
0230
,
0302
0000
0000
1000
2000
0000
3003
0000
,
0110
0000
0000
0000
0010
0100
2000
0000
,
3001
0010
0001
0000
1000
0000
1000
0000
0001
0000
0010
0000
0100
0000
1000
0000
,
0001
1000
0000
0100
0010
0001
0100
0001
;

//---------------dance-single - ----------------
#NOTES:
     dance-single:
     :
     Challenge:
     13:
     0.676,0.749,0.429,0.102,0.149: // measure 1
0000
0000
0000
0000
,  // measure 2
0000
0000
0000
0000
,  // measure 3
0000
0000
0000
0000
,  // measure 4
1010
0110
0101
0101
,  // measure 5
0011
0110
1100
1100
,  // measure 6
1002
0000
0000
0100
0200
0000
0303
0000
,  // measure 7
1010
0000
0000
0000
0000
0000
0000
0000
0010
0100
0010
0000
1001
0000
0000
0000
,  // measure 8
0001
0010
0001
0010
0001
1000
0100
0001
,  // measure 9
0200
0000
1000
1300
0000
0001
0010
0100
,  // measure 10
1000
0100
1000
0100
1000
0001
0010
1000
,  // measure 11
0020
0000
0001
0031
0000
1000
0100
0010
,  // measure 12
0001
0000
0001
0000
0001
1000
0100
0010
,  // measure 13
0001
0100
0001
1000
0000
0001
0010
0100
,  // measure 14
1000
0000
1000
0000
1100
0000
0011
0001
,  // measure 15
0000
0000
0001
0000
0000
0000
1000
0001
1000
0000
0001
0000
0001
0000
0001
0000
,  // measure 16
1000
0100
0010
0100
0000
1000
0100
0001
,  // measure 17
0100
0000
1000
0000
0001
0000
0010
0000
0100
0000
0010
0000
0000
0000
0001
0100
,  // measure 18
0001
1000
0010
1000
0001
0100
0000
1000
,  // measure 19
0100
0001
0100
0010
0100
0001
0000
1000
,  // measure 20
0001
0010
0001
0100
0010
1000
0100
1000
,  // measure 21
0001
0000
0010
0000
0001
0000
0100
0000
0010
0000
1000
0000
0100
0000
1000
0001
,  // measure 22
1000
0010
0000
0010
0100
0001
0000
0001
,  // measure 23
0010
0100
0010
0001
1000
0010
0000
1000
,  // measure 24
0100
0000
0010
0000
0100
0000
1000
0001
1000
0000
0010
0000
0100
0000
0001
0000
,  // measure 25
1001
1001
1001
0000
,  // measure 26
0100
0100
1000
0100
0010
0001
0100
0001
,  // measure 27
0000
0001
0010
0100
0000
1000
0001
1000
,  // measure 28
0010
0010
0100
0010
1000
0001
0010
0100
,  // measure 29
0000
0000
0100
0000
1000
0000
0010
0000
0000
0000
0100
0010
0100
0000
0001
0000
,  // measure 30
1000
0100
1000
0010
0100
0001
0010
0100
,  // measure 31
1000
0100
0001
0100
0000
1000
0100
0010
,  // measure 32
0001
0000
0100
0000
1000
0000
0100
0001
,  // measure 33
0000
0000
0010
0000
0100
0000
1000
0000
0001
1000
0001
1000
0001
0000
0000
0000
,  // measure 34
0010
0010
0100
0100
1000
0010
0100
0001
,  // measure 35
0000
0001
0010
0100
0000
1000
0001
1000
,  // measure 36
0100
0100
0010
0010
0001
0100
0010
1000
,  // measure 37
0000
0000
1000
0000
0100
0000
0010
0000
0000
0000
0001
1000
0001
0000
1000
0000
,  // measure 38
0010
0010
0100
0100
0001
0010
0001
1000
,  // measure 39
0100
0001
0100
1000
0000
0100
0010
0001
,  // measure 40
1001
0000
1000
0000
1010
0000
0001
0101
,  // measure 41
0000
0100
0000
0120
0000
1000
1030
0000
,  // measure 42
1001
0100
1001
0100
,  // measure 43
1001
0000
0000
0000
1001
0000
0000
0000
1000
0001
1000
0001
1000
0000
0000
0000
,  // measure 44
1001
0000
0000
0000
0000
0000
0010
1000
0001
0000
0001
0000
0001
0000
0000
0000
,  // measure 45
1000
0100
0010
0001
0100
0001
0100
0001
,  // measure 46
1000
0100
1000
0100
1000
0010
0001
0010
,  // measure 47
1000
0001
1000
0100
1000
0100
1000
0001
,  // measure 48
0010
0001
0010
0001
1000
0100
0010
0001
,  // measure 49
1000
0001
1000
0000
0001
0000
0001
0000
1000
0100
1000
0000
0010
0100
0010
0000
,  // measure 50
0100
0001
0100
0000
0001
0000
0001
0000
0100
0001
0100
0000
0010
0100
0010
0000
,  // measure 51
1000
0100
1000
0000
0001
0000
0001
0000
1000
0100
1000
0000
0001
0100
0001
0000
,  // measure 52
1000
0001
1000
0000
0001
0000
0001
0000
0010
0001
0010
0000
0001
0010
0001
0000
,  // measure 53
1000
0010
1000
0000
0010
1000
0010
0000
1000
0001
1000
0000
0001
1000
0001
0000
,  // measure 54
2002
0000
0000
3003
,  // measure 55
0001
0001
0100
0100
0001
0001
0010
0100
,  // measure 56
0000
1000
0100
0010
0000
0001
0100
0001
,  // measure 57
1000
1000
0001
0001
0010
0010
0100
1000
,  // measure 58
1020
0000
0100
0130
0000
0010
0100
0010
,  // measure 59
1000
0100
0001
0100
1000
0001
0010
0100
,  // measure 60
1000
0010
0100
0010
0000
1000
0010
0100
,  // measure 61
0101
0000
0001
0000
0001
0000
1000
1010
,  // measure 62
0000
1001
0000
0012
0000
1000
1003
0000
,  // measure 63
1001
0010
1001
0010
,  // measure 64
1001
0000
0000
0000
1001
0000
0000
0000
0001
1000
0001
1000
0001
0000
0000
0000
,  // measure 65
0011
0110
1100
1100
,  // measure 66
1010
0110
0101
0101
,  // measure 67
2001
0000
0000
0010
0020
0000
3030
0000
,  // measure 68
0101
0000
0000
0000
0000
0000
0000
0000
1000
0001
1000
0000
1001
0000
0000
0000
,  // measure 69
0001
0010
0001
0000
1000
0000
1000
0000
0001
0000
0010
0000
1000
0000
0010
0000
,  // measure 70
0001
0100
0000
0010
1000
0001
0100
0100
;

//---------------dance-single - ----------------
#NOTES:
     dance-single:
     :
     Beginner:
     1:
     0.079,0.128,0.047,0.000,0.000:
0000
0000
0000
0000
,
0000
0000
0000
0000
,
0000
0000
0000
0000
,
0001
0000
0000
0000
,
1000
0000
0000
0000
,
0001
0000
0000
0000
,
0000
0000
0000
0000
,
0001
0000
0000
0000
,
0000
0000
0000
0000
,
1000
0000
0000
0000
,
0000
0000
0000
0000
,
0001
0000
0000
0000
,
0000
0000
0000
0000
,
0010
0000
0000
0000
,
0000
0000
0000
0000
,
0001
0000
0000
0000
,
1000
0000
0000
0000
,
0001
0000
0000
0000
,
1000
0000
0000
0000
,
0100
0000
0000
0000
,
1000
0000
0000
0000
,
0001
0000
0000
0000
,
0000
0000
0000
0000
,
1000
0000
0000
0000
,
1001
0000
0000
0000
,
0001
0000
0000
0000
,
0001
0000
0000
0000
,
1000
0000
0000
0000
,
1000
0000
0000
0000
,
0001
0000
0000
0000
,
0001
0000
0000
0000
,
1000
0000
0000
0000
,
1000
0000
0000
0000
,
0010
0000
0000
0000
,
0010
0000
0000
0000
,
0100
0000
0000
0000
,
0100
0000
0000
0000
,
0001
0000
0000
0000
,
0001
0000
0000
0000
,
0010
0000
0000
0000
,
0100
0000
0000
0000
,
1000
0000
0000
0000
,
0001
0000
0000
0000
,
1001
0000
0000
0000
,
1000
0000
0000
0000
,
0000
0000
0000
0000
,
0001
0000
0000
0000
,
0000
0000
0000
0000
,
1000
0000
0000
0000
,
0000
0000
0000
0000
,
0001
0000
0000
0000
,
0000
0000
0000
0000
,
1000
0000
0000
0000
,
1001
0000
0000
0000
,
0001
0000
0000
0000
,
0000
0000
0000
0000
,
0010
0000
0000
0000
,
0000
0000
0000
0000
,
0100
0000
0000
0000
,
0000
0000
0000
0000
,
1000
0000
0000
0000
,
0001
0000
0000
0000
,
1000
0000
0000
0000
,
0001
0000
0000
0000
,
1001
0000
0000
0000
,
0010
0000
0000
0000
,
0100
0000
0000
0000
,
0010
0000
0000
0000
,
0100
0000
0110
0000
;

//---------------dance-double - ----------------
#NOTES:
     dance-double:
     :
     Easy:
     6:
     0.322,0.358,0.177,0.196,0.000:
00000000
00000000
00000000
00000000
,
00000000
00000000
00000000
00000000
,
00000000
00000000
00000000
00000000
,
10000000
01000000
00100000
00010000
,
10000000
01000000
00100000
00010000
,
00002000
00000000
00000000
00000000
,
00020000
00000000
00033000
00000000
,
00000010
00000100
00000010
00000000
,
00002000
00000000
00000000
00003010
00000000
00000000
00000000
00000000
,
00000100
00000010
00000100
00000000
,
00000002
00000000
00000000
00000103
00000000
00000000
00000000
00000000
,
00000001
00001000
00000001
00000000
,
00000010
00000100
00001000
00000000
,
00010000
01000000
00010000
01000000
,
00100000
01000000
00100000
00000000
,
10000000
00010000
10000000
00000000
,
01000000
10000000
01000000
00100000
,
00001000
00010000
00000100
00000000
,
00000010
00000100
00000010
00000001
,
00000200
00000000
00000320
00000000
,
00020030
00000000
00032000
00000000
,
02003000
00000000
00200000
00000000
,
03300000
00000000
00000000
00000000
,
00010000
00100000
02000000
00000000
,
13000000
10000000
10000000
00000000
,
00010000
10000000
00010000
01000000
,
00001000
00010000
00000000
00000100
,
00000010
00000100
00010000
00000001
,
00010000
00000100
00000000
00010000
,
00001000
00100000
01000000
10000000
,
01000000
00100000
00000000
00001000
,
01000000
00001000
10000000
01000000
,
10000000
00010000
10010000
00000000
,
01100000
00100000
00100000
01000000
,
00010000
00100000
01000000
00000000
,
10000000
10000000
10000000
01000000
,
00100000
00010000
00001000
00000000
,
00000010
00000010
00000010
00000100
,
00000001
00000010
00000100
00000000
,
00011000
00001000
00001000
00001000
,
01000000
01000000
01000000
01000000
,
10010000
00000000
10010000
00000000
,
01100000
01100000
01100000
00000000
,
20020000
00000000
00000000
30030000
,
10000000
00100000
10000000
00010000
,
10000000
00100000
10000000
01000000
,
00100000
00001000
00010000
00000010
,
00010000
00001000
00010000
00000010
,
00000100
00000000
00000001
00000001
,
00001001
00000000
00000100
00000100
,
00000110
00000000
00000001
00000001
,
00000100
00000100
00000010
00000010
,
00001000
00010000
00100000
01000000
,
20020000
00000000
00000000
30030000
,
00010000
00100000
01000000
10000000
,
00200000
00000000
00000000
00300000
,
10000000
01000000
00100000
00010000
,
00022000
00000000
00000000
00033000
,
00010000
00000100
00000010
00000100
,
00010000
00000001
00000100
00000001
,
00001001
00001000
00000100
00000010
,
00000100
00010000
00010000
00000000
,
01100000
00000000
01100000
00000000
,
10010000
10010000
10010000
00000000
,
01000000
00100000
00001000
00010000
,
00001000
01000000
00100000
01000000
,
00002000
00000000
00000000
00000000
,
00023000
00000000
00000020
00000000
,
00030030
00000000
00000100
00000001
,
00000010
00000000
00000000
00000000
00000100
00000000
00000000
00000100
;

//---------------dance-double - ----------------
#NOTES:
     dance-double:
     :
     Medium:
     9:
     0.504,0.488,0.363,0.149,0.000:
00000000
00000000
00000000
00000000
,
00000000
00000000
00000000
00000000
,
00000000
00000000
00000000
00000000
,
10000000
01000000
00100000
00001000
,
00010000
00000100
00000010
00000001
,
00000200
00000000
00000000
00000010
00000020
00000000
00000330
00000000
,
00000110
00000000
00001001
00001001
,
00000001
00000000
00000001
00000000
00000001
00000010
00000100
00010000
,
00002000
00000000
00100000
00103000
00000000
00000000
00000000
00000000
,
01000000
00000000
01000000
00000000
01000000
10000000
00100000
01000000
,
00020000
00000000
00001000
00031000
00000000
00000000
00000000
00000000
,
00000100
00000000
00000100
00000000
00000100
00000010
00000001
00000100
,
00000010
00000100
00000010
00000100
00000000
00000001
00000010
00000100
,
00001000
00000000
00001000
00000000
00001000
00000000
00010000
01000000
,
00000000
01000000
00000000
00010000
01000000
00000000
00000000
00000000
,
00010000
10000000
00010000
10000000
00000000
00100000
01000000
00000000
,
00010000
00001000
00000100
00000010
,
00000001
00000100
00000001
00000100
00000000
00000001
00001000
00000000
,
00000010
00010000
00001000
00100000
,
02000000
23000000
30200000
02300000
,
03002000
00023000
00030200
00000320
,
00000031
00000100
00000001
00001000
00000000
00000100
00000000
00010000
,
00001000
00010000
00000000
00001000
01000000
00001000
00000000
10000000
,
01000000
10000000
00000000
01000000
10000000
00010000
00100000
00000000
,
10010000
10010000
10010000
00000000
,
00100000
01000000
00100000
01000000
00100000
10000000
00000000
01000000
,
00000000
00100000
00001000
00010000
00000000
00000000
00000100
00000000
,
00000010
00000001
00000010
00000001
00000010
00000100
00000000
00010000
,
00000000
00001000
01000000
00100000
00000000
00000000
10000000
00000000
,
01000000
00100000
01000000
00100000
00001000
00010000
00000000
00000100
,
00000000
00000010
00000001
00000100
00000000
00000001
00001000
00000000
,
00000100
00000000
00001000
00000000
00010000
00000000
01000000
00100000
,
00000000
00100000
00000000
01000000
00100000
00000000
00000000
00000000
,
10000000
01000000
10000000
01000000
10000000
00100000
00000000
01000000
,
00000000
00010000
00001000
00000100
00000000
00000010
00000001
00000010
,
00000001
00000100
00000001
00000100
00000001
00010000
00000000
00001000
,
00000000
00100000
01000000
10000000
00000000
00100000
01000000
00100000
,
01000000
00010000
01000000
00010000
01000000
00001000
00000000
00010000
,
00000000
00000100
00000010
00000100
00000000
00010000
00000010
00000000
,
00001001
00000000
00000100
00000000
00000010
00000000
00000001
00001000
,
00000000
00000010
00000000
00010000
00001000
01000000
00100000
00000000
,
10010000
00100000
10010000
00100000
,
10010000
00000000
10010000
00000000
00010000
10000000
00010000
00000000
,
10010000
00000000
00000000
01000000
01000000
00100000
00100000
00000000
,
10000000
01000000
10000000
01000000
10000000
00000000
00100000
00000000
,
01000000
00000000
00001000
00010000
00000100
00000010
00000100
00000000
,
00001000
00000001
00001000
00000001
00001000
00000000
00000010
00000000
,
00000100
00000000
00000001
00000010
00000100
00010000
00001000
00000000
,
00011000
00000000
01100000
01100000
,
11000000
00000000
01100000
01100000
,
01001000
00000000
00011000
00011000
,
00010010
00000000
00000101
00000101
,
00010010
00010010
00011000
00011000
,
00202000
00000000
00000000
00303000
,
01000000
00000000
01000000
00000000
01000000
00000000
01000000
10000000
,
00000000
00100000
01000000
00001000
00000000
00000000
00000000
00000000
,
00010000
00010000
00010000
00010000
,
00010010
00000000
00000000
00000110
00000000
00000100
00000010
00000001
,
00010000
00000100
00010000
00000100
00010000
00001000
00100000
01000000
,
00000000
10000000
00010000
10000000
00000000
00100000
01000000
00000000
,
10010000
00100000
01000000
10000000
,
00010000
01000000
00000000
00001000
00010000
00000100
00000010
00000000
,
00001001
00000010
00001001
00000010
,
00001001
00000000
00001001
00000000
00001000
00000001
00001000
00000000
,
00000110
00001000
00010000
00100000
,
01000000
10000000
00100000
01000000
,
00012000
00000000
00000000
00010000
00020000
00000000
00033000
00000000
,
00011000
00000000
00000000
00000000
00010000
00010000
00010000
00000000
,
00000010
00000010
00000100
00000100
00000001
00000010
00000100
00001000
,
00010000
00000000
00000000
00100000
01000000
00000000
10000000
00100000
;

//---------------dance-double - ----------------
#NOTES:
     dance-double:
     :
     Hard:
     12:
     0.591,0.586,0.298,0.242,0.023:
00000000
00000000
00000000
00000000
,
00000000
00000000
00000000
00000000
,
00000000
00000000
00000000
00000000
,
20000000
32000000
23000000
30200000
,
02300000
03002000
00023000
00030200
,
00000320
00000000
00000000
00000002
00000000
00000000
00000033
00000000
,
10001001
00000000
00000000
00000000
00000010
00000010
00000010
00000000
,
00001001
00000000
00000001
00000000
00000001
00001000
00000010
00010000
,
00001000
00000000
01000000
00100000
00000000
10000000
01000000
00000000
,
10010000
00000000
10000000
00000000
10000000
00010000
01000000
00010000
,
00100000
00000000
00001000
00010000
00000000
00000100
00000010
00000000
,
00001001
00000000
00000001
00000000
00000001
00000100
00000010
00000100
,
00000001
00000010
00000100
00010000
00000000
00001000
00100000
01000000
,
00100000
00000000
10010000
00000000
10000000
00000000
00100000
01000000
,
00000000
01000000
00000000
00100000
01000000
00001000
00001000
00000000
,
00010000
00000010
00010000
00000001
00000000
00000001
00000000
00000010
,
00000100
00000000
00001000
00000010
00010000
00001000
00000000
00001000
,
00000000
00100000
01000000
10000000
00000000
00010000
10000000
01000000
,
00100000
00000000
00001000
00010000
00000100
00000010
00000000
00000010
,
00000002
00000100
00000103
00000010
,
00020000
00001000
00031000
00100000
,
01000000
10000000
00100000
01000000
00000000
01000000
00000000
00100000
,
01000000
00001000
00000000
00010000
00000100
00000010
00000000
00000001
,
00001000
00000010
00001000
00000100
00010000
00001000
00100000
00000000
,
01100000
11000000
10010000
00000000
,
01000000
10000000
01000000
10000000
00100000
01000000
00001000
00010000
,
00000000
00000100
00000010
00000001
00000000
00000100
00000010
00000100
,
00000001
00000010
00000001
00000010
00000100
00010000
00001000
00100000
,
00000000
01000000
10000000
00010000
00000000
01000000
00100000
01000000
,
00010000
10000000
00010000
10000000
01000000
00100000
00001000
00010000
,
00000000
00000010
00000100
00000001
00000000
00000100
00000010
00000100
,
00000001
00000000
00000010
00000000
00000100
00000000
00010000
00001000
,
00000000
00010000
00001000
01000000
01100000
00000000
00000000
00000000
,
01000000
00100000
01000000
00010000
00100000
01000000
10000000
00001000
,
00000000
00010000
00000010
00000100
00000000
00000001
00001000
00000001
,
00000010
00000001
00000100
00000010
00010000
00001000
00100000
01000000
,
00000000
10000000
00100000
01000000
00000000
00001000
00010000
00000010
,
00000100
00000001
00000010
00000100
00001000
00010000
01000000
00100000
,
00000000
01000000
00100000
10000000
00000000
00010000
10000000
01000000
,
00100000
00000000
00001000
00000000
00010000
00000000
00000100
00000010
,
00000000
00000001
00000000
00000201
00000000
00000000
00000310
00000000
,
00000110
00000000
00010000
00000000
00010100
00000000
00001000
00011000
,
00000000
01001000
00000000
01000000
00100000
10000000
10100000
00000000
,
10010000
00000000
00000000
00000000
00000000
00000000
00100000
01000000
00100000
00000000
01000000
00000000
01000000
00000000
00000000
00000000
,
00010000
01000000
00010000
01000000
00001000
00010000
00001000
00010000
,
00000010
00000100
00000010
00000100
00000001
00000010
00000001
00000010
,
00000100
00010000
00000100
00010000
00001000
00010000
00001000
00000000
,
01000000
00100000
01000000
00100000
10000000
01000000
10000000
01000000
,
10000000
00010000
10000000
00000000
00010000
00000000
00000000
00000000
11000000
00000000
00000000
00000000
11000000
00000000
00000000
00000000
,
00001000
00100000
00001000
00000000
00100000
00000000
00000000
00000000
00011000
00000000
00000000
00000000
00011000
00000000
00000000
00000000
,
00000100
00000010
00000100
00000000
00000010
00000000
00000000
00000000
00001001
00000000
00000000
00000000
00001001
00000000
00000000
00000000
,
00000001
00000010
00000001
00000100
00000010
00001000
00000100
00001000
,
00010000
01000000
00100000
10000000
01000000
00100000
00010000
10000000
,
20020000
00000000
00000000
30030000
,
10000000
10000000
00100000
00100000
10000000
10000000
00100000
00100000
,
00000000
10000000
01000000
00100000
00000000
00001000
00010000
00000000
,
00000100
00000100
00000010
00000010
00000100
00000100
00000010
00000010
,
00000000
00000001
00000100
00000010
00000000
00001000
00010000
00000000
,
01000000
00100000
01000000
00100000
10000000
01000000
00100000
00001000
,
00000000
00010000
00000010
00000100
00000000
00000001
00000100
00000001
,
00001000
00000000
00000100
00000000
00000010
00000000
00000001
00000101
,
00000000
00000110
00000000
00020010
00000000
00000000
00031000
00000000
,
01100000
00000000
10000000
00000000
00100000
00000000
01000000
01001000
,
00000000
00011000
00000000
00010000
00000010
00000100
00000110
00000000
,
00001002
00000023
00000032
00000203
,
00000320
00020030
00032000
00203000
,
02300000
00000000
00000000
10000000
20000000
00000000
33000000
00000000
,
10010000
00000000
00000000
00000000
01000000
01000000
01000000
00000000
,
00100000
01000000
00100000
00000000
01000000
00000000
01000000
00000000
00001000
00000000
00001000
00000000
00010000
00000000
00010000
00000000
,
00000100
00000010
00000000
00000001
00000100
00000100
00000010
00000010
;

//---------------dance-double - ----------------
#NOTES:
     dance-double:
     :
     Challenge:
     13:
     0.679,0.749,0.401,0.130,0.158:
00000000
00000000
00000000
00000000
,
00000000
00000000
00000000
00000000
,
00000000
00000000
00000000
00000000
,
11000000
01100000
00101000
00101000
,
00011000
00010010
00000110
00000110
,
00000012
00000000
00000000
00001000
00002000
00000000
00003003
00000000
,
00001001
00000000
00000000
00000000
00000000
00000000
00000000
00000000
00000010
00000100
00000010
00000100
00000010
00000000
00000000
00000000
,
00000100
00000001
00000100
00000001
00000010
00000100
00010000
00001000
,
00200000
00000000
01000000
01300000
00000000
10000000
01000000
00100000
,
00001000
00010000
00001000
00010000
00000010
00000100
00000001
00000010
,
00000200
00000000
00010000
00010300
00000000
00001000
01000000
00100000
,
10000000
00000000
10000000
00000000
10000000
01000000
00100000
00010000
,
00001000
00001000
00000010
00000010
00000000
00000100
00000001
00000010
,
00000100
00000000
00000100
00000000
00010100
00000000
00001000
00011000
,
00000000
00000000
00010000
00000000
00000000
00000000
01000000
00100000
01000000
00000000
00100000
00000000
00100000
00000000
00100000
00000000
,
10000000
01000000
00100000
00001000
00000000
00010000
00000010
00000100
,
00000010
00000000
00010000
00000000
00000100
00000000
00000010
00000000
00000001
00000000
00000100
00000000
00000000
00000000
00000010
00000100
,
00000010
00000100
00000001
00000010
00000100
00010000
00000000
00001000
,
01000000
00100000
01000000
00001000
00100000
01000000
00000000
10000000
,
00001000
01000000
00001000
00010000
00000100
00000010
00000100
00010000
,
00000010
00000000
00000100
00000000
00000001
00000000
00000010
00000000
00000100
00000000
00010000
00000000
00001000
00000000
01000000
00100000
,
01000000
00100000
00000000
10000000
01000000
00100000
00000000
00001000
,
00010000
00000100
00000010
00000100
00010000
00000001
00000000
00000010
,
00000100
00000000
00010000
00000000
00001000
00000000
01000000
00100000
01000000
00000000
00100000
00000000
10000000
00000000
00010000
00000000
,
10010000
10010000
10010000
00000000
,
00100000
00100000
01000000
01000000
00001000
00010000
00000100
00000001
,
00000000
00000100
00010000
00000010
00000000
00000100
00000010
00000100
,
00000001
00000001
00000010
00000010
00000001
00000100
00000010
00010000
,
00000000
00000000
00001000
00000000
01000000
00000000
00100000
00000000
00000000
00000000
10000000
00010000
10000000
00000000
00010000
00000000
,
10000000
10000000
00100000
00100000
10000000
00100000
01000000
00001000
,
00010000
00000100
00000001
00000100
00000000
00010000
00000010
00000100
,
00000002
00000000
00000023
00000000
00000230
00000000
00010300
00001000
,
00000000
00000000
00001000
00000000
01000000
00000000
00100000
00000000
10000000
00010000
10000000
00010000
10000000
00000000
00000000
00000000
,
01000000
01000000
10000000
10000000
00100000
01000000
00010000
00100000
,
00000000
00010000
00001000
00000010
00000000
00000100
00000010
00000100
,
00000001
00000001
00000010
00000010
00000100
00010000
00001000
01000000
,
00000000
00000000
00100000
00000000
10000000
00000000
00010000
00000000
00000000
00000000
00100000
01000000
00100000
00000000
01000000
00000000
,
00001000
00001000
00010000
00010000
00000010
00000001
00000010
00010000
,
00000100
00000010
00000001
00001000
00000000
00000010
00010000
00001000
,
01001000
00000000
01000000
00000000
01100000
00000000
10000000
11000000
,
00000000
01000000
00000000
01200000
00000000
00001000
00301000
00000000
,
00011000
00000010
00000110
00000100
,
00001001
00000000
00000000
00000000
00001001
00000000
00000000
00000000
00000010
00000100
00000010
00000100
00000010
00000000
00000000
00000000
,
00000110
00000000
00000000
00000000
00000000
00000000
00010000
00001000
01000000
00000000
01000000
00000000
01000000
00000000
00000000
00000000
,
00100000
10000000
00100000
10000000
00010000
00100000
00010000
00100000
,
00001000
00010000
00001000
00010000
00000100
00000001
00000100
00010000
,
00000010
00000100
00000010
00000100
00000001
00000010
00000001
00000010
,
00000100
00010000
00000100
00010000
00001000
00100000
10000000
00100000
,
00001000
00010000
00001000
00000000
00010000
00000000
00010000
00000000
00001000
01000000
00001000
00000000
10000000
01000000
10000000
00000000
,
00100000
01000000
00100000
00000000
01000000
00000000
01000000
00000000
00010000
00001000
00010000
00000000
00001000
00000100
00001000
00000000
,
00000010
00000100
00000010
00000000
00000100
00000000
00000100
00000000
00000001
00000010
00000001
00000000
00000100
00000010
00000100
00000000
,
00000010
00010000
00000010
00000000
00010000
00000000
00010000
00000000
00001000
00100000
00001000
00000000
00100000
01000000
00100000
00000000
,
01000000
10000000
01000000
00000000
10000000
00010000
10000000
00000000
00100000
01000000
00100000
00000000
01000000
00001000
01000000
00000000
,
02002000
00000000
00000000
03003000
,
00010000
00010000
00000010
00000010
00010000
00010000
00000100
00000010
,
00000000
00000001
00000010
00000100
00000000
00010000
00001000
00010000
,
00001000
00001000
00100000
00100000
00001000
00001000
00100000
01000000
,
21000000
00000000
00010000
30010000
00000000
00100000
01000000
00100000
,
10000000
10000000
01000000
01000000
00100000
00001000
00010000
00000100
,
00000001
00000100
00010000
00000010
00000000
00000100
00000001
00000010
,
00000110
00000000
00000100
00000000
00000100
00000000
00010000
00011000
,
00000000
00001000
00000000
02001000
00000000
00100000
03100000
00000000
,
10010000
01000000
01100000
00100000
,
00011000
00000000
00000000
00000000
00011000
00000000
00000000
00000000
00010000
00001000
00010000
00001000
00010000
00000000
00000000
00000000
,
00010010
00000110
00000011
00000011
,
00000110
00010100
00011000
00011000
,
02001000
00000000
00000000
00100000
00200000
00000000
03300000
00000000
,
01100000
00000000
00000000
00000000
00000000
00000000
00000000
00000000
10000000
00010000
10000000
00010000
10000000
00000000
00000000
00000000
,
00100000
01000000
00100000
00000000
01000000
00000000
01000000
00000000
00001000
00000000
00001000
00000000
00010000
00000000
00010000
00000000
,
00000100
00000010
00000000
00000001
00000010
00000100
00010000
00010000
;
