#TITLE:NORTH;
#SUBTITLE:;
#ARTIST:WALL5;
#TITLETRANSLIT:;
#SUBTITLETRANSLIT:;
#ARTISTTRANSLIT:;
#CREDIT:DigiMindAxel;
#BANNER:NORTH.png;
#BACKGROUND:NORTH-bg.png;
#LYRICSPATH:;
#CDTITLE:beatmania.png;
#MUSIC:NORTH.ogg;
#METERTYPE:DDR X;
#OFFSET:-0.297;
#SAMPLESTART:29.832;
#SAMPLELENGTH:12.000;
#SELECTABLE:YES;
#BPMS:0.000=138.000,32.000=69.000,48.000=138.000,145.000=69.000,161.000=138.000;
#STOPS:48.000=1.3043478
;
#BGCHANGES:-0.500=NORTH.avi=1.000=1=1=0,
99999=-nosongbg-=1.000=0=0=0 // don't automatically add -songbackground-
;

//---------------dance-single - ----------------
#NOTES:
     dance-single:
     :
     Easy:
     5:
     0.204,0.233,0.058,0.271,0.000: // measure 1
0000
0000
0000
0000
,  // measure 2
0000
0000
0000
0000
,  // measure 3
0000
0000
0000
0000
,  // measure 4
0000
0000
0000
0000
,  // measure 5
0001
1000
0002
0000
,  // measure 6
0103
0010
0200
0000
,  // measure 7
0301
1000
0002
0000
,  // measure 8
2003
0000
0000
3001
,  // measure 9
0200
0000
0302
0000
,  // measure 10
2003
0000
3002
0000
,  // measure 11
0203
0000
0302
0000
,  // measure 12
1003
0100
0010
0001
,  // measure 13
1001
1000
0000
0001
,  // measure 14
0000
0100
0000
0010
,  // measure 15
0000
1000
0000
0100
,  // measure 16
0000
0010
0000
0001
,  // measure 17
0000
1000
0000
0001
,  // measure 18
0000
0100
0000
0010
,  // measure 19
0000
1000
0000
1000
,  // measure 20
0000
0001
2000
0000
,  // measure 21
3001
0001
1000
1000
,  // measure 22
0001
0010
0200
0000
,  // measure 23
1300
1000
0001
0001
,  // measure 24
1000
0100
0020
0000
,  // measure 25
0031
0001
0100
0100
,  // measure 26
0010
1000
0002
0000
,  // measure 27
1003
1000
0010
0010
,  // measure 28
0100
0001
2000
0000
,  // measure 29
3000
2002
0000
0000
,  // measure 30
3003
0000
1000
0001
0000
0000
0000
0000
,  // measure 31
0100
0220
0000
0000
,  // measure 32
0330
1001
0100
0010
,  // measure 33
0001
0000
1000
0001
0000
0000
0000
1000
,  // measure 34
0000
2002
0000
0000
,  // measure 35
3003
0002
0000
0000
,  // measure 36
0000
0103
0020
0000
,  // measure 37
0000
0230
0000
0302
,  // measure 38
0000
2003
0000
3020
,  // measure 39
0000
0130
0001
0010
,  // measure 40
0100
1000
0001
0200
,  // measure 41
0000
0310
0000
0010
,  // measure 42
0000
1000
0000
1000
,  // measure 43
0000
0001
1000
0001
,  // measure 44
0000
1000
0001
1000
,  // measure 45
0000
0010
0000
0010
,  // measure 46
0000
0100
0000
0100
,  // measure 47
0000
0001
0010
0100
,  // measure 48
0000
1000
0100
0010
,  // measure 49
0000
1001
0000
0000
;

//---------------dance-single - ----------------
#NOTES:
     dance-single:
     :
     Hard:
     12:
     0.507,0.583,0.106,0.010,0.507: // measure 1
0000
0000
0000
0000
,  // measure 2
0000
0000
0000
0000
,  // measure 3
0000
0000
0000
0000
,  // measure 4
0000
0000
0000
0000
,  // measure 5
0001
0100
0001
0000
0001
1000
0100
0000
,  // measure 6
1000
0100
0010
0001
1000
0010
1000
0000
,  // measure 7
1000
0010
1000
0000
1000
0001
0010
0000
,  // measure 8
0001
0010
0100
1000
0001
0000
1001
0000
,  // measure 9
1000
0000
0000
1000
0000
0000
0000
0000
0001
0000
0000
0001
0000
0000
0000
0000
1000
0000
0000
1000
0000
0000
0000
0000
0001
0000
0000
0001
0000
0000
0000
0000
,  // measure 10
1000
0000
0000
0010
0000
0000
0000
0000
0100
0000
0000
0001
0000
0000
0000
0000
0001
0000
0000
0100
0000
0000
0000
0000
0010
0000
0000
1000
0000
0000
0000
0000
,  // measure 11
0010
0000
0000
0010
0000
0000
0000
0000
0100
0000
0000
0100
0000
0000
0000
0000
0010
0000
0000
0010
0000
0000
0000
0000
0100
0000
0000
0100
0000
0000
0000
0000
,  // measure 12
0001
0000
0000
0010
0000
0000
0000
0000
0100
0000
0000
1000
0000
0000
0000
0000
1000
0000
0000
0100
0000
0000
0000
0000
0010
0000
0000
0001
0000
0000
1000
0000
,  // measure 13
1001
0000
0000
0000
0001
0000
0000
0001
0000
0000
0001
0000
0010
0000
0000
0010
,  // measure 14
0000
0000
0010
0000
0100
0000
0000
0100
0000
0000
0100
0000
1000
0000
0000
1000
,  // measure 15
0000
1000
0001
0010
0100
1000
0010
0001
,  // measure 16
0010
0000
1000
0010
0100
0001
1000
0100
,  // measure 17
0010
0000
0000
0000
0100
0000
0000
0100
0000
0000
0100
0000
1000
0000
0000
1000
,  // measure 18
0000
0000
1000
0000
0010
0000
0000
0010
0000
0000
0010
0000
0100
0000
0000
0100
,  // measure 19
0000
0100
0001
0100
0010
1000
0100
0001
,  // measure 20
0100
0000
1000
0000
0001
0000
0000
0000
1000
0001
1000
0001
1000
0001
1000
0001
,  // measure 21
1000
0000
1001
0000
0001
0010
1000
0000
,  // measure 22
0010
0000
0001
0000
1000
0000
0010
1000
0010
0000
0100
0000
0001
0000
0000
0000
,  // measure 23
1000
0010
0001
0000
0010
1000
0001
0000
,  // measure 24
0010
0001
1000
0100
0010
0001
1000
0000
,  // measure 25
0001
0100
1000
0000
0100
0001
1000
0000
,  // measure 26
0100
0000
0010
0000
0001
0000
0100
0001
0100
0000
0010
0000
1000
0000
0000
0000
,  // measure 27
0001
0100
1000
0000
0100
0001
1000
0000
,  // measure 28
0010
1000
0001
0010
0100
1000
0001
0010
,  // measure 29
0001
0000
0000
0000
1001
0000
0000
0000
1000
0001
1000
0001
0100
0001
0100
0000
,  // measure 30
0010
0000
0000
0000
1000
0000
1000
0000
0100
0010
0100
0010
0100
0010
0100
0000
,  // measure 31
1000
0000
0001
1000
0001
0000
0010
0000
1000
0000
0010
0000
0001
0000
0010
0000
,  // measure 32
1000
0000
0010
0000
0001
0000
1000
0100
1000
0100
1000
0100
1000
0100
0000
1000
,  // measure 33
0001
0000
0000
0000
1000
0000
1000
0000
0001
1000
0001
1000
0100
0010
0100
0000
,  // measure 34
1000
0000
0000
0000
1010
0000
0000
0110
0000
0000
0101
0000
0000
1001
0000
0000
,  // measure 35
1001
0000
0001
0100
1000
0100
0001
0100
,  // measure 36
1000
0000
0100
0000
0001
1000
0001
0000
0010
0001
0010
0001
0010
0000
0100
0000
,  // measure 37
1000
0000
0000
0000
0001
0000
0000
0000
1001
0000
0000
1000
0000
0000
1000
0000
0001
0000
0000
0001
0000
0000
0001
0000
0010
0000
0000
0010
0000
0000
0010
0000
,  // measure 38
0100
0000
0000
0100
0000
0000
0100
0000
1000
0000
0000
1000
0000
0000
1000
0000
0001
0000
0000
0001
0000
0000
0001
0000
0100
0000
0000
0100
0000
0000
0100
0000
,  // measure 39
0010
0000
0000
0010
0000
0000
0010
0000
1000
0000
0000
0100
0000
0000
1000
0000
0001
0000
0000
0010
0000
0000
0001
0000
1000
0000
0000
0010
0000
0000
1000
0000
,  // measure 40
0001
0000
0000
0010
0000
0000
0001
0000
1000
0000
0000
0010
0000
0000
0100
0000
0001
0000
0000
0100
0000
0000
0010
0000
2000
0000
0000
0000
0000
0000
0000
0000
,  // measure 41
0000
0000
0000
0000
3010
0000
0100
0000
0010
1000
0000
0000
0010
0000
0100
0000
,  // measure 42
0010
1000
0000
1000
0001
0000
0010
0000
0001
1000
0000
0000
0001
0000
0010
0000
,  // measure 43
0001
1000
0000
1000
0010
0000
0000
0100
0001
0000
0000
0001
1000
0000
0000
1000
,  // measure 44
0100
0000
0000
0100
0001
0000
0000
0001
0100
0000
0000
0100
1000
0000
0000
1000
,  // measure 45
0001
0000
0000
0000
0100
0000
0010
0000
0100
0001
0000
0000
0100
0000
0010
0000
,  // measure 46
0100
0001
0000
0001
1000
0000
0100
0000
1000
0001
0000
0000
1000
0000
0100
0000
,  // measure 47
1000
0001
0000
0001
0100
0000
0000
0010
1000
0000
0000
1000
0100
0000
0000
0100
,  // measure 48
0001
0000
0000
0001
0100
0000
0000
0000
1000
0001
1000
0001
1000
0001
1000
0000
,  // measure 49
0100
1001
0000
0000
;

//---------------dance-single - ----------------
#NOTES:
     dance-single:
     :
     Medium:
     8:
     0.395,0.396,0.155,0.174,0.010: // measure 1
0000
0000
0000
0000
,  // measure 2
0000
0000
0000
0000
,  // measure 3
0000
0000
0000
0000
,  // measure 4
0000
0000
0000
0000
,  // measure 5
1000
0000
1000
0000
1000
0001
0100
0000
,  // measure 6
0001
0100
2000
0000
,  // measure 7
3001
0000
0001
0000
0001
1000
0100
0000
,  // measure 8
1000
0100
0001
0100
1000
0000
1001
0000
,  // measure 9
0020
0230
0320
0230
,  // measure 10
0302
1000
1003
0200
,  // measure 11
0320
0230
0320
2030
,  // measure 12
0001
3002
0100
0103
,  // measure 13
1001
0000
0100
0001
1000
0000
0100
1000
,  // measure 14
0100
0000
0010
0001
0010
0000
0001
0100
,  // measure 15
0010
0000
1000
0100
0010
0001
0100
0010
,  // measure 16
1000
0000
1000
0100
0010
0001
0100
0010
,  // measure 17
1000
0000
0010
1000
0001
0000
0010
0001
,  // measure 18
0010
0000
0100
1000
0100
0000
1000
0010
,  // measure 19
0100
0000
0001
0010
0100
1000
0010
0100
,  // measure 20
0001
0000
1000
1000
0002
0000
0000
0000
,  // measure 21
0103
0000
0101
0000
1000
0100
0010
0000
,  // measure 22
0100
0010
0001
1000
1000
0001
0100
0000
,  // measure 23
0001
0010
0100
0000
0010
0100
1000
0000
,  // measure 24
0100
0010
0001
1000
1000
0001
0100
0000
,  // measure 25
0010
0000
1010
0000
0001
0010
0100
0000
,  // measure 26
0010
0100
1000
0001
0001
1000
0010
0000
,  // measure 27
1000
0100
0010
0000
0100
0010
0001
0000
,  // measure 28
0010
0100
1000
0001
0001
1000
0010
0000
,  // measure 29
0000
0000
0110
0000
0001
0010
0100
1000
,  // measure 30
0001
0000
0100
0100
0010
0000
1000
0000
,  // measure 31
1001
1100
1100
0011
,  // measure 32
0011
0000
0110
0000
1000
0100
0010
0001
,  // measure 33
1000
0000
0100
1000
0001
0000
0100
0001
,  // measure 34
1000
0000
0000
0000
0010
0000
0000
0010
0000
0000
0010
0000
0000
0010
0000
0000
,  // measure 35
0010
0000
0100
0001
1000
0000
0100
1000
,  // measure 36
0100
0000
0110
0000
0001
0010
0100
1000
,  // measure 37
0001
1002
0023
0230
,  // measure 38
2300
0001
3002
0100
,  // measure 39
0103
0000
0010
1000
0001
0010
0100
1000
,  // measure 40
0001
0010
0001
1000
0100
0010
0100
0000
,  // measure 41
0000
0000
1100
0000
0010
0001
1000
0000
,  // measure 42
0100
0010
0001
0000
0100
0001
1000
0000
,  // measure 43
0100
1000
0001
0010
0100
1000
0010
0100
,  // measure 44
0001
0000
0001
0010
0100
1000
0010
0100
,  // measure 45
0001
0000
0011
0000
0100
1000
0001
0000
,  // measure 46
0010
0100
1000
0000
0010
1000
0001
0000
,  // measure 47
0010
0001
1000
0100
0010
0001
1000
0010
,  // measure 48
0100
0001
1000
0000
0100
0010
0001
1000
,  // measure 49
0100
1001
0000
0000
;

//---------------dance-single - ----------------
#NOTES:
     dance-single:
     :
     Beginner:
     1:
     0.054,0.093,0.039,0.000,0.000: // measure 1
0000
0000
0000
0000
,  // measure 2
0000
0000
0000
0000
,  // measure 3
0000
0000
0000
0000
,  // measure 4
0000
0000
0000
0000
,  // measure 5
0001
0000
0000
0000
,  // measure 6
0001
0000
0000
0000
,  // measure 7
1000
0000
0000
0000
,  // measure 8
1000
0000
0000
1001
,  // measure 9
0000
0000
0000
0000
,  // measure 10
0000
0000
0000
0000
,  // measure 11
0100
0000
0000
0000
,  // measure 12
0010
0000
0000
0000
,  // measure 13
0000
0001
0000
0000
,  // measure 14
0000
0000
0000
0000
,  // measure 15
0000
1000
0000
0000
,  // measure 16
0000
0000
0000
0000
,  // measure 17
0000
0001
0000
0000
,  // measure 18
0000
0000
0000
0000
,  // measure 19
0000
0100
0000
0000
,  // measure 20
0000
0000
0000
0000
,  // measure 21
0000
0010
0000
0000
,  // measure 22
0000
0100
0000
0000
,  // measure 23
0000
0001
0000
0000
,  // measure 24
0000
1000
0000
0000
,  // measure 25
0000
0100
0000
0000
,  // measure 26
0000
1000
0000
0000
,  // measure 27
0000
0010
0000
0000
,  // measure 28
0000
0100
0000
0000
,  // measure 29
0000
1001
0000
0000
,  // measure 30
0000
0000
0000
0000
,  // measure 31
0000
1000
0000
0000
,  // measure 32
0000
0000
0000
0000
,  // measure 33
0000
0001
0000
0000
,  // measure 34
0000
0000
0000
0000
,  // measure 35
0000
0100
0000
0000
,  // measure 36
0000
0100
0000
0000
,  // measure 37
0000
1001
0000
0000
,  // measure 38
0000
0000
0000
0000
,  // measure 39
0000
1000
0000
0000
,  // measure 40
0000
0001
0000
1000
,  // measure 41
0000
0001
0000
0000
,  // measure 42
0000
0000
0000
0000
,  // measure 43
0000
0100
0000
0000
,  // measure 44
0000
0000
0000
0000
,  // measure 45
0000
0010
0000
0000
,  // measure 46
0000
0000
0000
0000
,  // measure 47
0000
1000
0000
0000
,  // measure 48
0000
1000
0000
0001
,  // measure 49
0000
1001
0000
0000
;

//---------------dance-single - ----------------
#NOTES:
     dance-single:
     :
     Challenge:
     13:
     0.563,0.699,0.068,0.242,0.618: // measure 1
0000
0000
0000
0000
,  // measure 2
0000
0000
0000
0000
,  // measure 3
0000
0000
0000
0000
,  // measure 4
0000
0000
0000
0000
,  // measure 5
0001
0000
0000
0000
0100
0000
0000
1000
0100
0000
0001
0000
1000
0000
0000
0000
,  // measure 6
0001
0010
0100
1000
0020
0000
1030
0000
,  // measure 7
0001
0000
0000
0000
0010
0000
0000
1000
0010
0000
0001
0000
1000
0000
0000
0000
,  // measure 8
0010
0100
0001
1000
0100
0000
1100
0000
,  // measure 9
1002
2003
3200
0302
,  // measure 10
0103
0000
0000
1000
0000
0000
1000
0000
0010
0000
0000
0100
0000
0000
0100
0000
0001
0000
0000
0001
0000
0000
0010
0000
0100
0000
0000
0100
0000
0000
1000
0000
,  // measure 11
0020
0000
0000
0100
0000
0000
0130
0000
0002
0000
0000
0010
0000
0000
0013
0000
0200
0000
0000
1000
0000
0000
1300
0000
0200
0000
0000
0010
0000
0000
0310
0000
,  // measure 12
0001
0000
0000
0100
0000
0000
0001
0000
1000
0000
0000
0010
0000
0000
1000
0000
0001
0000
0000
0010
0000
0000
0100
0000
0010
0000
0000
0001
0000
0000
1000
0000
,  // measure 13
1001
0000
0000
0000
1000
0000
0000
0100
0000
0000
1000
0000
0001
0000
0000
0010
,  // measure 14
0000
0000
0100
0000
0010
0000
0000
0001
0000
0000
1000
0000
0100
0000
0000
0010
,  // measure 15
0000
0000
0100
0000
2000
0000
0000
0100
0000
0000
3100
0000
0020
0000
0000
0001
,  // measure 16
0000
0000
0031
0000
0200
0000
0000
0010
0000
0000
0310
0000
2000
0000
0000
0001
,  // measure 17
0000
0000
3001
0000
1000
0000
0000
0001
0000
0000
0010
0000
1000
0000
0000
0010
,  // measure 18
0000
0000
0001
0000
0100
0000
0000
1000
0000
0000
0100
0000
0001
0000
0000
0100
,  // measure 19
0000
0000
0010
0000
1000
0001
0000
0010
0000
0001
1000
0000
0001
1000
0000
0100
,  // measure 20
0000
1000
0001
0000
0100
0010
0000
0000
1000
0001
1000
0001
1000
0001
1000
0001
,  // measure 21
1000
0000
0001
0000
0001
1000
0100
0000
,  // measure 22
0100
0000
1000
0000
0001
0000
0100
0010
0100
0000
0001
0000
1000
0000
0000
0000
,  // measure 23
0100
1000
0010
0000
0010
1000
0100
0000
,  // measure 24
0100
0000
1000
0000
0001
0000
0100
0010
0100
0000
0001
0000
2000
0000
0000
0000
,  // measure 25
3010
1000
0001
0000
0001
1000
0010
0000
,  // measure 26
0010
0000
1000
0000
0001
0000
0010
0100
0010
0000
0001
0000
0100
0000
0000
0000
,  // measure 27
0010
1000
0100
0000
0100
1000
0001
0000
,  // measure 28
0001
0000
0100
0000
0010
0000
1000
0001
1000
0000
0100
0000
0010
0000
0000
0000
,  // measure 29
0110
0000
0000
0000
0010
0001
0010
0000
0001
0010
0001
1000
0100
0010
0001
0000
,  // measure 30
1000
0000
0100
1000
0010
0100
0010
0000
1000
0001
1000
0001
1000
0001
0010
0100
,  // measure 31
1000
0000
0010
0100
0010
0000
1000
0000
1000
0000
0100
0000
0100
0000
0010
0000
,  // measure 32
0010
0000
0001
0000
1001
0000
1000
0010
1000
0001
0010
0100
1000
0010
0000
0100
,  // measure 33
0001
0000
0010
0100
1000
0010
1000
0000
0010
1000
0010
1000
0001
0100
0001
0010
,  // measure 34
0100
1000
0100
0000
1000
0000
0001
0100
0000
0100
0010
0000
1000
0010
0000
0010
,  // measure 35
0100
0000
0001
0000
1000
0000
0100
1000
0100
0000
0010
0001
0010
0001
1000
0000
,  // measure 36
0010
0000
0000
0000
0100
0010
0100
0000
0001
1000
0001
1000
0001
0100
0010
1000
,  // measure 37
0010
0100
0001
1000
0200
0000
0000
0000
2300
0000
0000
0000
3200
0000
0000
0000
,  // measure 38
0302
0203
2300
3002
,  // measure 39
2003
0000
3001
1000
0010
0001
0010
1000
,  // measure 40
0001
0100
1000
0100
0010
1000
0002
0000
,  // measure 41
0000
0000
0000
0000
1003
0001
0000
0100
0000
0001
1000
0000
0001
1000
0000
0100
,  // measure 42
0000
0010
0001
0000
1000
0001
0000
0010
0000
0001
1000
0000
0001
1000
0000
0010
,  // measure 43
0000
0100
0001
0000
1000
0000
0100
1000
0100
0000
0010
0100
0010
0000
0001
0010
,  // measure 44
0001
0000
1000
0001
2000
0000
0000
0010
0000
0000
3010
0000
0200
0000
0000
0001
,  // measure 45
0000
0000
0301
0000
1000
0001
0000
0010
0000
0001
1000
0000
0100
1000
0000
0010
,  // measure 46
0000
0100
0001
0000
1000
0001
0000
0100
0000
0001
1000
0000
0001
1000
0000
0100
,  // measure 47
0000
0010
0100
0000
1000
0000
0001
0100
0001
0000
0100
0010
0100
0000
0010
1000
,  // measure 48
0010
0000
1000
0001
1000
0001
0000
0000
1000
0010
1000
0010
1000
0100
0010
0000
,  // measure 49
0011
1001
0000
0000
;
