#TITLE:NOBUNAGA;
#SUBTITLE:;
#ARTIST:本能寺尊之;
#TITLETRANSLIT:;
#SUBTITLETRANSLIT:;
#ARTISTTRANSLIT:TAKAYUKI HONNOUJI;
#CREDIT:DigiMindAxel;
#BANNER:NOBUNAGA.png;
#BACKGROUND:NOBUNAGA-bg.png;
#LYRICSPATH:;
#CDTITLE:pop'n music.png;
#MUSIC:NOBUNAGA.ogg;
#METERTYPE:DDR X;
#OFFSET:-7.515;
#SAMPLESTART:26.680;
#SAMPLELENGTH:12.000;
#SELECTABLE:YES;
#BPMS:0.000=150.000;
#STOPS:;
#BGCHANGES:;

//---------------dance-single - ----------------
#NOTES:
     dance-single:
     :
     Easy:
     5:
     0.189,0.272,0.008,0.176,0.000: // measure 1
2000
0000
0000
0000
,  // measure 2
3002
0000
0000
0000
,  // measure 3
0203
0000
0000
0000
,  // measure 4
0320
0000
0000
0000
,  // measure 5
1030
0001
0010
0100
,  // measure 6
1000
0000
0001
0100
,  // measure 7
0001
0000
1000
0100
,  // measure 8
1000
0000
0001
1000
,  // measure 9
0001
0000
0010
0001
,  // measure 10
0010
0000
0001
1000
,  // measure 11
0001
0000
1000
0100
,  // measure 12
2000
0000
0000
0000
,  // measure 13
3001
0010
0100
0000
,  // measure 14
0010
0100
1000
0000
,  // measure 15
0001
0010
0100
0000
,  // measure 16
0010
0100
1000
0000
,  // measure 17
0001
0100
0010
0000
,  // measure 18
0100
0010
1000
0000
,  // measure 19
0010
0100
0001
0100
,  // measure 20
0010
0010
0010
0010
,  // measure 21
0110
0000
0000
0000
,  // measure 22
0000
0000
0000
0000
,  // measure 23
2000
0000
0000
0000
,  // measure 24
0000
0000
0000
0000
,  // measure 25
3200
0000
0000
0000
,  // measure 26
0000
0000
0000
0000
,  // measure 27
0000
0000
0000
0000
,  // measure 28
0300
0000
0000
0000
,  // measure 29
0020
0000
0000
0000
,  // measure 30
0032
0000
0000
0000
,  // measure 31
2003
0000
0000
0000
,  // measure 32
0000
0000
0000
0000
,  // measure 33
3020
0000
0000
0000
,  // measure 34
0000
0000
0030
0000
,  // measure 35
0200
0000
0000
0000
,  // measure 36
0000
0000
0000
0000
,  // measure 37
0302
0000
0000
0000
,  // measure 38
2003
0000
0000
0000
,  // measure 39
3100
0010
0000
0010
,  // measure 40
0000
0001
0000
0001
,  // measure 41
0000
0100
0000
0100
,  // measure 42
0000
0010
0000
0010
,  // measure 43
1000
0001
0000
0001
,  // measure 44
0000
0010
0000
0010
,  // measure 45
0000
0100
0000
0100
,  // measure 46
0000
1000
0000
1000
,  // measure 47
0001
0100
0001
1000
,  // measure 48
0100
0000
0020
0000
,  // measure 49
0031
0000
0100
0000
,  // measure 50
0010
1000
0100
0010
,  // measure 51
0001
0000
0100
0000
,  // measure 52
0010
0100
0001
0010
,  // measure 53
0100
0000
0010
0000
,  // measure 54
0001
1000
0100
1000
,  // measure 55
0010
0000
0100
0000
,  // measure 56
0001
0100
0010
0100
,  // measure 57
0001
0000
2000
0000
,  // measure 58
3200
0000
0320
0000
,  // measure 59
0032
0000
0000
1000
,  // measure 60
2003
0000
0000
0000
,  // measure 61
3002
0000
0100
0000
,  // measure 62
0100
0000
0100
0000
,  // measure 63
0203
0000
0010
0000
,  // measure 64
0010
0000
0310
1000
,  // measure 65
0010
0000
0100
0001
,  // measure 66
0010
0100
1000
0001
,  // measure 67
1000
0000
0100
1000
,  // measure 68
0010
0100
0001
1000
,  // measure 69
0001
0000
0000
0000
;

//---------------dance-single - ----------------
#NOTES:
     dance-single:
     :
     Medium:
     8:
     0.372,0.436,0.168,0.136,0.000:
1000
0010
1000
0001
,
1000
0010
1000
0001
,
1000
0100
1000
0001
,
1000
0000
0100
0000
1000
0001
1000
0001
,
1000
0000
0010
0000
0100
0000
0001
1000
,
0001
0000
0010
0000
0100
0000
1000
0001
,
1000
0000
0100
0000
0010
0000
0001
1000
,
0001
0000
0100
0000
0010
0000
1000
0001
,
1000
0000
0010
0000
0100
0000
0001
1000
,
0001
0000
0100
0000
0010
0000
1000
0001
,
1000
0000
0100
0000
0010
0000
0001
1000
,
0001
0000
0000
0000
,
1001
1000
1100
0010
,
0011
0001
1001
0010
,
1100
1000
1001
0100
,
0011
0000
0001
0000
1000
0001
0100
0001
,
1000
0000
0100
0000
0010
0000
0001
1000
,
0010
0000
0100
0000
0001
0000
1000
0100
,
0010
0011
1100
0011
,
1100
0000
1000
0000
0100
0010
0100
0010
,
2002
0000
0000
0000
,
0000
0000
0000
3003
,
2000
0000
0000
0000
,
0000
0000
0000
0000
,
3200
0000
0010
0000
,
0010
0000
0010
0000
,
0320
0000
0001
0000
,
0001
0000
0001
0000
,
0032
0000
0203
0000
,
0320
0000
2030
0000
,
3002
0000
0010
0000
,
0010
0000
0010
0000
,
0023
0000
0100
0000
,
0100
0000
0100
0000
,
0230
0000
1000
0000
,
1000
0000
1000
0000
,
2300
0000
3020
0000
,
0230
0000
0302
0000
,
1003
0000
1001
0000
0000
0001
0010
0000
,
0100
0000
0110
0000
0000
0010
1000
0000
,
0100
0000
0110
0000
0000
0010
0001
0000
,
1000
0000
1010
0000
0000
0010
0100
0000
,
1001
0000
1100
0000
0000
0100
0010
0000
,
0001
0000
0101
0000
0000
0100
0010
0000
,
1000
0000
1010
0000
0010
0100
0010
0000
,
0100
0000
0101
0000
0001
1000
0001
0000
,
0100
0100
0100
0100
,
0100
0010
0100
0010
2000
0000
0000
0000
,
3001
0010
0100
0000
0010
0001
0100
0000
,
0010
1000
0100
0000
1000
0100
0010
0000
,
0001
1000
0010
0000
0100
0001
1000
0000
,
0001
0010
0100
0000
0010
0100
1000
0000
,
0001
1000
0100
0000
0010
0001
1000
0000
,
0100
0010
0001
0000
1000
0100
0010
0000
,
0100
1000
0010
0000
0100
0001
0010
0000
,
0001
0010
0100
0000
1000
0010
0100
0001
,
0010
0000
0010
0000
0100
1000
0010
0100
,
0001
0000
0001
0000
0010
0100
1000
0100
,
0010
0000
0010
0000
0001
1000
0100
1000
,
0010
0000
0010
0000
0100
0001
0010
0100
,
1000
0000
1000
0000
0010
0100
0001
0100
,
0010
0000
0010
0000
0100
0001
0010
0100
,
1000
0000
1000
0000
0010
0100
0001
0010
,
0001
0000
0001
0000
0010
0100
1000
0100
,
0010
0000
0001
0000
0100
0010
1000
0010
,
0100
0000
0001
0000
0010
0100
1000
0100
,
0010
0000
0001
0000
1000
0001
0100
0001
,
1000
0000
0100
0000
0010
0100
1000
0100
,
0010
0000
0000
0000
;

//---------------dance-single - ----------------
#NOTES:
     dance-single:
     :
     Hard:
     12:
     0.527,0.597,0.072,0.361,0.421:
1000
0000
1000
0000
0001
0100
1000
0100
,
0001
0000
0001
0000
1000
0100
0001
0100
,
1000
0000
1000
0000
0001
0010
1000
0010
,
0001
0000
0001
0000
1000
0010
0100
0001
,
1000
0000
0100
0000
1000
0000
0000
0000
0010
0000
0100
0000
0001
1000
0000
1000
,
0001
0000
0010
0000
0001
0000
0000
0000
0100
0000
0010
0000
1000
0001
0000
0001
,
1000
0000
0100
0000
1000
0000
0000
0000
0100
0000
0010
0000
0001
1000
0000
1000
,
0001
0000
0100
0000
0001
0000
0000
0000
0010
0000
0100
0000
1000
0001
0000
0001
,
1000
0000
0010
0000
0100
0000
0000
0000
0010
0000
0100
0000
0001
1000
0000
1000
,
0001
0000
0100
0000
0001
0000
0000
0000
0010
0000
0100
0000
1000
0001
0000
0001
,
1000
0000
0010
0000
0100
0000
0000
0000
0010
0000
0100
0000
0001
1000
0000
1000
,
0002
0000
0000
0000
0000
0000
0000
1003
0000
0000
0000
0000
0000
0000
0000
0000
,
0001
0000
1000
0000
0010
0000
0100
0002
0000
0000
1003
0000
0100
0000
0001
0000
,
0100
0000
1000
0000
0010
0000
0100
0002
0000
0000
1003
0000
0010
0000
0001
0000
,
0010
0000
1000
0000
0100
0000
0010
0002
0000
0000
1003
0000
0010
0000
0001
0000
,
0010
0000
1000
0000
0100
0000
0010
0200
0000
0000
1300
0000
0010
0000
1000
0000
,
1001
0000
0001
0000
0100
0000
0010
2000
0000
0000
3001
0000
0010
0000
0001
0000
,
1001
0000
1000
0000
0010
0000
0100
0002
0000
0000
1003
0000
0100
0000
1000
0000
,
1001
0000
0000
0001
1000
0000
0000
1000
0001
0000
0000
0001
1000
0000
0000
1000
,
0001
0000
0100
0000
0010
0000
1000
0000
0001
0010
0001
0000
1000
0000
0010
1000
,
0020
0000
0000
0000
,
0000
0000
0000
0030
,
0000
2000
0000
0000
0000
0000
0000
0000
0000
0000
0000
0000
0000
0000
0000
0000
,
0000
0000
0000
0000
,
3020
0000
0230
0000
,
0320
0000
2030
0000
,
3002
0000
0023
0000
,
0230
0000
2300
0000
,
3002
0000
0023
0000
,
2030
0000
3020
0000
,
0032
0000
2003
0000
,
3200
0000
2300
0000
,
3002
0000
0203
0000
,
2300
0000
3200
0000
,
0302
0000
0023
0000
,
0230
0000
0320
0000
,
0032
0000
0203
0000
,
2300
0000
3200
0000
,
0301
0000
1000
0000
1001
0000
0000
0001
0000
0000
0100
0000
0010
0000
0100
0000
,
0001
0000
1000
0000
1100
0000
0000
0010
0000
0000
0001
0000
1000
0000
0010
0000
,
0100
0000
0001
0000
1001
0000
0000
1000
0000
0000
0001
0000
0010
0000
0100
0000
,
0010
0000
0001
0000
0101
0000
0000
0010
0000
0000
1000
0000
0001
0000
0100
0000
,
0110
0000
0010
0000
0010
0000
0000
1000
0001
0000
0010
0000
0100
0000
1000
0000
,
0010
0000
0010
0000
0010
0000
0000
0100
0001
0000
0010
0000
0100
0000
0010
0000
,
0001
0000
0001
0000
0001
0000
0000
0100
0010
0000
1000
0000
0001
0000
0100
0000
,
0001
0000
0000
1000
0200
0000
0000
0000
0310
0000
0000
0001
2000
0000
0000
0000
,
3010
0100
0010
0100
0010
0100
0010
0100
,
0001
0000
0010
0000
0100
1000
0100
1000
0002
0000
0000
0000
0000
0000
0000
0000
,
1003
0000
0000
0100
0000
0001
0000
0000
0100
0000
0000
1000
0000
0001
0000
0000
,
1000
0000
0000
0010
0000
0001
0000
0000
0010
0000
0000
1000
0000
0001
0000
0000
,
1000
0000
0000
0100
0000
0001
0000
0000
0100
0000
0000
1000
0000
0001
0000
0000
,
1000
0000
0000
0010
0000
0001
0000
0000
0010
0000
0000
1000
0000
0001
0000
0000
,
1000
0010
0000
1000
0000
0001
0000
0000
0010
0100
0000
0010
0000
0001
0000
0000
,
1000
0010
0000
1000
0000
0001
0000
0000
0010
0100
0000
0010
0000
0001
0000
0000
,
1000
0001
0000
0100
0000
0001
1000
0000
0100
1000
0000
0010
0000
1000
0100
0000
,
0010
0001
0000
1000
0000
0001
0010
0000
0100
0000
0100
0000
1000
0000
1000
0000
,
0001
0000
0010
0000
1000
0000
0010
0000
0001
1000
0001
1000
0000
0010
0000
0000
,
1000
0000
0010
0000
0001
0000
0010
0000
1000
0100
1000
0100
0000
0010
0000
0000
,
0001
0000
0100
0000
1000
0000
0100
0000
0001
1000
0001
1000
0000
0010
0000
0000
,
1000
0000
0100
0000
0001
0000
0100
0000
1000
0010
1000
0010
0000
0100
0000
0000
,
0001
1000
0001
0000
1000
0001
0000
0000
0100
0001
0100
0001
0000
1000
0000
0000
,
0100
0010
0100
0000
0010
0100
0000
0000
1000
0010
1000
0010
0000
0100
0000
0000
,
0001
0010
0001
0000
0010
0001
0000
0000
0100
0010
0100
0010
0000
1000
0000
0000
,
0010
0100
0010
0000
0100
0010
0000
0000
1000
0000
0001
0000
0100
0000
0001
0000
,
1001
0000
1000
0010
0002
0000
0013
1000
,
0200
0000
0310
0100
2000
0000
3001
0100
,
0020
0000
0100
0000
0001
0000
0130
0001
,
2000
0010
0100
3010
;

//---------------dance-single - ----------------
#NOTES:
     dance-single:
     :
     Challenge:
     15:
     0.705,0.872,0.152,0.328,0.773:
1000
0000
0010
0000
1000
0000
0001
0100
0000
0010
0000
0100
0002
0000
0000
0000
,
1003
0000
0100
0000
1000
0000
0001
0010
0000
0100
0000
0010
0002
0000
0000
0000
,
1003
0000
0100
0000
1000
0000
0001
1000
0000
0010
0000
0100
0002
0000
0000
0000
,
1003
0000
0010
0000
1000
0000
0001
0000
0100
0010
0100
0010
0100
0010
0100
0010
,
1000
0000
0001
0000
0100
0000
0001
0000
1000
0000
0001
0000
0010
0100
0010
0100
,
0010
0000
0001
0000
0100
0000
0001
0000
1000
0000
0100
0000
0010
0001
0010
0001
,
0010
0000
0100
0000
1000
0000
0001
0000
0100
0000
0001
0000
0010
0100
0010
0100
,
0010
0000
0001
0000
0100
0000
0010
0000
1000
0000
0001
0000
0010
0001
0010
0001
,
0010
0000
0100
0000
1000
0000
0010
0100
0000
0010
1000
0000
0001
0010
0001
0010
,
0001
0000
0010
0000
0100
0000
1000
0001
0000
0100
0001
0000
0010
0100
0010
0100
,
0010
0000
0001
0000
1000
0000
0010
1000
0000
0001
0010
0000
0100
1000
0100
1000
,
0100
0000
0000
0000
0000
0000
0000
0110
0000
0000
0000
0000
0000
0000
0000
0000
,
1001
0000
0001
0000
1000
0000
0010
2000
0000
0000
3001
0000
1000
0010
0100
0010
,
1000
0000
0001
0000
0010
0000
0001
2000
0000
0000
3010
0000
1000
0001
0010
0001
,
1000
0000
0100
0000
0010
0000
0100
2000
0000
0000
3001
0000
1000
0010
0100
0010
,
1000
0000
0100
0000
0010
0000
0001
0200
0000
0000
0310
0000
0100
0001
0010
0100
,
1000
0000
1000
0000
0001
0000
0100
0020
0000
0000
1030
0000
0001
0010
0100
1000
,
0001
0000
0001
0000
1000
0000
0010
0200
0000
0000
0310
0000
1000
0100
0010
0001
,
0100
0000
0010
1000
0010
0000
0100
0010
0100
0000
0001
0100
0001
0000
0100
0010
,
0100
0000
0001
0000
0010
0100
1000
0100
0010
0001
0100
0000
0010
1000
0100
1000
,
0002
0000
0000
0000
,
0000
0003
0000
0000
,
0000
2001
0000
0000
0000
0000
0000
0000
0000
0000
0000
0000
0000
0000
0000
0000
,
0200
0000
0000
3300
,
0120
0000
0032
0000
,
0203
0000
2300
0000
,
3200
0000
0302
0000
,
2003
0000
3200
0000
,
0320
0000
0230
0000
,
2300
0000
3002
0000
,
0023
0000
2030
0000
,
3020
0000
0032
0000
,
0203
0000
0320
0000
,
0230
0000
0302
0000
,
0023
0000
0230
0000
,
0320
0000
0032
0000
,
2003
0000
3020
0000
,
2030
0000
3002
0000
,
1003
0010
1000
0000
0010
0100
0010
0000
0100
0000
0001
0000
0010
0000
0100
0000
,
1000
0001
1000
0000
0001
0100
0001
0000
1000
0000
0100
0000
0010
0000
0001
0000
,
1000
0010
1000
0000
0010
0100
0010
0000
0100
0000
0001
0000
0010
0000
0100
0000
,
1000
0010
1000
0000
0001
1000
0001
0000
1000
0000
0010
0000
0100
0000
0001
0000
,
1001
0000
1001
0000
1100
0000
0000
0010
0001
0000
1000
0000
0010
0000
0100
0000
,
0101
0000
0101
0000
1001
0000
0000
1000
0100
0000
0010
0000
0001
0000
0100
0000
,
0110
0000
1010
0000
0110
0000
0000
0010
0100
0000
0001
0000
1000
0000
0100
0000
,
0010
0000
0000
0001
0100
0010
0100
0000
0010
0000
0000
1000
0100
0010
0100
0000
,
1001
1000
1001
0001
1001
1000
1001
0001
,
0110
0000
0110
0000
1000
0010
1000
0010
0200
0000
0000
0000
0000
0000
0000
0000
,
0301
1000
0000
0100
0000
1000
0001
0000
0100
0001
0000
1000
0000
0001
0100
0000
,
0010
1000
0000
0100
0000
1000
0010
0000
0100
0010
0000
1000
0000
0010
0100
0000
,
0001
1000
0000
0100
0000
1000
0001
0000
0100
0010
0000
1000
0000
0010
0100
0000
,
0001
1000
0000
0100
0000
1000
0001
0000
0010
0100
0000
1000
0000
0100
0010
0000
,
0001
0100
0000
0010
0000
1000
0100
0000
0010
0001
0000
1000
0000
0001
0010
0000
,
0100
0010
0100
0010
0100
1000
0100
1000
0100
0010
0000
0001
0000
0100
0010
0000
,
1000
0010
0100
0001
0000
0100
0001
0000
0010
0100
1000
0010
0000
1000
0010
0000
,
1000
0001
0010
0100
0000
0010
0100
0000
1000
0001
0100
0010
1000
0001
0010
0001
,
1000
0010
1000
0000
0001
0010
0100
0000
1000
0010
1000
0001
0000
0010
0100
0000
,
1000
0001
0010
0000
0100
0010
0100
0000
1000
0010
1000
0001
0000
0010
0001
0000
,
0010
0100
0010
0000
0001
0100
0010
0000
1000
0010
1000
0001
0000
0010
0100
0000
,
1000
0001
0010
0000
0001
0010
0100
0000
1000
0010
1000
0001
0000
0100
0010
0000
,
1000
0100
0010
0000
0100
1000
0001
0000
0100
0001
0100
0010
0000
1000
0100
0000
,
0010
0100
1000
0000
0010
0100
0010
0000
0100
0001
1000
0100
0000
0010
0100
0000
,
1000
0010
1000
0010
0100
0001
0100
0001
1000
0100
0010
0100
1000
0001
1000
0000
,
0001
0010
0001
0010
0100
1000
0100
1000
0001
0100
0010
0100
0001
1000
0100
1000
,
0001
0000
1000
0000
0001
0010
0100
1000
0001
0000
0100
0010
0000
1000
0010
0000
,
1000
0001
1000
0000
0001
0010
0100
1000
0001
0000
0010
0001
0000
1000
0010
0000
,
1000
0010
1000
0000
0100
0010
0001
0010
0100
0000
1000
0001
0000
0100
0001
0000
,
0010
0100
0010
0000
0001
0100
0010
1000
0100
0000
1000
0001
0000
0100
0001
0000
,
1000
0000
0000
0000
;

//---------------dance-single - ----------------
#NOTES:
     dance-single:
     :
     Beginner:
     1:
     0.079,0.136,0.056,0.000,0.000: // measure 1
1000
0000
0000
0000
,  // measure 2
1000
0000
0000
0000
,  // measure 3
0001
0000
0000
0000
,  // measure 4
0001
0000
0000
0000
,  // measure 5
1001
0000
0000
0000
,  // measure 6
0010
0000
0000
0000
,  // measure 7
0100
0000
0000
0000
,  // measure 8
0010
0000
0000
0000
,  // measure 9
0100
0000
0000
0000
,  // measure 10
0010
0000
0000
0000
,  // measure 11
0100
0000
0000
0000
,  // measure 12
0010
0000
0000
0000
,  // measure 13
1001
0000
0000
0000
,  // measure 14
1000
0000
0000
0000
,  // measure 15
0001
0000
0000
0000
,  // measure 16
0100
0000
0000
0000
,  // measure 17
0001
0000
0000
0000
,  // measure 18
1000
0000
0000
0000
,  // measure 19
0010
0000
0100
0000
,  // measure 20
0001
0000
0000
0000
,  // measure 21
1001
0000
0000
0000
,  // measure 22
0000
0000
0000
0000
,  // measure 23
1000
0000
0000
0000
,  // measure 24
0000
0000
0000
0000
,  // measure 25
0100
0000
0000
0000
,  // measure 26
0000
0000
0000
0000
,  // measure 27
0000
0000
0000
0000
,  // measure 28
0000
0000
0000
0000
,  // measure 29
0010
0000
0000
0000
,  // measure 30
0000
0000
0000
0000
,  // measure 31
0001
0000
0000
0000
,  // measure 32
0000
0000
0000
0000
,  // measure 33
0100
0000
0000
0000
,  // measure 34
0000
0000
0000
0000
,  // measure 35
0010
0000
0000
0000
,  // measure 36
0000
0000
0000
0000
,  // measure 37
0000
0000
0000
0000
,  // measure 38
0000
0000
0000
0000
,  // measure 39
1001
0000
0000
0000
,  // measure 40
1000
0000
0000
0000
,  // measure 41
0001
0000
0000
0000
,  // measure 42
0000
0000
0000
0000
,  // measure 43
1001
0000
0000
0000
,  // measure 44
0001
0000
0000
0000
,  // measure 45
1000
0000
0000
0000
,  // measure 46
0000
0000
0000
0000
,  // measure 47
0010
0000
0010
0000
,  // measure 48
0010
0000
0000
0000
,  // measure 49
1001
0000
0000
0000
,  // measure 50
1000
0000
0000
0000
,  // measure 51
0001
0000
0000
0000
,  // measure 52
1000
0000
0000
0000
,  // measure 53
0010
0000
0000
0000
,  // measure 54
0100
0000
0000
0000
,  // measure 55
0001
0000
0000
0000
,  // measure 56
1000
0000
0000
0000
,  // measure 57
0001
0000
0010
0000
,  // measure 58
0001
0000
0000
0000
,  // measure 59
1000
0000
0100
0000
,  // measure 60
1000
0000
0000
0000
,  // measure 61
0001
0000
1000
0000
,  // measure 62
0001
0000
0000
0000
,  // measure 63
1000
0000
0001
0000
,  // measure 64
1000
0000
0000
0000
,  // measure 65
1001
0000
0000
0000
,  // measure 66
0001
0000
0000
0000
,  // measure 67
0100
0000
0000
0000
,  // measure 68
0010
0000
0000
0000
,  // measure 69
1000
0000
0000
0000
;
