#TITLE:西麻布水道曲;
#SUBTITLE:;
#ARTIST:サイモンマン;
#TITLETRANSLIT:NISHIAZABU SUIDOU KYOKU;
#SUBTITLETRANSLIT:;
#ARTISTTRANSLIT:SIMONMAN;
#CREDIT:DigiMindAxel;
#BANNER:NISHIAZABU SUIDOU KYOKU.png;
#BACKGROUND:NISHIAZABU SUIDOU KYOKU-bg.png;
#LYRICSPATH:;
#CDTITLE:pop'n music.png;
#MUSIC:NISHIAZABU SUIDOU KYOKU.ogg;
#METERTYPE:DDR X;
#OFFSET:-4.283;
#SAMPLESTART:6.134;
#SAMPLELENGTH:12.000;
#SELECTABLE:YES;
#DISPLAYBPM:*;
#BPMS:0.000=124.000,112.000=248.000,147.500=279.000,151.500=310.000,155.500=341.000,159.500=372.000,163.979=400.000,167.500=372.000,171.500=341.000,174.979=310.000,178.979=279.000,183.000=248.000,187.375=217.000,192.500=186.000,195.958=62.000,199.979=124.000;
#STOPS:;
#BGCHANGES:;

//---------------dance-single - ----------------
#NOTES:
     dance-single:
     :
     Challenge:
     14:
     0.573,0.791,0.214,0.134,0.789:
0001
1000
0001
1000
0001
1000
0001
1000
0001
0000
1001
0000
0000
1001
0000
0000
,
0110
0000
0000
0000
0200
0000
0000
0001
0000
0001
0000
0301
1000
0000
0100
0000
,
0010
0000
0001
0000
0000
0000
2000
0000
0000
0010
0000
0010
0000
3010
0100
0000
,
0001
0000
0010
0000
0100
0000
0000
0000
0020
0000
0000
0001
0000
0001
0000
0031
,
1000
0000
0010
0000
0100
0000
0001
0000
0000
0000
0020
0000
0000
0100
0000
0100
,
0000
0130
1000
0010
1000
0010
0100
0001
0100
0000
0000
0000
0002
0000
0000
1000
,
0000
1000
0000
1003
0001
0000
0100
0000
0010
0000
1000
0000
0000
0000
0200
0000
,
0000
0010
0000
0010
0000
0310
0001
0000
1000
0000
0010
0000
0100
0000
0000
0000
,
0002
0000
0000
1000
0000
1000
0000
1003
0001
0000
0100
0000
0010
0000
1000
0000
,
0000
0000
0002
0000
0000
0010
0000
0010
0000
0013
0100
0000
0100
0000
1000
0000
,
1000
0000
1001
0000
0000
0001
0000
0001
0100
0000
1000
0000
0100
0000
0001
0000
,
0000
1000
0000
1000
0010
0000
0001
0000
0010
0000
1000
0000
0000
0001
0000
0001
,
0010
0000
1000
0000
0010
0000
0001
1000
0000
1000
0010
0100
0001
1000
0001
1000
,
0001
1000
0001
0000
0000
1000
0000
1000
0010
0000
0001
0000
0010
0000
1000
0000
,
0000
0001
0000
0001
1000
0000
0010
0000
0001
0000
0010
0000
0000
1000
0000
1000
,
0001
0100
0010
0000
0100
0000
0001
1000
0000
1000
0001
0010
0100
0000
0000
1100
,
0000
0000
1001
0000
1000
0100
0010
0100
1000
0000
0001
0010
0100
0010
0001
0010
,
0001
1000
0000
0000
0000
0002
0000
0000
0000
0000
0000
0000
1003
0000
1000
0000
,
0001
1000
0001
0000
1001
0000
0000
0000
1001
0000
0001
0100
0000
0010
0000
0100
,
0010
1000
0100
0010
0001
0100
0010
0000
0100
0000
0001
0000
1001
0000
1000
0010
,
0000
0100
0000
0010
1000
0001
0010
0100
0010
0001
1000
0000
0010
0000
1000
0000
,
1001
0000
0001
0100
0000
0010
0000
0100
0001
1000
0100
0010
0100
1000
0001
0000
,
0100
0000
0001
0000
1001
0000
1000
0001
0000
0100
0000
0001
1000
0100
0010
0100
,
1000
0001
0100
0001
1000
0000
0001
0000
1001
0000
0001
1000
0000
0100
0000
1000
,
0001
0010
0100
1000
0001
0010
0100
0010
0001
0000
0100
0000
0001
0000
1001
0000
,
1000
0001
0000
0010
0000
0001
1000
0010
0100
0001
1000
0010
0100
0010
1000
0010
,
0100
0000
0001
0000
1001
0000
1000
0001
0000
0100
0000
0001
1000
0100
0010
0100
,
1000
0001
0100
0010
0100
0001
1000
0000
0001
0000
1001
0000
1000
0001
1000
0000
,
0000
0000
0000
0000
,
0000
1000
0000
0000
,
0000
0000
0000
1000
0000
0000
0000
0000
0000
0000
0000
0000
0000
0000
0000
0000
,
0000
0000
0000
0001
0000
0000
0000
0000
0000
0000
0000
0000
0000
0000
0000
0000
,
0000
0001
0000
0000
0000
0010
0000
0000
,
0000
0000
0000
0000
0000
0000
0000
0100
0000
0000
0000
0000
0000
0000
0000
0000
,
0000
1000
0000
0000
0000
0000
0000
0000
0000
0000
0000
0000
0001
0000
0000
0000
,
0000
0100
0000
0000
0000
0001
0000
0000
,
1000
0000
0000
0001
0000
0010
0000
0001
,
0000
1000
0000
0020
0000
0000
0000
0000
,
0000
0000
0000
0000
,
0000
0000
0000
0000
,
0000
0000
0000
0000
,
0000
0000
0000
0000
,
0000
0000
0000
0000
,
0000
0000
0000
0000
,
0000
0000
0000
0000
,
0000
0000
0000
0000
,
0000
0000
0000
0200
,
0000
0000
0000
0000
,
0000
0000
0000
0330
,
0000
0202
0000
0000
0000
0000
0000
0303
,
0000
0000
0000
1001
0000
0000
0000
0000
1001
0000
1000
0001
1000
0001
1000
0001
,
1000
0001
0000
0010
0100
0010
0100
0010
0100
0010
0100
0010
0100
0010
0100
0010
,
0100
1000
0000
0010
0000
0010
0100
0000
0001
0000
1000
0000
0010
0100
0000
0001
,
0000
0001
1000
0000
0100
0000
0010
0000
0001
1000
0000
0010
0000
0010
1000
0000
,
0100
0000
0010
0000
0001
1000
0010
1000
0001
1000
0100
0010
0100
0010
0100
0010
,
0100
1000
0000
0001
0000
0001
1000
0000
0010
0000
0100
0000
0001
1000
0000
0010
,
0000
0010
1000
0000
0100
0000
0010
0000
0001
1000
0000
0100
0000
0100
1000
0000
,
0001
0000
0100
0000
0001
1000
0000
1000
0100
0010
0001
1000
0000
1000
0010
0100
,
0001
1000
0000
1000
0100
0010
0001
1000
0000
1000
0010
0000
0010
0100
0000
0100
,
0001
0000
1001
0000
1001
0000
1010
0000
1010
0000
0100
0001
0100
0001
1000
0100
,
1000
0000
0000
0100
0000
0000
1000
0000
0001
0000
1000
0000
0001
0000
1000
0000
0001
0000
1000
0000
0001
0000
1000
0000
0001
0000
1000
0000
0001
0000
1000
0000
0000
0000
0000
0000
0000
0000
0000
0000
0000
0000
0000
0000
0000
0000
0000
0000
,
0000
1001
0000
0220
0000
0000
0000
0000
,
0000
0000
0000
0000
,
0000
0000
0000
0330
0000
0000
0000
0000
;

//---------------dance-single - ----------------
#NOTES:
     dance-single:
     :
     Hard:
     12:
     0.460,0.791,0.383,0.205,0.517:
1000
0001
1000
0001
1000
0001
1000
0001
1000
0000
1000
0000
0000
1001
0000
0000
,
0011
0000
0000
0000
0001
0000
0000
0010
0000
0100
0000
2000
0001
0000
0001
0000
,
3001
0000
0000
0000
0000
0000
1000
0000
0000
0100
0000
0010
0000
0002
1000
0000
,
1000
0000
1000
0000
1003
0000
0000
0000
0001
0000
0000
0100
0000
0010
0000
2000
,
0001
0000
0001
0000
3001
0000
0000
0000
0000
0000
1000
0000
0000
0010
0000
0100
,
0000
0002
1000
0000
1000
0000
1003
0000
1001
0000
0000
0000
0101
0000
0000
0010
,
0000
1000
0000
0002
0010
0000
0010
0000
0013
0000
0000
0000
0000
0000
1100
0000
,
0000
0010
0000
0001
0000
0200
0010
0000
0010
0000
0010
0000
0310
0000
0000
0000
,
1001
0000
0000
0001
0000
0010
0000
0200
1000
0000
1000
0000
1000
0000
1300
0000
,
0000
0000
0110
0000
0000
0010
0000
0100
0000
0002
1000
0000
1000
0000
1000
0000
,
1003
0000
0001
0100
0000
0000
0000
0100
0010
0000
1000
0000
1000
0000
0010
0100
,
0000
0000
0000
0100
0001
0000
1000
0000
1000
0000
0100
1000
0000
0000
0000
1000
,
0001
0000
0010
0000
0010
0000
0100
1000
0000
0100
1000
0100
0020
0000
0000
0000
,
0000
0000
0031
1000
0000
0000
0000
1000
0010
0000
0100
0000
0100
0000
0001
1000
,
0000
0000
0000
1000
0100
0000
0010
0000
0010
0000
0001
1000
0000
0000
0000
1000
,
0010
0000
0100
0000
0100
0000
0101
0000
0000
0001
0000
0000
1001
0000
0000
1001
,
0000
0000
0100
0000
0000
1100
0000
0000
0010
0000
0000
0110
0000
0000
0001
0000
,
0000
1001
0000
0000
0000
2000
0000
0000
0000
0000
0000
0000
3001
0000
0001
0000
,
1000
0001
1000
0000
1001
0000
0000
0000
1001
0000
0000
0001
0000
0010
0000
0200
,
1000
0000
1000
0000
0010
0000
0310
0000
0001
0000
0000
0000
1001
0000
0000
1000
,
0000
0010
0000
0200
0001
0000
0001
0000
0010
0000
0310
0000
1000
0000
0000
0000
,
1001
0000
0000
0001
0000
1000
0000
0020
0100
0000
0100
0000
0001
0000
0031
0000
,
1000
0000
0000
0000
1001
0000
0000
1000
0000
0001
0000
0200
0010
0000
0010
0000
,
1000
0000
1300
0000
0001
0000
0000
0000
1001
0000
0000
1100
0000
1000
0000
0001
,
0100
0010
0100
0010
0100
0010
0100
0010
0100
0010
0100
0000
0000
0000
1001
0000
,
0000
0101
0000
0001
0000
1000
0100
0010
0100
0010
0100
0010
0100
0010
0100
0010
,
0100
0000
0000
0000
1001
0000
0000
1100
0000
1000
0000
0001
0100
0010
0100
0010
,
0100
0010
0100
0010
0100
0010
0100
0000
0000
0000
0101
0000
0001
0000
2002
0000
,
0000
0000
0000
0000
,
0000
0000
0000
0000
,
0000
0000
0000
0000
,
0000
0000
0000
0000
,
0000
0000
0000
0000
,
0000
0000
0000
0000
,
0000
0000
0000
0000
,
0000
0000
0000
0000
,
0000
0000
0000
0000
,
0000
0000
0000
0000
,
0000
0000
0000
0000
,
0000
0000
0000
0000
,
0000
0000
0000
0000
,
0000
0000
0000
0000
,
0000
0000
0000
0000
,
0000
0000
0000
0000
,
0000
0000
0000
0000
,
0000
0000
0000
0000
,
0000
0000
0000
3003
,
0000
0000
0000
0000
,
0000
0000
0000
0000
0000
1001
0000
0000
,
0000
2000
0000
0000
0000
0000
0000
0000
,
0000
0000
0000
3001
0000
0000
0000
0000
1000
0000
1001
0000
0001
0000
0101
0000
,
0100
0010
0000
2002
0000
0000
0000
0000
0000
0000
0000
0000
0000
0000
3003
0000
,
0001
0100
0000
0000
0000
0100
0010
0000
1000
0000
0100
0000
0010
0100
0000
0000
,
0000
0100
1000
0000
0010
0000
0100
0000
0001
0100
0000
0000
0000
0100
0001
0000
,
1000
0000
0100
0000
0010
0100
0000
0100
1000
0000
0020
0000
0000
0000
0000
0000
,
0130
0001
0000
0001
0000
0100
0001
0000
0010
0000
0100
0000
1000
0010
0000
0010
,
0000
1000
0010
0000
1000
0000
0100
0000
0010
0001
0000
0001
0000
0010
0001
0000
,
1000
0000
0010
0000
1010
0000
0000
1001
0000
0000
1010
0000
0000
1001
0000
0000
,
1010
0000
0000
1001
0000
0000
0110
0000
0000
0110
0000
0000
0110
0000
0000
0110
,
0000
0000
0110
0000
0100
0000
1001
0000
0001
0000
0010
0100
0010
0100
0010
0100
,
0010
0100
0020
0000
0000
0000
0000
0000
0000
0000
0030
0000
0000
0000
0000
0000
,
0000
1000
0000
2002
0000
0000
0000
0000
,
0000
0000
0000
0000
,
0000
0000
0000
3003
0000
0000
0000
0000
;

//---------------dance-single - ----------------
#NOTES:
     dance-single:
     :
     Medium:
     8:
     0.283,0.424,0.428,0.071,0.236:
0000
0000
0000
0000
,
1001
0000
0000
0000
0001
0000
0000
1000
0000
0100
0000
1000
0000
0000
0000
0000
,
0000
0000
0000
0000
0000
0000
0100
0000
0000
0010
0000
0001
0000
0010
0000
0000
,
0000
0000
0000
0000
0000
0000
0000
0000
0001
0000
0000
0100
0000
0010
0000
0100
,
0000
0000
0000
0000
0000
0000
0000
0000
0000
0000
0001
0000
0000
1000
0000
0010
,
0000
1000
0000
0000
0000
0000
0001
0000
1001
0000
0000
0000
1000
0000
0000
0100
,
0000
0010
0000
0100
0000
0000
0000
0000
0000
0000
0000
0000
0000
0000
1000
0000
,
0000
0001
0000
0010
0000
0001
0000
0000
0000
0000
0000
0000
0000
0000
0000
0000
,
0100
0000
0000
0010
0000
1000
0000
0010
0000
0000
0000
0000
0000
0000
0000
0000
,
0000
0000
1000
0000
0000
0001
0000
0010
0000
0001
0000
0000
0000
0000
0000
0000
,
1001
1100
0000
0000
0110
0000
0000
0011
,
0000
0000
0110
0000
0000
1100
0000
0000
,
1001
0000
0000
0101
0000
0000
1010
0000
,
0000
1001
0000
0000
0011
0000
0000
0110
,
0000
0000
1100
0000
0000
1001
0000
0000
,
0101
0000
0000
0000
0000
0000
0110
0000
0000
0010
0000
0000
0010
0000
0000
1001
,
0000
0000
0000
0000
0000
0100
0000
0000
1100
0000
0000
0010
0000
0000
0022
0000
,
0000
0033
0000
0000
0000
0000
0000
0000
0000
0000
0000
0000
0001
0000
0100
0000
,
0010
0000
1000
0000
1001
0000
0000
0000
0001
0000
0000
0100
0000
0010
0000
0100
,
0000
0000
0001
0000
0001
0000
1000
0000
1000
0000
0000
0000
0001
0000
0000
1000
,
0000
0100
0000
1000
0000
0000
0001
0000
0001
0000
1000
0000
1000
0000
0000
0000
,
0001
0000
0000
0100
0000
0010
0000
0100
0000
0000
0001
0000
0001
0000
1000
0000
,
1000
0000
0000
0000
0001
0000
0000
0010
0000
0001
0000
0010
0000
0000
0001
0000
,
0001
0000
1000
0000
1000
0000
0000
0000
1001
0000
0000
0001
0000
0010
0000
0100
,
0000
1000
1000
0010
0010
0000
0000
1001
,
0000
1000
0000
0010
0000
0100
0000
0000
0001
0000
0001
0000
0010
0000
0010
0000
,
0000
0000
0000
0000
1001
0000
0000
0001
0000
0010
0000
0100
0000
0000
1000
0000
,
1000
0010
0010
0000
0000
1001
0000
2200
,
0000
0000
0000
0000
,
0000
0000
0000
0000
,
0000
0000
0000
0000
,
0000
0000
0000
0000
,
0000
0000
0000
0000
,
0000
0000
0000
0000
,
0000
0000
0000
0000
,
0000
0000
0000
0000
,
0000
0000
0000
0000
,
0000
0000
0000
0000
,
0000
0000
0000
0000
,
0000
0000
0000
0000
,
0000
0000
0000
0000
,
0000
0000
0000
0000
,
0000
0000
0000
0000
,
0000
0000
0000
0000
,
0000
0000
0000
0000
,
0000
0000
0000
0000
,
0000
0000
0000
3300
,
0000
0000
0000
0000
,
0000
0000
0000
0000
0000
1001
0000
0000
,
0000
0000
0000
0000
,
0000
0000
0000
0000
0001
1000
0100
0010
,
0001
1000
0000
0000
2002
0000
0000
0000
0000
0000
0000
0000
0000
0000
3003
0000
,
0101
0000
0000
0110
0000
0000
1010
0000
,
0000
1001
0000
0000
1100
0000
0000
0110
,
0000
0000
0000
0000
0011
0000
0000
0001
0000
0000
1001
0000
0000
0000
0000
0000
,
0101
0000
0000
0110
0000
0000
1010
0000
,
0000
1001
0000
0000
1100
0000
0000
0110
,
0000
0000
0011
0000
0000
1001
0000
0000
,
1100
0000
0000
0000
0000
0000
1001
0000
0000
0001
0000
0000
1000
0000
0000
1000
,
0000
0010
0100
0010
0100
0010
1000
0100
,
0010
0001
1000
0100
0010
0001
0000
0000
,
0000
1000
0000
2002
0000
0000
0000
0000
,
0000
0000
0000
0000
,
0000
0000
0000
3003
0000
0000
0000
0000
;

//---------------dance-single - ----------------
#NOTES:
     dance-single:
     :
     Easy:
     4:
     0.150,0.254,0.089,0.116,0.000:
0000
0000
0000
0000
,
0000
0001
0001
0000
,
0000
0000
0000
1000
0000
1000
0000
0000
,
0000
0000
0010
0010
,
0000
0000
0000
0000
0000
0100
0000
0100
,
0000
0000
0000
0001
,
0001
0000
0002
0000
0000
0003
0000
1000
,
0000
1000
0000
2000
0000
0000
3000
0000
,
0010
0000
0010
0000
0020
0000
0000
0030
,
0000
0100
0000
0100
0000
0200
0000
0000
,
0300
1001
0000
0000
1000
0000
0000
0001
,
0000
0000
0001
0000
0000
0010
0000
0000
,
0010
0000
0000
0100
0000
0000
0100
0000
,
0000
1001
0000
0000
1000
0000
0000
0100
,
0000
0000
0100
0000
0000
0010
0000
0000
,
0010
0000
0000
0001
0000
0000
1001
0000
,
0000
0000
0000
0000
1000
0000
0000
0200
,
0000
0300
0000
0000
0000
0000
0000
0000
,
0000
1001
0001
0010
,
0100
0000
1000
0010
,
0100
0010
0000
1000
,
0001
0100
0001
0000
,
1000
0100
0010
0100
,
0000
1001
0100
0100
,
0200
0000
0000
0000
0300
0000
0000
0010
,
0000
0010
0000
0020
0000
0000
0000
0000
,
0030
0100
0100
0200
,
0000
0000
0000
0300
0000
0010
0000
1001
,
0000
0000
0000
0000
,
0000
0000
0000
0000
,
0000
0000
0000
0000
,
0000
0000
0000
0000
,
0000
0000
0000
0000
,
0000
0000
0000
0000
,
0000
0000
0000
0000
,
0000
0000
0000
0000
,
0000
0000
0000
0000
,
0000
0000
0000
0000
,
0000
0000
0000
0000
,
0000
0000
0000
0000
,
0000
0000
0000
0000
,
0000
0000
0000
0000
,
0000
0000
0000
0000
,
0000
0000
0000
0000
,
0000
0000
0000
0000
,
0000
0000
0000
0000
,
0000
0000
0000
0000
,
0000
0000
0000
0000
,
0000
0000
0000
0000
,
0000
1001
0000
0000
0000
0000
0000
0000
,
0000
0000
0000
0000
0000
0001
0000
0010
,
0000
0100
0000
0000
0000
0000
0000
0000
,
1001
0000
0000
1000
0000
0000
0001
0000
,
0000
0001
0000
0000
1000
0000
0000
1000
,
0000
0000
0200
0000
0000
0310
0000
0000
,
0110
0000
0000
0010
0000
0000
0001
0000
,
0000
0001
0000
0000
0100
0000
0000
0100
,
0000
0000
0010
0000
0000
1000
0000
0000
,
0010
0000
0000
1000
0000
0000
0100
0000
,
0000
1000
0000
1000
0000
2000
0000
0000
,
0000
3020
0000
0000
0000
0030
0000
0000
,
0000
0010
0000
2002
0000
0000
0000
0000
,
0000
0000
0000
0000
,
0000
0000
0000
3003
0000
0000
0000
0000
;

//---------------dance-single - ----------------
#NOTES:
     dance-single:
     :
     Beginner:
     2:
     0.060,0.109,0.036,0.000,0.000: // measure 1
0000
0000
0000
0000
,  // measure 2
0000
1000
0000
0000
,  // measure 3
0000
0000
0000
0010
0000
0000
0000
0000
,  // measure 4
0000
0000
0100
0000
,  // measure 5
0000
0000
0000
0000
0000
0001
0000
0000
,  // measure 6
0000
0000
0000
0010
,  // measure 7
0000
0000
0000
0000
0000
0000
0000
0001
,  // measure 8
0000
0000
0000
0000
,  // measure 9
1000
0000
0000
0000
,  // measure 10
0000
0100
0000
0000
0000
0000
0000
0000
,  // measure 11
0000
1001
0000
0000
0000
0000
0000
1000
,  // measure 12
0000
0000
0000
0000
0000
0001
0000
0000
,  // measure 13
0000
0000
0000
1000
0000
0000
0000
0000
,  // measure 14
0000
0001
0000
0000
0000
0000
0000
1000
,  // measure 15
0000
0000
0000
0000
0000
0001
0000
0000
,  // measure 16
0000
0000
0000
1000
0000
0000
0000
0000
,  // measure 17
0000
0001
0000
0000
0000
0000
0000
0100
,  // measure 18
0000
0000
0000
0000
,  // measure 19
0000
1001
0000
0000
,  // measure 20
0000
0000
0001
0000
,  // measure 21
0000
0000
0000
0010
,  // measure 22
0000
0000
0000
0000
,  // measure 23
0100
0000
0000
0000
,  // measure 24
0000
1000
0000
0000
,  // measure 25
0000
0000
0000
0000
0000
0010
0000
0000
,  // measure 26
0000
0000
0000
0000
,  // measure 27
0100
0000
0000
0000
,  // measure 28
0000
0000
0000
0001
0000
0000
0000
1001
,  // measure 29
0000
0000
0000
0000
,  // measure 30
0000
0000
0000
0000
,  // measure 31
0000
0000
0000
0000
,  // measure 32
0000
0000
0000
0000
,  // measure 33
0000
0000
0000
0000
,  // measure 34
0000
0000
0000
0000
,  // measure 35
0000
0000
0000
0000
,  // measure 36
0000
0000
0000
0000
,  // measure 37
0000
0000
0000
0000
,  // measure 38
0000
0000
0000
0000
,  // measure 39
0000
0000
0000
0000
,  // measure 40
0000
0000
0000
0000
,  // measure 41
0000
0000
0000
0000
,  // measure 42
0000
0000
0000
0000
,  // measure 43
0000
0000
0000
0000
,  // measure 44
0000
0000
0000
0000
,  // measure 45
0000
0000
0000
0000
,  // measure 46
0000
0000
0000
0000
,  // measure 47
0000
0000
0000
0000
,  // measure 48
0000
0000
0000
0000
,  // measure 49
0000
0000
0000
0000
,  // measure 50
0000
0000
0000
0000
,  // measure 51
0000
0000
1000
0000
,  // measure 52
0000
0001
0000
0000
,  // measure 53
0010
0000
0000
0100
,  // measure 54
0000
0000
0010
0000
,  // measure 55
0000
0100
0000
0000
,  // measure 56
1000
0000
0000
0001
,  // measure 57
0000
0000
1000
0000
,  // measure 58
0000
0000
0100
0000
0000
0100
0000
0000
,  // measure 59
0100
0000
0000
0100
0000
0000
0000
0000
,  // measure 60
0000
0010
0000
0000
0000
0000
0000
0000
,  // measure 61
0000
0010
0000
0000
0000
0000
0000
0000
,  // measure 62
0000
0000
0000
1001
0000
0000
0000
0000
;
