#TITLE:ナタラディーン;
#SUBTITLE:(Raja Maharaja mix);
#ARTIST:Q-Mex RMX by Auridy;
#TITLETRANSLIT:NATARADIN;
#SUBTITLETRANSLIT:;
#ARTISTTRANSLIT:;
#CREDIT:DigiMindAxel;
#BANNER:NATARADIN (Raja Maharaja mix).png;
#BACKGROUND:NATARADIN (Raja Maharaja mix)-bg.png;
#LYRICSPATH:;
#CDTITLE:pop'n music.png;
#MUSIC:NATARADIN (Raja Maharaja mix).ogg;
#METERTYPE:DDR X;
#OFFSET:-9.363;
#SAMPLESTART:50.907;
#SAMPLELENGTH:12.000;
#SELECTABLE:YES;
#BPMS:0.000=161.000,222.500=80.500,226.000=161.000;
#DISPLAYBPM:161;
#STOPS:196.000=0.559006
;
#BGCHANGES:;

//---------------dance-single - ----------------
#NOTES:
     dance-single:
     :
     Easy:
     5:
     0.230,0.260,0.113,0.225,0.000: // measure 1
1000
0100
0010
0000
,  // measure 2
0001
0010
0100
0000
,  // measure 3
1000
0100
0010
0000
,  // measure 4
2002
0000
0000
3003
,  // measure 5
0001
0000
0100
0000
,  // measure 6
0010
0000
1000
0000
,  // measure 7
0001
1000
1000
1000
,  // measure 8
0001
1000
1000
1000
,  // measure 9
0001
0000
0010
0000
,  // measure 10
0100
0000
0010
0000
,  // measure 11
0001
0000
1000
0000
,  // measure 12
2002
0000
0000
3003
,  // measure 13
0001
0000
1000
0000
,  // measure 14
0100
0000
1000
0000
,  // measure 15
0001
1000
1000
1000
,  // measure 16
0001
1000
1000
1000
,  // measure 17
0001
0100
0010
0000
,  // measure 18
0100
0000
0010
0000
,  // measure 19
1000
0000
0001
0000
,  // measure 20
2002
0000
0000
3003
,  // measure 21
1000
0000
0100
0000
,  // measure 22
0010
0000
0000
0000
,  // measure 23
0100
0000
0010
0000
,  // measure 24
0001
0000
0000
0000
,  // measure 25
1000
0000
0010
0000
,  // measure 26
0100
0000
0010
0000
,  // measure 27
0100
0000
0001
0000
,  // measure 28
1000
0000
0000
0000
,  // measure 29
1001
0000
0001
0000
,  // measure 30
1000
0100
0010
0000
,  // measure 31
1001
0000
0001
0000
,  // measure 32
0010
0100
1000
0100
,  // measure 33
0010
0001
0010
0000
,  // measure 34
0001
1000
0100
0010
,  // measure 35
0001
0000
0100
0000
,  // measure 36
0010
0000
0100
0000
,  // measure 37
2002
0000
0000
3003
,  // measure 38
2002
0000
0000
3003
,  // measure 39
0002
0000
0000
0000
,  // measure 40
0203
0000
0000
0000
,  // measure 41
0320
0000
0000
0000
,  // measure 42
1030
0000
0000
0000
,  // measure 43
0002
0000
2003
0000
,  // measure 44
3002
0000
0023
0000
,  // measure 45
0032
0000
0203
0000
,  // measure 46
0310
0000
0000
0000
,  // measure 47
1000
0000
0100
0000
,  // measure 48
0010
0000
0001
0001
,  // measure 49
1000
0000
0010
0000
,  // measure 50
0110
0000
0000
0000
0000
1000
0000
0000
,  // measure 51
0000
0100
0000
0000
0000
0010
0000
0000
,  // measure 52
0000
0001
0000
0001
0000
0100
0000
0000
,  // measure 53
0000
0010
0000
0000
0000
0110
0000
0000
,  // measure 54
0000
0000
0000
0000
0000
1001
0000
1000
,  // measure 55
0000
0001
0000
0001
0000
2002
0000
0000
,  // measure 56
0000
0000
0000
3003
0000
2002
0000
0000
,  // measure 57
0000
0000
3003
0001
,  // measure 58
0000
0100
0000
0010
,  // measure 59
0100
0010
0100
0001
,  // measure 60
0000
1000
0000
0100
,  // measure 61
0010
0001
0010
0001
,  // measure 62
0100
0010
0000
1000
,  // measure 63
0001
1000
0000
0100
,  // measure 64
0010
0001
0010
0001
,  // measure 65
0010
0001
0100
0020
,  // measure 66
0000
0000
0030
2002
,  // measure 67
0000
0000
0000
3003
;

//---------------dance-single - ----------------
#NOTES:
     dance-single:
     :
     Medium:
     8:
     0.450,0.411,0.476,0.147,0.000: // measure 1
1000
0000
0010
0000
0100
0001
0000
0001
,  // measure 2
1000
0000
0100
0000
0010
0001
0000
0001
,  // measure 3
1000
0000
0010
0000
0100
0001
0000
0001
,  // measure 4
1000
0000
0000
1001
0000
0000
1001
0000
,  // measure 5
0020
0000
0000
0031
0000
0100
0010
0000
,  // measure 6
1000
0000
0010
1000
0000
0100
0010
0000
,  // measure 7
0001
0100
0010
0000
0100
0000
0110
0000
,  // measure 8
0001
0100
0010
0000
0100
0000
0110
0000
,  // measure 9
0010
0000
0100
0000
1000
0100
0010
0000
,  // measure 10
0001
0100
0001
0000
0100
0000
0010
2000
,  // measure 11
0000
0001
0000
3001
,  // measure 12
0011
0000
0000
0011
0000
0000
1001
0000
,  // measure 13
2000
0000
0000
3010
0000
0100
0001
0000
,  // measure 14
1000
0000
0100
0010
0000
0100
1000
0000
,  // measure 15
0001
0100
0010
0000
1000
0000
1001
0000
,  // measure 16
0001
0100
0010
0000
1000
0000
1001
0000
,  // measure 17
0001
0010
0100
0000
1000
1000
0000
0000
,  // measure 18
0100
0010
0001
0000
0100
0000
0010
2000
,  // measure 19
0000
0001
0000
3001
,  // measure 20
0101
0000
0000
0101
0000
0000
1001
0000
,  // measure 21
0200
1000
1300
0010
,  // measure 22
0002
0100
0103
0010
,  // measure 23
2000
0001
3001
0100
,  // measure 24
0020
0001
0031
0100
,  // measure 25
2010
0010
3010
0100
,  // measure 26
1002
1000
1003
0010
,  // measure 27
1200
0000
1000
0000
1300
0000
0001
0001
,  // measure 28
0000
0000
0000
1001
,  // measure 29
1000
0100
0010
0000
0100
1000
0100
0000
,  // measure 30
1000
0000
0010
0000
0001
0010
1000
0000
,  // measure 31
0100
0010
0100
0000
1000
0010
0100
0000
,  // measure 32
0101
0000
0000
1010
0000
0000
1001
0000
,  // measure 33
0001
0010
0100
0000
0010
0001
0010
0000
,  // measure 34
0001
0000
0100
0000
1000
0100
0001
0000
,  // measure 35
0020
0000
0000
0100
0000
0000
0130
0000
,  // measure 36
2000
0000
0000
0001
0000
0000
3001
0000
,  // measure 37
0011
0000
0000
1100
0000
0000
0011
0000
,  // measure 38
1001
0000
0000
0110
0000
0000
1001
0000
,  // measure 39
0010
0000
0100
0000
1000
0001
0000
0001
,  // measure 40
1000
0000
0100
0000
0010
0001
0000
0001
,  // measure 41
1000
0000
0010
0000
0100
0001
0000
0001
,  // measure 42
1000
0000
0000
1001
0000
0000
1001
0000
,  // measure 43
0001
0100
0001
0000
0100
0010
0000
0010
,  // measure 44
1000
0001
1000
0000
0100
0010
0000
0010
,  // measure 45
0001
1000
0001
0000
0010
0100
0000
0100
,  // measure 46
1000
0000
0000
1100
0000
0000
0011
0000
,  // measure 47
0100
1000
0001
1001
,  // measure 48
1000
1000
0000
0001
0010
0010
0010
0000
,  // measure 49
0100
1000
1100
0011
,  // measure 50
1001
0000
1000
1001
0000
0100
0000
0010
,  // measure 51
0000
0001
0000
0001
0000
1000
1000
0000
,  // measure 52
0001
0100
0100
0100
0000
0010
0000
1001
,  // measure 53
0000
0010
0000
1001
0000
1001
0000
0000
,  // measure 54
0010
0000
0000
0100
0000
1100
0000
1100
,  // measure 55
0000
0011
0000
0011
0000
0110
0000
0100
,  // measure 56
0000
0100
0010
0100
0000
2002
0000
0000
,  // measure 57
0000
0000
0000
0000
3003
0000
0001
0100
,  // measure 58
0010
0000
0100
0010
0100
0000
0001
0000
,  // measure 59
0100
0000
1000
0100
0001
0000
0010
0100
,  // measure 60
0010
0000
0001
1000
0100
0000
1100
0000
,  // measure 61
0000
0011
0000
0000
1001
0000
1000
0100
,  // measure 62
0010
0000
0100
1000
0100
0000
1000
0000
,  // measure 63
0010
0000
0001
0010
1000
0000
0001
0010
,  // measure 64
0100
0000
1000
0000
1001
0000
0001
0010
,  // measure 65
0100
1000
1001
1010
,  // measure 66
0000
0101
0000
0000
1001
0000
0011
0000
,  // measure 67
0000
1100
0000
0000
0011
0000
2002
0000
,  // measure 68
0000
0000
0000
3003
;

//---------------dance-single - ----------------
#NOTES:
     dance-single:
     :
     Hard:
     13:
     0.642,0.587,0.346,0.078,0.273: // measure 1
1000
0001
0100
0001
1000
0100
0000
0100
,  // measure 2
0010
0001
0100
0001
0010
0100
0000
0100
,  // measure 3
1000
0010
0001
0010
1000
0100
0000
0100
,  // measure 4
0010
0001
0000
0010
0001
0000
0100
0010
0000
0100
0010
0000
1001
0000
0000
0000
,  // measure 5
1000
0001
0010
0100
0000
0100
0010
0001
,  // measure 6
0100
0010
1000
0100
0000
0100
1000
0010
,  // measure 7
1000
1000
0001
0001
0010
0000
1001
0000
,  // measure 8
1000
1000
0001
0001
0010
0000
1001
0000
,  // measure 9
0001
0010
1000
0010
0001
0001
1000
1000
,  // measure 10
0001
0010
1000
0010
0001
1000
0100
0010
,  // measure 11
0002
1000
0100
1003
,  // measure 12
0100
1000
0000
0100
1000
0000
0010
0100
0000
0010
0100
0000
1001
0000
0000
0000
,  // measure 13
0001
1000
0010
0100
0000
0100
0010
1000
,  // measure 14
0100
0010
0001
1000
0000
1000
0010
1000
,  // measure 15
0001
0010
0100
1000
1010
0000
1001
0000
,  // measure 16
0001
0010
0100
1000
1010
0000
1001
0000
,  // measure 17
0001
0010
0100
0010
0001
0101
0000
0100
,  // measure 18
0010
0010
1000
0100
0001
0100
1000
0001
,  // measure 19
0200
0010
0001
0310
,  // measure 20
1000
0001
0000
1000
0001
0000
0010
0001
0000
0010
0001
0000
0110
0000
0000
0000
,  // measure 21
0010
0100
0100
1000
1000
0010
0100
0001
,  // measure 22
0010
0000
0001
0010
1000
0010
0001
0000
,  // measure 23
0100
0010
0010
1000
1000
0001
0010
0100
,  // measure 24
1000
0000
0001
0010
1000
0010
0001
1000
,  // measure 25
1010
0000
0001
0100
1000
0100
0001
1000
,  // measure 26
1010
0000
1000
0010
0001
0010
1000
0001
,  // measure 27
0101
0000
0100
0000
0110
0000
1000
1100
,  // measure 28
0000
0000
0000
1001
,  // measure 29
0001
0010
1000
0010
0001
0100
0001
1000
,  // measure 30
0100
0000
1000
0000
0001
0000
0010
0100
0010
0000
0001
0000
0100
0000
0000
0000
,  // measure 31
0001
0010
1000
0010
0001
1000
1100
0000
,  // measure 32
0010
0001
0000
0010
0001
0000
0100
0010
0000
0100
0010
0000
1001
0000
0000
0000
,  // measure 33
0001
0000
0100
0000
1000
0000
0100
0000
0001
0000
0010
0000
0100
0000
0010
0001
,  // measure 34
0010
0000
0100
0000
1000
0000
0001
0100
0001
0000
1000
0000
0100
0000
0000
0000
,  // measure 35
0011
0000
0001
0100
0010
1000
1001
0000
,  // measure 36
0011
0000
0001
0100
0010
1000
1001
0000
,  // measure 37
0010
0100
0000
0010
0100
0000
0001
1000
0000
0001
1000
0000
0001
0000
0000
0000
,  // measure 38
0010
0001
0000
0010
0001
0000
0100
0010
0000
0100
0010
0000
1001
0000
0000
0000
,  // measure 39
2000
0100
0000
0100
0000
0001
0000
3001
,  // measure 40
0200
0010
0000
0010
0000
1000
0000
1300
,  // measure 41
0200
0010
0000
0010
0000
0001
0000
0301
,  // measure 42
1000
0100
0000
1000
0100
0000
1000
0001
0000
1000
0001
0000
0110
0000
0000
0000
,  // measure 43
0010
0000
0000
0010
1000
0000
0000
0010
1000
0000
0001
0000
0000
0000
0001
0000
,  // measure 44
0010
0000
0000
0100
1000
0000
0000
0100
1000
0000
0010
0000
0000
0000
0010
0000
,  // measure 45
0100
0000
0000
0001
1000
0000
0000
0001
1000
0000
0010
0000
0000
0000
0010
0000
,  // measure 46
0100
0001
0000
0100
0001
0000
0010
0100
0000
0010
0100
0000
1001
0000
0000
0000
,  // measure 47
0001
0001
0100
0100
0010
0000
0110
0000
,  // measure 48
1000
0000
1000
0000
0000
0000
0100
0010
0001
0000
0001
0000
1000
0000
1000
0000
,  // measure 49
0001
0100
0010
0100
0101
0000
0101
0000
,  // measure 50
0000
0000
0100
0110
0000
1000
1000
0001
,  // measure 51
0010
0100
0000
0110
0000
0001
0001
0000
,  // measure 52
0010
0100
1000
0000
1000
0000
0010
0000
0010
0000
1000
0000
0001
0000
0100
0000
,  // measure 53
1000
0000
0001
0000
0010
0000
1000
0000
0001
0000
0010
0001
0000
0010
0001
0000
,  // measure 54
0010
0001
0000
0010
0001
0000
1000
0000
0000
0000
1010
0000
0000
0000
0101
0000
,  // measure 55
0000
1010
0000
0101
0000
1001
1000
0100
,  // measure 56
0010
0000
0001
1000
0001
1000
0000
0000
0000
0000
0220
0000
0000
0000
0000
0000
,  // measure 57
0000
0000
0000
0000
0330
0000
1000
0010
,  // measure 58
0001
0010
1000
0100
0001
0100
1000
0001
,  // measure 59
0001
0000
0010
0100
1000
0000
0010
0000
0100
0000
0000
0000
0001
0000
0100
0000
,  // measure 60
1000
0000
0100
0000
0001
0000
0010
0000
1000
0000
0010
0000
0001
0100
0000
0001
,  // measure 61
0100
0000
0001
1000
0000
0001
1000
0000
1100
0000
0000
0000
1000
0000
0010
0000
,  // measure 62
0001
0010
1000
0100
0001
0100
1000
0001
,  // measure 63
0001
0000
0100
0010
1000
0000
0001
0000
0010
0000
0000
0000
0001
0000
0010
0000
,  // measure 64
0100
1000
0100
0010
1001
0000
0001
0010
,  // measure 65
0100
0000
1000
0000
0100
0000
0010
0000
1001
0000
0000
0000
0100
1000
0000
0100
,  // measure 66
1000
0000
0010
0100
0000
0010
0100
0000
0010
0000
0000
0000
1000
0001
0000
0100
,  // measure 67
0001
0000
1000
0001
0000
0100
0001
0000
0010
0000
0100
0000
2002
0000
0000
0000
,  // measure 68
0000
0000
0000
3003
;

//---------------dance-single - ----------------
#NOTES:
     dance-single:
     :
     Challenge:
     15:
     0.762,0.704,0.398,0.095,0.563: // measure 1
1000
0000
0100
1000
0100
0000
0010
0100
0010
0000
0001
0000
0001
0000
1000
0000
,  // measure 2
1000
0000
0010
1000
0010
0000
0100
0010
0100
0000
0001
0000
0001
0000
1000
0000
,  // measure 3
1000
0000
0100
1000
0100
0000
0010
0100
0010
0000
0001
0000
0001
0000
1000
0000
,  // measure 4
0001
0100
0000
0001
1000
0000
0001
0100
0000
0001
1000
0000
1001
0000
0000
0000
,  // measure 5
2000
0000
0010
3020
0000
0130
0001
0010
,  // measure 6
1000
0010
0001
2000
0000
3100
0010
0001
,  // measure 7
1000
0000
0100
1000
0010
0000
0010
0000
0110
0000
0000
0000
1001
0000
0000
0000
,  // measure 8
1000
0000
0100
1000
0010
0000
0010
0000
0110
0000
0000
0000
1001
0000
0000
0000
,  // measure 9
0001
0000
0010
0001
0010
0000
0100
0000
1000
0000
1000
0000
0010
0000
0100
0010
,  // measure 10
0100
0001
0100
1000
0100
0001
0010
0100
,  // measure 11
1000
0010
1000
0000
0001
0010
0001
0000
,  // measure 12
0100
0010
0000
0100
0001
0000
0100
0010
0000
0100
0001
0000
1001
0000
0000
0000
,  // measure 13
2000
0000
0100
3200
0000
0310
0001
1000
,  // measure 14
0100
0001
0100
2000
0000
3001
1000
0010
,  // measure 15
1000
0000
0001
0010
0100
0000
0100
0000
0110
0000
0000
0000
1001
0000
0000
0000
,  // measure 16
1000
0000
0001
0010
0100
0010
0100
0000
0110
0000
0000
0000
1001
0000
0000
0000
,  // measure 17
0001
0100
1000
0100
0101
1001
0000
1000
,  // measure 18
0001
1000
0100
0001
0100
1000
0100
0010
,  // measure 19
0001
0100
0010
0000
0100
0010
1000
0000
,  // measure 20
0100
0010
0000
0100
1000
0000
0100
0010
0000
0100
1000
0000
1001
0000
0000
0000
,  // measure 21
1000
0100
1000
0001
0100
1000
0001
0010
,  // measure 22
1000
0000
0001
0001
0100
0100
0001
0000
,  // measure 23
1000
0001
0010
1000
0001
0100
1000
0001
,  // measure 24
0010
0100
0010
0001
0100
0010
1000
0001
,  // measure 25
1001
0000
1000
1000
0010
0010
1000
0001
,  // measure 26
1001
0000
1000
1000
0010
0010
1000
0001
,  // measure 27
1001
0000
0010
0000
1001
0000
0011
0020
,  // measure 28
0000
0000
0030
1001
,  // measure 29
0001
0100
0001
0100
0001
0000
1000
0100
1000
0000
0010
0000
0001
0000
0010
0000
,  // measure 30
1000
0001
1000
0001
1000
0000
0001
0100
0001
0000
0100
0000
1000
0000
0100
0000
,  // measure 31
0001
1000
0100
0010
0100
1000
1001
0000
,  // measure 32
0001
0010
0000
0100
0010
0000
0001
0010
0000
0100
0010
0000
1001
0000
0000
0000
,  // measure 33
1000
0100
1000
0100
1000
0000
0001
0100
0001
0000
0100
0000
1000
0000
0100
0000
,  // measure 34
0001
1000
0001
1000
0001
0000
1000
0010
1000
0000
0100
0000
0001
0000
0100
0000
,  // measure 35
2000
0000
3100
0010
0001
0100
0110
0000
,  // measure 36
0010
1000
0000
0001
1000
0000
0010
1000
0000
0001
1000
0000
1001
0000
0000
0000
,  // measure 37
1000
0100
0000
1000
0100
0000
0010
0001
0000
0010
0001
0000
1000
0000
0000
0000
,  // measure 38
0100
1000
0000
1000
0001
0000
0001
0100
0000
0100
0010
0000
1001
0000
0000
0000
,  // measure 39
0001
0000
0100
0001
0000
0000
0100
0001
0000
0000
1000
0000
0000
0000
1000
0000
,  // measure 40
0100
0000
0010
0001
0000
0000
0010
0001
0000
0000
1000
0000
0000
0000
1000
0000
,  // measure 41
0010
0000
0100
0001
0000
0000
0100
0001
0000
0000
1000
0000
0000
0000
1000
0000
,  // measure 42
0100
1000
0000
0100
0010
0000
0100
1000
0000
0100
0010
0000
1001
0000
0000
0000
,  // measure 43
0001
0000
0010
0001
0010
0000
0100
0010
0100
0000
1000
0000
1000
0000
0001
0000
,  // measure 44
0001
0000
0100
0001
0100
0000
0010
0100
0010
0000
1000
0000
1000
0000
0001
0000
,  // measure 45
0001
0000
0010
0001
0010
0000
0100
0010
0100
0000
1000
0000
1000
0000
0001
0000
,  // measure 46
1000
0010
0000
0100
0010
0000
1000
0010
0000
0100
0010
0000
1001
0000
0000
0000
,  // measure 47
1000
0000
0001
0100
0010
0000
0100
0000
0001
0000
1000
0000
1100
0000
0000
0000
,  // measure 48
0110
0000
0110
0000
0000
0000
0010
0001
1000
0000
1000
0000
0100
0000
0100
0000
,  // measure 49
0010
0000
0001
0100
0010
0000
0100
0000
0110
0000
0000
0000
1001
0000
0000
0000
,  // measure 50
0000
0000
1000
0000
1010
0000
1001
0000
0000
0000
0001
0000
1000
0010
0100
0000
,  // measure 51
0001
0010
0001
0011
0000
0110
0110
0000
,  // measure 52
0100
0010
1000
0000
1000
0000
0001
0000
0001
0000
0100
0000
0010
0100
0010
0100
,  // measure 53
0010
0000
1000
0001
1000
0001
1000
0000
0001
0000
0010
0001
0000
0100
0010
0000
,  // measure 54
1000
0100
0000
1000
0001
0000
0010
0001
0010
0000
1100
0000
0100
0000
0110
0000
,  // measure 55
0010
0011
0001
1001
1000
1010
0010
0010
,  // measure 56
0010
0000
0100
0010
0100
0010
0000
0000
0000
0000
2002
0000
0000
0000
0000
0000
,  // measure 57
0000
0000
0000
0000
0000
0000
0000
0000
3003
0000
0000
0000
1000
0100
0010
0100
,  // measure 58
1000
0000
0010
0100
0010
0100
0001
0000
1000
0000
0100
0000
0010
0001
0100
0001
,  // measure 59
0010
0000
0100
1000
0100
1000
0010
0000
0100
0000
0001
0000
1000
0010
0100
0010
,  // measure 60
1000
0000
0010
0100
0010
0100
0001
0000
1001
0000
0000
0000
1000
0010
0000
0100
,  // measure 61
0010
0000
0100
0001
0000
1000
0001
0000
1001
0000
0000
0000
1000
0001
0100
0001
,  // measure 62
1000
0000
0100
0010
0100
0010
0001
0000
0100
0000
0001
0000
0010
0100
1000
0100
,  // measure 63
0010
0000
0001
0100
0001
0100
0010
0000
1000
0000
0000
0000
0100
0010
0001
0010
,  // measure 64
0100
0000
1000
0010
1000
0010
0100
0000
0110
0000
0000
0000
0010
1000
0000
0100
,  // measure 65
0010
0000
0001
1000
0000
0100
0010
0000
1001
0000
0000
0000
0100
0001
0000
0100
,  // measure 66
0001
0000
1000
0010
0000
1000
0010
0000
0100
0000
0000
0000
0001
0100
0000
0100
,  // measure 67
1000
0000
1000
0100
0000
0100
0001
0000
1000
0000
0010
0100
0002
0000
0000
0000
,  // measure 68
0000
0000
0000
0003
;

//---------------dance-single - ----------------
#NOTES:
     dance-single:
     :
     Beginner:
     2:
     0.110,0.144,0.121,0.000,0.000: // measure 1
1000
0000
0000
0000
,  // measure 2
0100
0000
0000
0000
,  // measure 3
0010
0000
0000
0000
,  // measure 4
1001
0000
0000
0000
,  // measure 5
1000
0000
0000
0000
,  // measure 6
0001
0000
0000
0000
,  // measure 7
0100
0000
0000
0000
,  // measure 8
0001
0000
0000
0000
,  // measure 9
1000
0000
0000
0000
,  // measure 10
0100
0000
0000
0000
,  // measure 11
0010
0000
0000
0000
,  // measure 12
1001
0000
0000
0000
,  // measure 13
0001
0000
0000
0000
,  // measure 14
0100
0000
0000
0000
,  // measure 15
0010
0000
0000
0000
,  // measure 16
0100
0000
0000
0000
,  // measure 17
0001
0000
1000
0000
,  // measure 18
0001
0000
0000
0000
,  // measure 19
0010
0000
0000
0000
,  // measure 20
0110
0000
0000
0000
,  // measure 21
1001
0000
0000
0000
,  // measure 22
1000
0000
0000
0000
,  // measure 23
0001
0000
0000
0000
,  // measure 24
0001
0000
0000
0000
,  // measure 25
1001
0000
0000
0000
,  // measure 26
1000
0000
0000
0000
,  // measure 27
0001
0000
1000
0000
,  // measure 28
0001
0000
0000
0000
,  // measure 29
1000
0000
0100
0000
,  // measure 30
1000
0000
0100
0000
,  // measure 31
0010
0000
0000
0000
,  // measure 32
0001
0000
0000
0000
,  // measure 33
0100
0000
0001
0000
,  // measure 34
0100
0000
0001
0000
,  // measure 35
1000
0000
0000
0000
,  // measure 36
1000
0000
0000
0000
,  // measure 37
1001
0000
0000
0000
,  // measure 38
1001
0000
0000
0000
,  // measure 39
0001
0000
0000
0000
,  // measure 40
0001
0000
0000
0000
,  // measure 41
0001
0000
0000
0000
,  // measure 42
1001
0000
0000
0000
,  // measure 43
0001
0000
0000
0000
,  // measure 44
0010
0000
0000
0000
,  // measure 45
0100
0000
0000
0000
,  // measure 46
1001
0000
0000
0000
,  // measure 47
1000
0000
0000
0000
,  // measure 48
0010
0000
0000
0000
,  // measure 49
0100
0000
0000
0000
,  // measure 50
0001
0000
0000
0000
0000
1000
0000
0000
,  // measure 51
0000
0000
0000
0000
0000
0001
0000
0000
,  // measure 52
0000
0000
0000
0000
0000
0010
0000
0000
,  // measure 53
0000
0000
0000
0000
0000
0100
0000
0000
,  // measure 54
0000
0000
0000
0000
0000
0100
0000
0000
,  // measure 55
0000
0000
0000
0000
0000
0100
0000
0000
,  // measure 56
0000
0000
0000
0000
0000
0110
0000
0000
,  // measure 57
0000
0000
0000
1001
,  // measure 58
0000
0000
0000
1000
,  // measure 59
0000
0000
0000
0001
,  // measure 60
0000
0000
0000
0010
,  // measure 61
0000
0000
0000
0100
,  // measure 62
0000
0000
0000
1000
,  // measure 63
0000
0000
0000
0001
,  // measure 64
0000
1000
0000
0001
,  // measure 65
0000
0000
0000
1001
,  // measure 66
0000
0000
0000
0110
,  // measure 67
0000
0000
0000
0110
;
