#TITLE:流れ星ソニック;
#SUBTITLE:;
#ARTIST:マッカチン企画 feat.sisi;
#TITLETRANSLIT:NAGAREBOSHI SONIC;
#SUBTITLETRANSLIT:;
#ARTISTTRANSLIT:MAKKACHIN KIKAKU feat.sisi;
#CREDIT:DigiMindAxel;
#BANNER:NAGAREBOSHI SONIC.png;
#BACKGROUND:NAGAREBOSHI SONIC-bg.png;
#LYRICSPATH:NAGAREBOSHI SONIC.lrc;
#CDTITLE:pop'n music.png;
#MUSIC:NAGAREBOSHI SONIC.ogg;
#METERTYPE:DDR X;
#OFFSET:-11.240;
#SAMPLESTART:76.144;
#SAMPLELENGTH:12.000;
#SELECTABLE:YES;
#BPMS:0.000=172.000,2.000=186.000;
#STOPS:200.000=0.968
;
#BGCHANGES:;

//---------------dance-single - ----------------
#NOTES:
     dance-single:
     :
     Easy:
     5:
     0.204,0.260,0.058,0.050,0.000:
0000
0000
0000
0000
,
1001
0000
1000
0000
,
0001
0000
1000
0000
,
0100
0000
1000
0000
,
0100
0000
1000
0000
,
0010
0000
0100
0000
,
0010
0000
0100
0000
,
0001
0000
1000
0000
,
1001
0000
0000
0000
,
0001
0000
0100
0001
,
0100
0000
0001
0000
,
1000
0100
1000
0000
,
0010
0000
0100
0000
,
0001
1000
0001
0000
,
1000
0100
1000
0000
,
0001
1000
0001
0000
,
0100
0001
0100
0001
,
1000
0000
0000
0000
,
1000
0000
0000
0000
,
0001
0000
0000
0000
,
0001
0000
0000
0000
,
1000
0000
0000
0000
,
1000
0000
0000
0000
,
0001
0000
0000
0000
,
1001
0000
0000
0000
,
0010
0000
0100
0000
,
0010
0000
0100
0000
,
1000
0000
0010
0000
,
1000
0000
0010
0000
,
1000
0000
0001
0000
,
1000
0000
0001
0000
,
0010
0000
0001
0000
,
0010
0000
0001
0000
,
0200
0000
0000
0000
,
0300
0000
0000
0000
,
0020
0000
0000
0000
,
0030
0000
0000
0000
,
2000
0000
0000
0000
,
3000
0000
0000
0000
,
0002
0000
0000
0000
,
0003
0000
0000
0000
,
1000
0000
0001
0000
,
1000
0000
0001
0000
,
0100
0000
0010
0000
,
0100
0000
0010
0000
,
1000
0000
0100
0000
,
0010
0000
0001
0000
,
1000
0000
0100
0000
,
0010
0000
0001
0000
,
1000
0001
1000
0001
,
1000
1001
0000
0001
,
0100
0001
1000
0100
,
0000
0010
0000
0001
,
0100
0010
0100
0001
,
0000
1000
0000
0100
,
0000
0010
0000
0001
,
0000
1000
0010
1000
,
0001
0010
0000
0100
,
0000
1000
0001
0100
,
0001
1000
0000
0100
,
0000
0010
0001
0100
,
0010
1000
0000
0100
,
0000
0010
0001
0010
,
0001
0100
0000
0010
,
0000
1000
0000
0100
,
0010
0001
0000
1000
,
0000
0100
1000
0100
,
1000
0010
0000
0100
,
0000
0001
0100
0001
,
1000
0100
0000
0010
,
0000
0001
0100
0001
,
0100
0010
0000
1000
,
0000
0100
0010
0100
,
0010
0001
0000
1000
,
0000
1001
0000
0000
,
0000
1001
0000
0000
,
0000
0220
0000
0000
,
0000
0000
0000
0000
,
0000
0330
0000
0000
;

//---------------dance-single - ----------------
#NOTES:
     dance-single:
     :
     Medium:
     8:
     0.415,0.422,0.091,0.149,0.000:
0000
2002
3003
0000
,
1001
0001
0001
0001
,
0010
0010
0010
0010
,
0001
0001
0001
0001
,
0100
0100
0100
0100
,
0010
0010
0010
0010
,
1000
1000
1000
1000
,
0001
0001
0001
0001
,
1000
0000
0000
0010
0000
0110
0000
1001
,
0000
0100
0001
1000
,
0100
0010
0100
1000
,
0001
0100
0001
1000
,
0100
0010
0001
0010
,
0100
1000
0010
0100
,
0010
1000
0100
1000
,
0010
0100
0001
1000
,
0001
1000
0001
0000
1000
0001
1000
0000
,
0100
0010
0002
0000
0100
0000
0000
0000
,
0010
0000
0103
0000
,
0010
1000
0200
0000
0010
0000
0000
0000
,
0001
0000
0310
0000
,
1000
0001
0020
0000
0100
0000
0000
0000
,
1000
0000
0130
0000
,
0001
1000
0020
0000
0100
0000
0000
0000
,
0230
0001
0001
0301
,
1000
0100
1000
0000
0001
1000
0001
0000
,
0010
0100
0010
0001
,
0100
0001
0100
0000
0010
0100
0010
0000
,
1000
0100
0010
0100
,
1000
0001
1000
0000
0001
0100
0001
0000
,
0010
0100
1000
0100
,
0010
0001
0010
0000
0001
1000
0001
0000
,
0100
0010
1000
0010
,
0100
0001
0010
0000
0000
0000
0100
1000
,
0010
0000
0100
0001
,
0010
0100
1000
0000
0000
0000
0001
0010
,
0100
1000
0001
0000
,
0100
0001
0010
0000
0000
0000
0100
1000
,
0010
0100
0001
0000
,
1000
0100
0010
0000
0000
0000
0100
0010
,
0001
1000
0010
1000
,
0100
0010
0100
0010
,
0001
0100
0001
0100
,
0001
1000
0001
1000
,
0100
1000
0100
1000
,
0001
0100
0001
0100
,
0001
1000
0001
1000
,
0001
0000
1000
0010
0000
1000
0000
0010
,
0000
0100
0000
0001
0000
0020
0000
0000
,
0130
1000
0001
0100
,
0110
0000
1001
0000
0001
0100
0001
0000
,
0100
0020
0000
0000
1000
0000
1030
0000
,
0001
0100
0001
0000
1000
0100
0010
0000
,
0001
2000
0000
0000
0100
0000
3100
0000
,
0010
0000
0001
0100
0001
0000
0100
0010
,
0000
1000
0100
0010
,
0100
0000
1000
0010
1000
0000
0001
1000
,
0001
0010
0100
1000
,
0001
0100
0001
0000
0010
0100
1000
0000
,
0001
0200
0000
0000
0010
0000
0310
0000
,
1000
0010
1000
0000
0100
0010
0001
0000
,
0100
0020
0000
0000
1000
0000
1030
0000
,
0001
0000
0100
0010
0100
0000
0001
0100
,
0001
0100
0010
1000
,
0010
0100
0000
0001
,
1000
0100
1000
0000
0001
1000
0001
0000
,
0010
0000
1100
0000
1000
0010
1000
0000
,
0001
0020
0000
0000
0100
0000
0130
0000
,
1000
0000
0101
0000
0001
1000
0001
0000
,
1000
0200
0000
0000
0010
0000
0310
0000
,
0001
0000
0110
0000
0100
1000
0100
0000
,
0010
0001
0100
0000
0010
0100
0010
0000
,
1000
0100
0010
0000
0010
0000
0001
0000
,
0001
0100
0000
0010
,
1000
2002
0000
0000
,
0003
0000
0100
0000
0000
0100
0000
0000
,
3100
0220
0000
0000
,
0000
0000
0000
0000
,
0000
0330
0000
0000
;

//---------------dance-single - ----------------
#NOTES:
     dance-single:
     :
     Hard:
     10:
     0.525,0.552,0.249,0.257,0.000: // measure 1
0000
0000
0000
0000
,  // measure 2
1001
0000
1000
0000
1000
0100
0010
0001
,  // measure 3
0100
0000
0100
0000
0100
0001
0010
0100
,  // measure 4
1000
0000
1000
0000
1000
0010
0100
0001
,  // measure 5
0010
0000
0010
0000
0010
0001
1000
0010
,  // measure 6
0100
0000
0100
0000
0100
0001
0010
0100
,  // measure 7
1000
0000
1000
0000
1000
0010
0100
0001
,  // measure 8
0010
0000
0010
0000
0010
0100
1000
0001
,  // measure 9
0100
0010
0100
0110
0000
0110
0000
1001
,  // measure 10
0000
0001
1000
0100
2000
0000
3010
0100
,  // measure 11
0010
0000
1000
0010
0200
0000
0301
1000
,  // measure 12
0001
0000
0100
0010
2000
0000
3100
0010
,  // measure 13
0100
0000
1000
0001
0020
0000
0130
1000
,  // measure 14
0100
0000
1000
0010
0200
0000
0301
1000
,  // measure 15
0001
0000
0010
0100
1000
0000
0001
0000
,  // measure 16
1001
0000
0001
0100
0001
0100
0010
1000
,  // measure 17
0010
1000
0001
0000
0001
0100
0010
1000
,  // measure 18
0001
0001
1000
2000
0000
0000
0100
0000
,  // measure 19
0000
0100
0000
3100
,  // measure 20
0010
0010
0001
0002
0000
0000
0100
0000
,  // measure 21
0000
0100
0000
0103
,  // measure 22
0010
0010
1000
2000
0000
0000
0001
0000
,  // measure 23
0000
0001
0000
3001
,  // measure 24
1000
1000
0010
0020
0000
0000
0100
0000
,  // measure 25
0130
0000
1001
0000
0002
1000
0000
1003
,  // measure 26
0001
0010
0100
0000
0010
0001
1000
0000
,  // measure 27
0100
0010
0001
0000
0100
0010
1000
0000
,  // measure 28
0001
0100
1000
0000
0100
0010
1000
0000
,  // measure 29
0001
0010
1000
0000
0010
0100
1000
0000
,  // measure 30
0001
1000
0010
0000
0001
0010
0100
0000
,  // measure 31
0001
1000
0100
0000
1000
0001
0100
0000
,  // measure 32
0001
0010
1000
0000
0010
0100
1000
0000
,  // measure 33
0001
0100
0001
1000
0100
0010
0100
0000
,  // measure 34
1000
0001
0000
0000
0000
0000
0200
0001
,  // measure 35
0000
0301
1000
0000
0100
0000
0010
0000
,  // measure 36
0001
1000
0000
0000
0000
0000
0200
0010
,  // measure 37
0000
0310
0001
0000
0010
0000
0100
0000
,  // measure 38
1000
0001
0000
0000
0000
0000
0200
0001
,  // measure 39
0000
0301
1000
0000
0100
0000
0010
0000
,  // measure 40
0001
0100
0000
0000
0001
0000
1000
0010
,  // measure 41
1000
0010
0100
0010
0100
0010
1000
0000
,  // measure 42
2001
0100
0001
0100
,  // measure 43
3002
0000
1000
0000
0010
0000
1003
0001
,  // measure 44
2000
0100
0001
0100
,  // measure 45
3002
0100
0010
0103
,  // measure 46
1001
0000
0001
0000
0010
0100
1000
0000
,  // measure 47
0100
0000
0100
0000
1000
0010
0100
0000
,  // measure 48
1001
0000
0001
0101
0000
0100
0000
0110
,  // measure 49
0000
0010
0000
1010
0000
2000
0000
0000
,  // measure 50
3001
0010
0100
0010
0001
0010
0100
0000
,  // measure 51
1010
0000
1001
0000
0001
0100
0000
0001
,  // measure 52
0010
0200
0000
0000
1000
1300
0000
0000
,  // measure 53
0001
0000
0100
0000
0010
1000
0000
0001
,  // measure 54
0010
0200
0000
0000
0010
0310
0000
0000
,  // measure 55
0001
0000
1001
0000
1000
0001
0100
0001
,  // measure 56
0000
0020
0000
0000
0130
0000
1000
0100
,  // measure 57
1000
1001
0100
0010
,  // measure 58
0001
0000
1000
0010
0100
0010
1000
0100
,  // measure 59
0010
0000
1001
0000
1000
0010
0000
1000
,  // measure 60
0100
0020
0000
0000
0100
0130
0000
0000
,  // measure 61
1000
0000
0001
0000
0100
0010
0000
1000
,  // measure 62
0100
0020
0000
0000
0100
0130
0000
0000
,  // measure 63
1000
0000
1001
0000
0001
0000
0100
0020
,  // measure 64
0000
2030
0000
0000
3001
1000
0100
0010
,  // measure 65
0100
1001
0010
0100
,  // measure 66
1000
0000
1001
0000
0001
0100
0010
1000
,  // measure 67
0001
0000
1001
0000
1000
0001
0010
0001
,  // measure 68
1000
0200
0000
0000
0010
0310
0001
0000
,  // measure 69
1000
0000
1001
0000
0001
1000
0010
1000
,  // measure 70
0001
0200
0000
0000
0010
0310
1000
0000
,  // measure 71
0001
0000
1001
0000
1000
0000
0100
0010
,  // measure 72
0001
0010
0100
0000
2000
0000
0010
0000
,  // measure 73
3010
0110
1001
0110
,  // measure 74
1001
0000
0001
1000
0000
0001
1000
0100
,  // measure 75
0010
0001
0200
0000
0000
0000
0010
0000
,  // measure 76
0000
0000
0310
0000
0000
1100
0000
0000
,  // measure 77
0011
2002
0000
0000
,  // measure 78
0000
0000
0000
0000
,  // measure 79
0000
3003
0000
0000
;

//---------------dance-single - ----------------
#NOTES:
     dance-single:
     :
     Beginner:
     1:
     0.070,0.097,0.033,0.000,0.000:
0000
0000
0000
0000
,
1000
0000
0000
0000
,
0000
0000
0000
0000
,
0001
0000
0000
0000
,
0000
0000
0000
0000
,
1000
0000
0000
0000
,
0000
0000
0000
0000
,
0001
0000
0000
0000
,
1000
0000
0000
0001
,
0000
0000
0000
0000
,
0010
0000
0000
0000
,
0100
0000
0000
0000
,
1000
0000
0000
0000
,
0001
0000
0000
0000
,
0010
0000
0000
0000
,
0001
0000
0000
0000
,
0000
0000
0000
0000
,
1001
0000
0000
0000
,
0000
0000
0000
0000
,
1000
0000
0000
0000
,
0000
0000
0000
0000
,
1000
0000
0000
0000
,
0000
0000
0000
0000
,
1000
0000
0000
0000
,
0000
0000
0000
0000
,
0001
0000
0000
0000
,
0000
0000
0000
0000
,
0100
0000
0000
0000
,
0000
0000
0000
0000
,
0010
0000
0000
0000
,
0000
0000
0000
0000
,
1000
0000
0000
0000
,
0000
0000
0000
0000
,
0001
0000
0000
0000
,
0000
0000
0000
0000
,
0010
0000
0000
0000
,
0000
0000
0000
0000
,
0001
0000
0000
0000
,
0000
0000
0000
0000
,
1000
0000
0000
0000
,
0000
0000
0000
0000
,
0001
0000
0000
0000
,
0010
0000
0000
0000
,
0001
0000
0000
0000
,
0010
0000
0000
0000
,
0001
0000
0000
0000
,
1000
0000
0000
0000
,
0001
0000
0000
0000
,
0000
0000
0000
0000
,
1000
0000
0000
0000
,
0001
1000
0000
0000
,
0100
0000
0000
0000
,
0000
1000
0000
0000
,
0000
0100
0000
0000
,
0000
0010
0000
0000
,
0000
0100
0000
0000
,
0000
0010
0000
0000
,
0000
0000
0000
0000
,
0000
0001
0000
0000
,
0000
0100
0000
0000
,
0000
0001
0000
0000
,
0000
0100
0000
0000
,
0000
0010
0000
0000
,
0000
0100
0000
0000
,
0000
0010
0000
0000
,
0000
1000
0000
0000
,
0000
1001
0000
0000
,
0000
0000
0000
0000
,
0000
1001
0000
0000
,
0000
0000
0000
0000
,
0000
0001
0000
0000
,
0000
0000
0000
0000
,
0000
1000
0000
0000
,
0000
0000
0000
0000
,
0000
0100
0000
0000
,
0000
0000
0000
0000
,
0000
0010
0000
0000
,
0000
0000
0000
0000
,
0000
0110
0000
0000
;
