#TITLE:Mother Ship;
#SUBTITLE:(Camellia's "KABOOOOOOOM!!" Remix);
#ARTIST:かめりあ;
#TITLETRANSLIT:;
#SUBTITLETRANSLIT:;
#ARTISTTRANSLIT:Camellia;
#CREDIT:DigiMindAxel;
#BANNER:Mother Ship (Camellia's ''KABOOOOOOOM!!'' Remix).png;
#BACKGROUND:Mother Ship (Camellia's ''KABOOOOOOOM!!'' Remix)-bg.png;
#LYRICSPATH:;
#CDTITLE:Konami original REMIX.png;
#MUSIC:Mother Ship (Camellia's ''KABOOOOOOOM!!'' Remix).ogg;
#METERTYPE:DDR X;
#OFFSET:-11.936;
#SAMPLESTART:77.196;
#SAMPLELENGTH:12.000;
#SELECTABLE:YES;
#BPMS:0.000=147.000,144.000=73.500,144.500=147.000,191.500=73.500,192.000=147.000,210.000=73.500,210.500=147.000,213.500=73.500,214.000=147.000,217.000=73.500,217.500=147.000;
#STOPS:;
#BGCHANGES:;

//---------------dance-single - ----------------
#NOTES:
     dance-single:
     :
     Easy:
     5:
     0.225,0.242,0.060,0.143,0.000: // measure 1
2002
0000
0000
0000
,  // measure 2
3003
0000
0000
0000
,  // measure 3
0220
0000
0000
0000
,  // measure 4
0330
0000
0000
0000
,  // measure 5
2002
0000
0000
0000
,  // measure 6
3003
0000
0000
0000
,  // measure 7
0220
0000
0000
0000
,  // measure 8
0330
0000
0000
0000
,  // measure 9
1001
1000
1000
0000
,  // measure 10
0001
0001
0001
0000
,  // measure 11
1000
1000
1000
0000
,  // measure 12
0001
0001
0001
0000
,  // measure 13
0100
0010
0100
0010
,  // measure 14
1000
0100
1000
0100
,  // measure 15
1000
0001
1000
0001
,  // measure 16
0100
0001
0100
0001
,  // measure 17
0010
0000
0100
0000
,  // measure 18
1000
0000
0001
0000
,  // measure 19
0100
0010
1000
0010
,  // measure 20
0200
0000
0000
0000
,  // measure 21
0310
0000
0000
0000
,  // measure 22
0000
0000
0000
0000
,  // measure 23
2002
0000
0000
0000
,  // measure 24
0000
0000
3003
0000
,  // measure 25
0001
0100
0001
0000
,  // measure 26
1000
0100
0010
0000
,  // measure 27
0001
0100
0001
0000
,  // measure 28
0010
0100
1000
0000
,  // measure 29
0010
0100
0010
0000
,  // measure 30
0100
0001
0010
0000
,  // measure 31
0001
1000
0001
0000
,  // measure 32
0200
0000
0000
0300
,  // measure 33
0110
0010
1000
0000
,  // measure 34
0100
0010
0001
0000
,  // measure 35
1000
0010
0100
0000
,  // measure 36
0001
0010
0100
0000
,  // measure 37
0010
0001
0000
0010
0000
0001
0000
0100
,  // measure 38
0000
0010
0000
0100
0000
0000
0000
0010
,  // measure 39
0000
1000
0000
0010
0000
1000
0000
0002
,  // measure 40
0000
0000
0000
0000
0000
0000
0000
1003
,  // measure 41
0000
0100
0000
0010
0000
0000
0000
0100
,  // measure 42
0000
0010
0000
0001
0000
0000
0000
1000
,  // measure 43
0000
0100
0000
0010
0000
0000
0000
0100
,  // measure 44
0000
0010
0000
0001
0000
0000
0000
1000
,  // measure 45
0000
0010
0000
0100
0000
0000
0000
0010
,  // measure 46
0000
0100
0000
0001
0000
0000
0000
1000
,  // measure 47
0000
0010
0000
0100
0000
0000
0000
0010
,  // measure 48
0000
0100
0000
0001
0000
0000
0000
1000
,  // measure 49
0100
1000
0001
1000
,  // measure 50
0000
0100
0000
0010
,  // measure 51
0001
0100
0001
0010
,  // measure 52
0000
0100
0000
1000
,  // measure 53
0010
0000
0100
0000
0000
0001
0000
0010
,  // measure 54
0000
0100
0000
0000
0010
0000
0001
0000
,  // measure 55
0100
0000
0000
0010
0000
1000
0000
0001
,  // measure 56
0000
0000
0000
1001
0000
1000
0000
0001
,  // measure 57
0000
1000
0000
0100
0000
1000
0000
0100
,  // measure 58
0000
1000
0000
0010
0000
0100
0000
0010
,  // measure 59
0000
0100
0000
0001
0000
0010
0000
0001
,  // measure 60
0000
0000
0000
1000
0000
0001
0000
1000
,  // measure 61
0000
0001
0000
0100
0000
0001
0000
0100
,  // measure 62
0000
0001
0000
1000
0000
0100
0000
1000
,  // measure 63
0000
0000
0000
0010
0000
0100
0000
0010
,  // measure 64
0000
0100
0000
0001
0000
1000
0000
0100
,  // measure 65
0000
0000
0000
1000
0000
0100
0000
0010
,  // measure 66
0000
0000
0000
0002
0000
0000
0000
1003
,  // measure 67
0000
0000
0000
0020
0000
0000
0000
0130
,  // measure 68
0000
0000
0000
0002
0000
0000
0000
1003
,  // measure 69
0000
0000
0000
0200
0000
0000
0000
0000
,  // measure 70
0000
0000
0000
0320
0000
0000
0000
0000
,  // measure 71
0000
0000
0000
0230
0000
0000
0000
0000
,  // measure 72
0000
0000
0000
0300
0000
0000
0000
0000
;

//---------------dance-single - ----------------
#NOTES:
     dance-single:
     :
     Medium:
     9:
     0.410,0.457,0.173,0.105,0.034: // measure 1
2002
0000
0000
0000
,  // measure 2
3003
0000
0000
0000
,  // measure 3
1001
0000
0000
0000
0000
0001
0000
1000
0000
0000
0001
0000
0000
0000
0000
0000
,  // measure 4
0000
0000
0000
0000
0000
0000
0000
0000
0000
0000
0000
0100
0000
0010
0000
0000
,  // measure 5
0220
0000
0000
0000
,  // measure 6
0330
0000
0000
0000
,  // measure 7
1001
0000
0000
0000
0000
0001
0000
1000
0000
0000
0001
0000
0000
0000
0010
0000
,  // measure 8
0000
0100
0000
1000
0000
0002
0000
0000
,  // measure 9
1003
0010
0100
0010
,  // measure 10
1000
0010
0100
0001
,  // measure 11
1000
0100
1000
0001
,  // measure 12
1000
0000
0100
0000
1000
0000
0001
1000
,  // measure 13
0001
0100
0001
0000
0100
0010
0100
0000
,  // measure 14
0001
1000
0001
0000
1000
0100
1000
0000
,  // measure 15
0010
0100
0010
0000
1000
0001
1000
0000
,  // measure 16
0001
0100
0001
0100
0010
1000
0010
0000
,  // measure 17
1000
0100
0010
0000
0001
0010
0100
0000
,  // measure 18
1000
0100
0010
0000
0001
0010
0100
0000
,  // measure 19
1000
0010
1000
0010
0100
0001
0100
0001
,  // measure 20
2000
0000
0000
3000
,  // measure 21
2002
0000
0000
0000
,  // measure 22
0000
0000
3003
0000
,  // measure 23
0220
0000
0000
0000
,  // measure 24
0000
0000
0330
0000
,  // measure 25
1000
0000
1001
0000
0001
0100
0010
0100
,  // measure 26
0001
0000
0010
0000
0100
1000
0100
1000
,  // measure 27
0010
0000
0110
0000
0100
0001
0010
0001
,  // measure 28
0100
0000
0010
0000
1000
0001
1000
0001
,  // measure 29
0010
0000
0110
0000
0100
1000
0010
1000
,  // measure 30
0100
0000
0010
0000
0001
1000
0001
1000
,  // measure 31
0100
0000
0000
0000
0110
0000
0000
0000
0010
0000
0001
0000
0100
0000
0000
0102
,  // measure 32
0000
0000
0000
0000
0000
0000
0000
0000
1003
0000
0000
1000
0000
0000
1000
0000
,  // measure 33
0001
0000
1001
0000
0001
0100
1000
0100
,  // measure 34
0001
0000
0010
0000
0100
0010
0001
0010
,  // measure 35
0100
0000
1001
0000
1000
0010
0001
0010
,  // measure 36
1000
0000
0100
0000
0010
0100
1000
0100
,  // measure 37
0010
0001
0100
0010
0000
0010
0000
0100
,  // measure 38
0010
1000
0000
1000
0001
0010
0001
1000
,  // measure 39
0000
1001
0000
0001
0100
0010
0010
0020
,  // measure 40
0000
0000
0000
0000
0000
0000
0000
0130
,  // measure 41
0001
0100
0001
1000
0100
0010
0000
0001
,  // measure 42
1000
0010
0000
1000
0001
0010
0000
0100
,  // measure 43
1000
0100
1000
0001
0100
0010
0000
0100
,  // measure 44
0001
1000
0000
0100
1000
0001
0000
0010
,  // measure 45
0100
1000
0001
0010
0100
1000
0000
0010
,  // measure 46
0100
0001
1000
0010
0100
0001
0000
0010
,  // measure 47
0100
1000
0001
0010
0100
1000
0000
0010
,  // measure 48
0100
0000
0001
0000
1000
0000
0010
0000
0000
0100
0000
0000
0001
0000
1000
0000
,  // measure 49
1001
0000
0001
0100
0010
0100
0001
1000
,  // measure 50
0100
0000
1000
0001
0100
0000
0010
0000
,  // measure 51
1000
0000
0100
0010
0001
0010
0100
1000
,  // measure 52
0001
0000
0100
0001
1000
0000
0100
0010
,  // measure 53
0100
1000
0010
0000
0110
0100
0001
0010
,  // measure 54
0001
1000
0000
1001
0001
0100
0010
1000
,  // measure 55
0100
0000
1100
2001
0000
0000
0000
3020
,  // measure 56
0000
0000
0000
0130
0000
1001
0000
0001
,  // measure 57
1000
0100
1000
0001
0000
0100
0000
1000
,  // measure 58
0100
0001
0000
1000
0000
1001
0000
0001
,  // measure 59
0100
0010
0100
0001
0000
0010
0000
1000
,  // measure 60
0010
0001
0000
1000
0000
1001
0000
0001
,  // measure 61
0010
0100
0010
0001
0000
0100
0000
1000
,  // measure 62
0100
0001
0000
1000
0000
1001
0000
0001
,  // measure 63
0010
0100
1000
0001
0000
0100
0000
1000
,  // measure 64
0100
0001
0000
1000
0000
1000
0000
0001
,  // measure 65
0000
0001
0000
0010
0000
0100
0000
1000
,  // measure 66
0000
0001
0000
0100
0000
0100
0000
0010
,  // measure 67
0000
0010
0000
1000
0000
1000
0000
0001
,  // measure 68
0000
0001
0000
0010
0000
0010
0000
0100
,  // measure 69
0000
0100
0000
1000
0000
0010
0000
0100
,  // measure 70
0000
0001
0000
0010
0000
0100
0000
1000
,  // measure 71
0000
0001
0000
0100
0000
0010
0000
1000
,  // measure 72
0000
0100
0000
0010
0000
0000
0000
0000
;

//---------------dance-single - ----------------
#NOTES:
     dance-single:
     :
     Hard:
     12:
     0.550,0.618,0.151,0.294,0.324: // measure 1
2002
0000
0000
0000
,  // measure 2
0000
0000
0000
3003
,  // measure 3
0102
0000
0000
0000
0000
1000
0000
1000
0000
0000
2000
0000
0000
0000
0000
0000
,  // measure 4
0000
0000
0000
0000
0000
0000
3003
0000
0000
0000
0000
0010
0000
0100
0000
0000
,  // measure 5
0202
0000
0000
0000
,  // measure 6
0000
0000
0000
0303
,  // measure 7
2001
0000
0000
0000
0000
0100
0000
0100
0000
0000
3100
0000
0000
0000
1100
0000
,  // measure 8
0000
0110
0000
0011
0000
1002
0000
0000
,  // measure 9
1003
0010
0010
0100
0100
0001
1000
0000
,  // measure 10
0001
0100
0100
0010
0010
1000
0100
0000
,  // measure 11
0010
0001
0001
1000
1000
0010
0100
0000
,  // measure 12
0001
0000
1000
0000
1000
0000
0100
0000
0100
0000
0000
0010
0001
0000
0100
0000
,  // measure 13
0010
1000
0100
0001
0100
1000
0001
0000
,  // measure 14
0010
0001
0100
1000
0100
0001
0010
0000
,  // measure 15
0100
1000
0010
0001
0010
1000
0001
0000
,  // measure 16
0010
1000
0010
0001
1000
0100
0010
0001
,  // measure 17
0100
0000
0001
1000
0001
0000
0100
0000
0010
0000
1000
0001
1000
0000
0100
0000
,  // measure 18
0010
0000
0001
0100
0001
0000
1000
0000
0100
0000
0010
0001
0010
0000
0001
0000
,  // measure 19
0100
0000
0000
0100
0010
0000
0000
0100
0010
0000
0000
0100
0010
0000
0000
0100
,  // measure 20
0010
0010
1000
1000
0001
0001
0100
0100
,  // measure 21
2002
0000
0000
0000
,  // measure 22
0000
0000
3003
0000
,  // measure 23
2002
0000
0000
3000
,  // measure 24
0100
0100
0103
0000
,  // measure 25
1020
0000
0000
0000
0130
0000
0001
0000
0000
0010
0000
0000
0100
0010
0001
0000
,  // measure 26
2000
0000
0000
0000
3010
0000
0000
1000
0001
0000
0010
0000
0100
0000
0010
0000
,  // measure 27
0002
0000
0000
0000
1003
0000
0010
0000
0000
0100
0000
0000
0001
1000
0100
0000
,  // measure 28
0020
0000
0000
0000
0031
0000
0000
0001
0100
0000
0010
0000
0100
0010
0100
0000
,  // measure 29
0002
0000
0000
0000
1003
0000
0010
0000
0000
0100
0000
0000
0001
0010
0100
0000
,  // measure 30
0020
0000
0000
0000
0031
0000
0000
0001
1000
0000
0010
0000
0100
0000
0010
0000
,  // measure 31
2000
0000
0000
0000
3100
0000
0010
0000
0000
0001
0000
0000
0100
0010
0000
2020
,  // measure 32
0000
0000
0000
0000
0000
0000
3030
0000
1001
0000
0000
1001
0000
0000
1001
0000
,  // measure 33
0001
0000
0100
0000
0010
0000
0100
0000
0001
1000
0100
0000
0010
0100
0010
0000
,  // measure 34
0001
0000
1000
0000
0010
0000
1000
0000
0001
0000
0010
0100
1000
0000
1000
0000
,  // measure 35
0001
0000
0100
0000
1000
0000
0100
0000
0001
0010
0100
0000
0010
0001
1000
0000
,  // measure 36
0200
0000
0010
0000
0010
0000
0310
0000
0001
0000
1000
0100
0000
0000
0100
0000
,  // measure 37
0010
0000
1001
0000
0001
0000
0100
0000
0010
1000
0000
0000
0001
0000
0100
0000
,  // measure 38
0010
1000
0000
0000
0001
0000
0100
0000
0010
1000
0000
0000
0100
0000
0010
0000
,  // measure 39
0010
0000
0110
0000
0000
0000
0001
0000
0010
0100
1000
0010
1000
0010
2000
0000
,  // measure 40
0000
0000
0000
0000
0000
0000
0000
0000
0000
0000
0000
0000
0000
0000
3001
0100
,  // measure 41
0000
0000
0100
0010
0000
0000
1000
0000
0100
0000
0001
0000
0100
0000
1000
0001
,  // measure 42
0000
0000
0010
0001
0000
0000
1000
0000
0010
0000
0001
0000
0010
0000
1000
0100
,  // measure 43
0000
0000
0010
0100
0000
0000
0010
0000
0001
0000
1000
0000
0010
0000
0100
0001
,  // measure 44
0000
0000
0010
0100
0000
0000
0010
0000
0001
0000
0100
0000
0010
0000
1000
0100
,  // measure 45
1000
0100
1000
0000
0001
0000
0100
0000
1000
0000
0100
0000
0010
0000
1000
0001
,  // measure 46
1000
0001
1000
0000
0010
0000
0001
0000
0010
0000
0100
0000
0001
0000
0010
0100
,  // measure 47
0010
0100
0010
0000
0001
0000
0100
0000
1000
0000
0100
0000
0010
0000
1000
0001
,  // measure 48
1000
0001
1000
0000
0100
0000
0020
0000
0000
0001
0000
0000
0031
0000
0100
0000
,  // measure 49
0110
0000
0010
0000
1000
0000
0100
0000
0001
0000
0100
0000
1000
0010
0000
0000
,  // measure 50
0100
0010
0000
0000
0100
0001
0000
0000
0010
0100
0000
0000
1000
0000
0010
0000
,  // measure 51
0001
0000
0010
0000
1000
0100
0000
0000
1000
0001
0000
0000
0010
0100
0000
0000
,  // measure 52
0010
0001
0000
0000
0010
0000
0100
1000
0002
0000
0000
0000
1003
0000
0100
0000
,  // measure 53
0001
0000
0100
0000
1000
0010
0100
0001
0100
0000
0001
0000
0010
0000
1000
0000
,  // measure 54
0010
0000
0001
0100
0010
1000
0010
0000
1000
0001
1000
0000
0001
1000
0001
0000
,  // measure 55
0100
0010
0100
0010
0100
0000
2002
0000
0000
0000
3000
0000
0000
0000
0020
0000
,  // measure 56
0000
0000
0033
0000
0000
0000
1001
0000
0000
0000
2000
0000
0010
0000
0000
3010
,  // measure 57
0000
1000
0001
0000
0010
0000
0200
0000
0000
0000
0310
0000
0000
0000
0001
0000
,  // measure 58
0010
0100
1000
0000
1000
0000
0002
0000
0000
0000
0203
0000
0010
0000
0000
0310
,  // measure 59
0000
1000
0001
0000
0010
0000
0200
0000
0000
0000
0310
0000
0000
0000
0001
0000
,  // measure 60
1000
0010
0100
0000
0001
0000
0020
0000
0000
0000
0230
0000
1000
0000
0000
1300
,  // measure 61
0000
0010
0100
0000
0001
0000
0020
0000
0000
0000
0130
0000
0000
0000
1000
0000
,  // measure 62
0001
0010
0100
0000
1000
0000
0020
0000
0000
0000
0230
0000
0001
0000
0000
0301
,  // measure 63
0000
1000
0100
0000
0010
0000
0200
0000
0000
0000
1300
0000
0000
0000
0010
0000
,  // measure 64
0001
0100
0010
1000
0000
0100
0000
0001
,  // measure 65
0000
0001
0000
0100
0000
1000
0000
0010
,  // measure 66
0000
0100
0000
0001
0000
0001
0000
0100
,  // measure 67
0000
0100
0000
1000
0000
1000
0000
0100
,  // measure 68
0000
0100
0000
0001
0000
0001
0000
1000
,  // measure 69
0000
1000
0000
0010
0000
0100
0000
0001
,  // measure 70
0000
1000
0000
0010
0000
0100
0000
0001
,  // measure 71
0000
0100
0000
1000
0000
0100
0000
0001
,  // measure 72
0000
1000
0000
0001
0000
0000
0000
0000
;

//---------------dance-single - ----------------
#NOTES:
     dance-single:
     :
     Challenge:
     16:
     0.776,0.887,0.294,0.361,0.738: // measure 1
2100
0001
0000
0001
,  // measure 2
0000
0001
0000
3001
,  // measure 3
0101
0000
0000
0000
0000
0100
0000
0110
0000
0000
2020
0000
0000
0000
0000
0000
,  // measure 4
0000
0000
0000
0000
0000
0000
0000
0000
3030
0000
0000
1000
0000
1001
0000
0000
,  // measure 5
0012
1000
0000
1000
,  // measure 6
0000
1000
0000
1003
,  // measure 7
1100
0000
0000
0000
0000
0001
0000
1001
0000
0000
0011
0000
0000
0000
1001
0000
,  // measure 8
0000
1100
0000
1001
0000
0120
0000
0000
,  // measure 9
0130
0000
0001
0000
0001
0000
1000
0000
1000
0000
0010
0100
0010
0000
1000
0000
,  // measure 10
0100
0000
0010
0000
0010
0000
0100
0000
0100
0000
0010
0001
0010
0000
0100
0000
,  // measure 11
1000
0000
0010
0000
0010
0000
0100
0000
0100
0000
0001
1000
0001
0000
0010
0000
,  // measure 12
0100
0000
1000
0000
1000
0000
0010
0000
0010
0000
0100
0001
1000
0000
0001
0000
,  // measure 13
1001
0000
1000
0000
1010
0000
0010
0000
0110
0000
0100
0001
0010
0000
0100
0000
,  // measure 14
1000
0000
0001
0000
0011
0000
0010
0000
0110
0000
0100
1000
0001
0000
0100
0000
,  // measure 15
0001
0000
1000
0000
1100
0000
0100
0000
0110
0000
0010
0001
0100
0000
0010
0000
,  // measure 16
1000
0000
0001
0000
0101
0000
0100
0000
0110
0000
0010
1000
0001
0000
0010
0000
,  // measure 17
0110
0000
1000
0100
0010
0000
0001
0000
1000
0000
0100
0010
0001
0000
1000
0000
,  // measure 18
0001
0000
0100
0010
1000
0000
0001
0000
1000
0000
0010
0100
0001
0000
1000
0000
,  // measure 19
0100
0000
0010
0100
0010
0000
0001
0100
0001
0000
1000
0010
1000
0000
0100
0010
,  // measure 20
0100
1000
0100
1000
0010
0100
0010
0100
0001
0010
0001
0010
0100
1000
0100
1000
,  // measure 21
0002
0000
0000
1000
,  // measure 22
1000
1000
1003
0000
,  // measure 23
2020
0000
0000
0030
,  // measure 24
3001
0000
0010
0000
0100
0000
0010
0000
0001
0000
1000
0000
0010
1000
0010
0000
,  // measure 25
2001
0000
0000
0000
3010
0000
0100
0001
0000
0100
0001
0000
0010
0100
1000
0000
,  // measure 26
0020
0000
0000
0000
1030
0000
0001
0100
0010
0100
0001
0000
1000
0100
0010
0000
,  // measure 27
0200
0000
0000
0000
1300
0000
0010
0100
0000
0010
0100
0000
0001
0010
0100
0000
,  // measure 28
2000
0000
0000
0000
3001
0000
1000
0010
0100
0010
1000
0000
0001
0100
0001
0000
,  // measure 29
0020
0000
0000
0000
0130
0000
1000
0001
0000
0100
0001
0000
0100
0010
1000
0000
,  // measure 30
0002
0000
0000
0000
0013
0000
0100
1000
0001
0100
0001
0000
0010
0100
1000
0000
,  // measure 31
0020
0000
1000
0000
1030
0000
0001
0010
0000
0001
1000
0000
0010
0100
0000
0220
,  // measure 32
0000
0000
0000
0000
0000
0000
0330
0000
1100
0000
0000
0011
0000
0000
1100
0000
,  // measure 33
1000
0001
0000
0001
0010
0000
0100
1000
0010
0100
0001
0000
1000
0001
0000
0001
,  // measure 34
0100
0000
0010
1000
0010
1000
0001
0000
0010
0000
0010
0100
1000
0000
1000
0000
,  // measure 35
0010
0100
0000
0100
0001
0000
1000
0000
0100
0010
0001
0000
1000
0010
0100
0000
,  // measure 36
0001
0000
0001
1000
0100
0000
0100
0000
0010
0000
0001
0100
0000
0100
0010
0000
,  // measure 37
0100
0000
1001
0000
0001
0010
0100
0000
1000
0001
0100
0001
1000
0100
0010
0000
,  // measure 38
0100
1000
0001
0000
0010
0100
1000
0100
0010
0001
0100
0000
0010
0100
0001
0000
,  // measure 39
1000
0000
1001
0000
0001
0000
0010
0100
1000
0001
0100
0010
0100
0010
0200
0000
,  // measure 40
0000
0000
0000
0000
0000
0000
0000
0000
0000
0000
0000
0000
0000
0000
0301
0010
,  // measure 41
0001
0000
0010
0100
0010
0000
0100
1000
0100
1000
0010
0000
0100
0000
0001
0100
,  // measure 42
0001
0000
0100
0010
0100
0000
0010
1000
0010
1000
0001
0000
0010
0000
0100
0010
,  // measure 43
0100
0000
1000
0010
1000
0000
0100
0010
0100
0010
0001
0000
1000
0000
0001
0010
,  // measure 44
0001
0000
0100
0010
0100
0000
0001
1000
0001
1000
0100
0000
0010
0000
0001
0100
,  // measure 45
0001
0100
0010
1000
0010
1000
0001
0010
0100
0010
0001
0100
1000
0100
0001
0010
,  // measure 46
0001
0010
0100
1000
0100
1000
0001
0100
0010
0100
0001
1000
0100
0000
1000
0001
,  // measure 47
1000
0001
0100
0001
0100
0001
1000
0100
0010
0100
1000
0010
0001
0010
1000
0100
,  // measure 48
1000
0100
0010
0001
0010
0001
1000
0100
0001
0100
1000
0100
0010
0100
1000
0000
,  // measure 49
1001
0000
0001
0000
0010
0100
1000
0000
0001
0010
0100
0000
1000
0100
0001
0000
,  // measure 50
0100
0010
0100
0000
0001
0100
1000
0000
0001
1000
0001
0000
1000
0100
0000
0100
,  // measure 51
0010
0000
0010
0000
0001
1000
0100
0000
1000
0100
0010
0000
0001
0100
0000
0100
,  // measure 52
0010
0000
0010
0000
1001
0000
1000
0100
0020
0000
0000
0000
0130
1000
0100
1000
,  // measure 53
0001
0010
1000
0010
0001
0010
0100
0010
0001
0000
0100
0001
0100
0001
1000
0010
,  // measure 54
0001
0010
1000
0010
0100
0010
1000
0000
0100
0010
0100
0010
0001
0100
0010
0100
,  // measure 55
0001
0010
1000
0010
0001
0000
0010
0100
0010
0100
1000
0010
0100
0010
1000
0100
,  // measure 56
0010
0001
1000
0100
0010
0001
2000
0000
0000
0000
3010
0000
0100
0001
0000
1000
,  // measure 57
0100
0010
0100
0000
1100
0000
0002
0000
0000
0000
1003
0000
0010
0100
0000
0001
,  // measure 58
0100
0010
0100
0000
0101
0000
0020
0000
0000
0000
0130
0000
0001
1000
0000
0100
,  // measure 59
1000
0100
0010
0000
0011
0000
2000
0000
0000
3001
1000
0000
0100
0010
0001
0000
,  // measure 60
1000
0100
0010
0000
0110
0000
2001
0000
0000
0000
3001
0000
0100
0001
0000
0010
,  // measure 61
0100
1000
0010
0000
0110
0000
0002
0000
0000
0103
0010
0000
0100
0001
1000
0000
,  // measure 62
0100
0010
0001
0000
0100
0000
0002
0000
0000
0000
1003
0000
0100
1000
0000
0010
,  // measure 63
0100
0001
0010
0000
0001
0010
0200
0000
0000
1300
0001
0000
0100
0010
1000
0000
,  // measure 64
0001
0010
0100
0000
1000
0000
0002
0000
0000
0000
0103
0000
0020
0000
0000
1030
,  // measure 65
0000
0100
0001
0000
0100
0000
2000
0000
0000
0000
3001
0000
0010
0000
0100
0000
,  // measure 66
1000
0001
0100
0002
0000
0023
0000
0230
,  // measure 67
0000
2300
0000
3002
0000
0203
0000
1300
,  // measure 68
0100
0001
0000
2000
0000
3020
0000
0230
,  // measure 69
0000
0302
0000
2003
0000
3020
0000
0031
,  // measure 70
0010
1000
0000
0200
0000
0320
0000
0032
,  // measure 71
0000
2003
0000
3002
0000
0023
0000
1030
,  // measure 72
0010
0001
0000
1000
0000
0000
0000
0000
;

//---------------dance-single - ----------------
#NOTES:
     dance-single:
     :
     Beginner:
     3:
     0.096,0.132,0.068,0.000,0.000:
1001
0000
0000
0000
,
0000
0000
0000
0000
,
1001
0000
0000
0000
,
0000
0000
0000
0000
,
1001
0000
0000
0000
,
0000
0000
0000
0000
,
1000
0000
0000
0000
,
0001
0000
0000
0000
,
1001
0000
0000
0000
,
1000
0000
0000
0000
,
0001
0000
0000
0000
,
0001
0000
0000
0000
,
0010
0000
0000
0000
,
0100
0000
0000
0000
,
0010
0000
0000
0000
,
0100
0000
0000
0000
,
1000
0000
0000
0000
,
0001
0000
0000
0000
,
0100
0000
0000
0000
,
0100
0000
0000
0000
,
0110
0000
0000
0000
,
0000
0000
0000
0000
,
1001
0000
0000
0000
,
0000
0000
0000
0000
,
0001
0000
0000
0000
,
0100
0000
0000
0000
,
0010
0000
0000
0000
,
0100
0000
0000
0000
,
0001
0000
0000
0000
,
1000
0000
0000
0000
,
0100
0000
0000
0000
,
0110
0000
0000
0000
,
0010
0000
0000
0000
,
0001
0000
0000
0000
,
1000
0000
0000
0000
,
0001
0000
0000
0100
,
0000
0010
0000
0000
0000
0000
0000
0100
,
0000
0000
0000
0000
0000
0000
0000
0001
,
0000
0000
0000
0000
0000
0000
0000
1001
,
0000
0000
0000
0000
0000
0000
0000
1000
,
0000
0000
0000
0100
0000
0000
0000
1000
,
0000
0000
0000
0100
0000
0000
0000
1000
,
0000
0000
0000
0001
0000
0000
0000
1000
,
0000
0000
0000
0001
0000
0000
0000
0010
,
0000
0000
0000
0000
0000
0000
0000
0100
,
0000
0000
0000
0000
0000
0000
0000
1000
,
0000
0000
0000
0000
0000
0000
0000
0001
,
0000
0000
0000
0000
,
1000
0000
0100
0000
,
1000
0000
0100
0000
,
1000
0000
0001
0000
,
1000
0000
0001
0100
,
0000
0000
0000
0000
0000
0010
0000
0000
,
0000
0000
0100
0000
,
0000
0000
0000
0010
0000
0000
0000
0000
,
0000
0000
0000
1001
0000
0000
0000
1000
,
0000
0000
0000
0001
0000
0000
0000
0000
,
0000
0000
0000
1000
0000
0000
0000
0001
,
0000
0000
0000
1000
0000
0000
0000
0000
,
0000
0000
0000
0001
0000
0000
0000
0100
,
0000
0000
0000
0001
0000
0000
0000
0000
,
0000
0000
0000
1000
0000
0000
0000
0010
,
0000
0000
0000
1000
0000
0000
0000
0000
,
0000
0000
0000
0001
0000
0000
0000
0000
,
0000
0000
0000
0010
0000
0000
0000
0000
,
0000
0000
0000
0100
0000
0000
0000
0000
,
0000
0000
0000
1000
0000
0000
0000
0000
,
0000
0000
0000
0001
0000
0000
0000
0000
,
0000
0000
0000
0010
0000
0000
0000
0000
,
0000
0000
0000
0100
0000
0000
0000
0000
,
0000
0000
0000
1000
0000
0000
0000
0000
;
