#TITLE:Monkey Business;
#SUBTITLE:(lapix Remix);
#ARTIST:lapix;
#TITLETRANSLIT:;
#SUBTITLETRANSLIT:;
#ARTISTTRANSLIT:;
#CREDIT:DigiMindAxel;
#BANNER:Monkey Business (lapix Remix).png;
#BACKGROUND:Monkey Business (lapix Remix)-bg.png;
#LYRICSPATH:;
#CDTITLE:SOUND VOLTEX.png;
#MUSIC:Monkey Business (lapix Remix).ogg;
#METERTYPE:DDR X;
#OFFSET:-6.829;
#SAMPLESTART:86.239;
#SAMPLELENGTH:12.000;
#SELECTABLE:YES;
#BPMS:0.000=145.000;
#STOPS:;
#BGCHANGES:;

//---------------dance-single - ----------------
#NOTES:
     dance-single:
     :
     Easy:
     6:
     0.317,0.387,0.167,0.393,0.000:
1000
0100
0010
0002
,
1003
0001
0010
0200
,
1300
0001
0100
0010
,
2002
0000
0000
3003
,
0002
0000
0000
0000
,
0203
0000
0000
0000
,
0320
0000
0000
0000
,
2030
0000
0000
0000
,
3001
1000
0001
1000
,
0001
1000
0001
1000
,
0002
0000
0000
0000
,
1003
0000
1001
0000
,
0001
0001
0100
0010
,
0100
0100
0001
1000
,
0100
0100
1000
0001
,
0020
0000
0230
0000
,
1300
1000
0001
0100
,
0001
0001
1000
0100
,
1000
1000
0010
0100
,
0010
0010
0010
0000
,
0110
0100
0001
0010
,
0100
0100
1000
0001
,
0100
0100
0001
1000
,
0010
0010
1000
1000
,
0100
0100
1000
0001
,
0010
0010
0001
1000
,
0100
0100
0010
0001
,
0100
0100
0100
0100
,
0120
0000
2030
0000
,
3002
0000
0003
1000
,
0002
0000
0203
0000
,
0320
0000
0030
1000
,
0002
0000
0023
0000
,
0230
0000
2300
0000
,
3002
0000
0000
0000
,
1003
1000
1000
0001
,
2002
0000
0000
3003
,
0220
0000
0000
0330
,
1002
0000
2003
0000
,
3002
0000
0103
0000
,
2002
0000
0000
3003
,
0220
0000
0000
0330
,
2001
0000
3002
0000
,
0203
0000
0310
0000
,
0110
0000
0010
0000
,
0010
0000
0010
0000
,
0110
0100
0100
0100
,
0220
0000
0000
0330
,
1001
0010
0100
1000
,
0001
0100
0010
0100
,
0001
0010
0100
1000
,
0001
0100
0010
0100
,
0001
1000
0100
0010
,
0001
1000
0010
1000
,
0001
1000
0100
0010
,
0001
0001
1000
1000
,
0002
0100
0103
0010
,
2000
0100
3100
0010
,
0002
0100
0103
0010
,
2000
0100
3100
0010
,
0002
1000
1003
0010
,
0200
0010
0310
1000
,
0002
0100
0100
0103
,
1001
0001
0001
0001
,
1001
1001
0100
0010
,
2002
0000
3003
1001
,
0110
0000
0000
0000
;

//---------------dance-single - ----------------
#NOTES:
     dance-single:
     :
     Medium:
     8:
     0.478,0.443,0.444,0.167,0.008: // measure 1
1001
0000
1001
0000
0010
0010
0010
0000
,  // measure 2
0110
0000
0110
0000
1000
1000
1000
0000
,  // measure 3
1001
0000
1001
0000
0010
0010
0010
0000
,  // measure 4
0101
0000
0000
1001
0000
0000
1100
0000
,  // measure 5
1001
0001
1000
0001
,  // measure 6
0010
0100
0010
0100
,  // measure 7
1000
0001
1000
0001
,  // measure 8
0100
0001
0100
0001
,  // measure 9
2001
0100
0001
3100
,  // measure 10
0002
0100
0010
0103
,  // measure 11
2002
0000
0000
3003
,  // measure 12
1001
0000
0000
0000
0110
0000
0100
0100
,  // measure 13
0110
0000
0110
0000
0100
1000
0100
0000
,  // measure 14
1001
0000
1001
0000
0001
0100
0001
0000
,  // measure 15
1001
0000
1001
0000
0100
0001
0010
0000
,  // measure 16
0100
1000
0100
1000
0010
0100
0001
0000
,  // measure 17
1001
0000
1001
0000
0100
1000
0100
0000
,  // measure 18
0110
0000
0110
0000
0100
0001
0100
0000
,  // measure 19
1001
0000
1001
0000
0001
0100
0010
0000
,  // measure 20
1000
0001
1000
0001
0010
0100
1000
0000
,  // measure 21
1001
0000
1001
0000
0010
0100
1000
0000
,  // measure 22
0101
0000
0101
0000
0100
0001
0010
0000
,  // measure 23
1001
0000
1001
0000
1000
0010
0100
0001
,  // measure 24
1000
0000
0100
0100
0100
0000
0010
0001
,  // measure 25
1001
0000
1001
0000
0100
1000
0010
0000
,  // measure 26
0110
0000
0110
0000
0100
0010
0001
0000
,  // measure 27
1001
0000
1001
0000
0001
0100
0010
0000
,  // measure 28
2000
0001
0000
0001
0001
0000
3001
0000
,  // measure 29
2000
0000
0100
0000
3200
0000
0010
0320
,  // measure 30
0000
0001
0000
0031
,  // measure 31
0200
0000
0010
0000
0320
0000
1000
2030
,  // measure 32
0000
0001
0000
3001
,  // measure 33
2000
0000
0010
0000
3020
0000
0100
0230
,  // measure 34
0000
0001
0302
1000
,  // measure 35
1003
0001
1000
0000
0001
1000
0001
0000
,  // measure 36
0100
0010
0100
0010
0100
0010
0100
0000
,  // measure 37
1001
0000
0001
0010
0100
1000
0001
0000
,  // measure 38
1001
0000
1000
0100
0010
0001
1000
0000
,  // measure 39
1100
0100
1100
0100
,  // measure 40
0010
0001
0010
0000
1001
0000
0000
0000
,  // measure 41
1001
0000
1000
0100
0010
0001
1000
0000
,  // measure 42
1001
0000
0001
0010
0100
1000
0001
0000
,  // measure 43
0101
0100
0101
0100
,  // measure 44
0001
1000
0100
0000
1001
0000
0000
0000
,  // measure 45
1000
0001
1000
0000
0001
1000
0001
0000
,  // measure 46
0010
0100
0010
0000
0100
1000
0100
0000
,  // measure 47
2001
3002
2003
3001
,  // measure 48
2002
0000
0000
3003
,  // measure 49
0100
0001
0010
0000
0100
0000
0100
0000
,  // measure 50
1000
0010
0100
0000
0001
0000
0001
0000
,  // measure 51
0010
0100
1000
0000
0010
0000
0010
0000
,  // measure 52
1000
0100
0010
0000
0001
0010
0100
0000
,  // measure 53
1000
0001
0100
0000
0001
0000
0001
0000
,  // measure 54
0010
0100
1000
0000
0010
0000
0010
0000
,  // measure 55
1000
0100
0010
0000
0001
0010
0100
0000
,  // measure 56
1000
0001
1000
0001
1000
0100
1000
0000
,  // measure 57
0001
0100
0010
0000
1000
0001
0010
0100
,  // measure 58
1000
1000
0001
0001
,  // measure 59
1000
0010
0100
0000
0001
0010
0100
1000
,  // measure 60
0010
0010
0100
0100
,  // measure 61
0001
1000
0100
0000
1000
0100
0010
0001
,  // measure 62
0100
0000
0100
0000
0010
1000
0010
0000
,  // measure 63
1000
0001
1000
0001
0100
0010
0100
0010
,  // measure 64
1000
0010
0001
0010
,  // measure 65
1001
0000
1001
0000
0001
0100
0010
0000
,  // measure 66
1000
0000
0000
0001
0000
0000
1000
0000
0000
0001
0000
0000
0100
0000
0000
0000
,  // measure 67
1001
0001
0000
0000
0000
0000
0000
0000
;

//---------------dance-single - ----------------
#NOTES:
     dance-single:
     :
     Hard:
     13:
     0.632,0.609,0.577,0.067,0.272: // measure 1
1001
0000
0000
0000
1001
0000
0000
0000
0001
0000
0000
0100
0000
0000
0001
0000
,  // measure 2
1001
0000
0000
0000
1001
0000
0000
0000
0100
0010
0100
0000
0010
0000
0010
0000
,  // measure 3
1001
0000
0000
0000
1001
0000
0000
0000
1000
0000
0000
0001
0000
0000
1000
0000
,  // measure 4
1100
0000
0000
1100
0000
0000
0110
0000
0000
0011
0000
0000
0011
0000
0000
0000
,  // measure 5
1001
0001
0000
0100
0010
0100
0000
0000
,  // measure 6
1001
1000
0000
0100
0010
0100
0000
0000
,  // measure 7
1001
0001
0000
0010
0100
0010
0000
0000
,  // measure 8
1001
1000
0000
0001
0100
0001
1000
0000
,  // measure 9
0110
0100
0010
0001
0010
0100
1000
0000
,  // measure 10
1001
0001
1000
0010
0100
0001
1000
0000
,  // measure 11
0100
0010
0100
0010
0001
0100
0001
1000
,  // measure 12
2200
0000
3300
0000
1001
0000
0100
0100
,  // measure 13
1001
0000
0000
0000
1001
0000
0000
0000
0000
0100
0001
0000
1000
0000
0010
0000
,  // measure 14
0110
0000
0000
0000
0110
0000
0000
0000
0010
0001
0010
0001
0100
0000
0000
0000
,  // measure 15
0110
0000
0000
0000
0110
0000
0000
0000
0000
0100
1000
0000
0001
0000
0100
0000
,  // measure 16
0000
0001
1000
0000
0000
0001
0100
0000
0000
0001
0010
0000
0100
0000
0100
0000
,  // measure 17
1001
0000
0000
0000
1001
0000
0000
0000
0000
0010
0001
0000
1000
0000
0010
0000
,  // measure 18
0110
0000
0000
0000
0110
0000
0000
0000
0100
0001
0100
0001
0010
0000
0000
0000
,  // measure 19
0110
0000
0000
0000
0110
0000
0000
0000
0000
1000
0100
0000
1000
0000
0001
0000
,  // measure 20
0000
0010
0100
0000
0000
1000
0010
0000
0000
1000
0001
0000
0001
0000
0000
0000
,  // measure 21
0110
0000
0000
0000
0110
0000
0000
0000
0100
1000
0100
0000
0010
0000
0100
0000
,  // measure 22
0110
0000
0000
0000
0110
0000
0000
0000
0100
0001
0100
0001
1000
0000
0000
0000
,  // measure 23
1100
0000
0000
0000
1100
0000
0000
0000
0100
1000
0100
0000
0010
0000
0100
0000
,  // measure 24
1000
0000
0001
0000
0101
0000
0101
0000
0101
0000
0000
0000
0100
0010
0100
0000
,  // measure 25
1001
0000
0000
0000
1001
0000
0000
0000
0001
0100
0001
0000
0010
0000
0100
0000
,  // measure 26
1100
0000
0000
0000
1100
0000
0000
0000
1000
0001
1000
0000
0010
0000
0010
0000
,  // measure 27
1001
0000
0000
0000
1001
0000
0000
0000
0001
0010
0001
0000
1000
0000
0010
0000
,  // measure 28
0100
0100
0001
0100
0100
0001
0100
0000
,  // measure 29
0001
1000
0001
1000
0010
0001
0010
1000
,  // measure 30
0100
0010
0100
0010
0001
0100
0010
0000
,  // measure 31
1000
0001
1000
0001
0100
1000
0100
0001
,  // measure 32
0010
0100
0010
0100
1000
0001
0100
0000
,  // measure 33
0001
1000
0001
1000
0100
0001
0100
1000
,  // measure 34
0010
0100
0010
0100
0001
0010
0100
0000
,  // measure 35
0010
0001
0010
0100
0010
0001
0010
0100
,  // measure 36
1000
0010
1000
0001
1000
0010
1000
0001
,  // measure 37
1001
0000
1000
0000
1000
0000
1000
0000
0001
0100
0001
0100
0010
0000
0000
0000
,  // measure 38
0110
0000
0010
0000
0010
0000
0010
0000
1000
0100
1000
0100
0010
0000
0000
0000
,  // measure 39
0001
0000
0100
0010
2000
0000
0000
0000
3001
0100
0010
0000
2000
0000
0000
0000
,  // measure 40
3001
0010
1000
0010
0001
0000
1001
0000
,  // measure 41
1010
0000
0010
0000
0010
0000
0010
0000
1000
0001
1000
0001
0010
0000
0000
0000
,  // measure 42
0110
0000
0100
0000
0100
0000
0100
0000
0001
0010
0001
0010
0100
0000
0000
0000
,  // measure 43
1000
0000
0100
0010
0002
0000
0000
0000
1003
0100
0010
0000
0002
0000
0000
0000
,  // measure 44
1003
0100
0001
0100
1000
0000
1001
0000
,  // measure 45
0010
0100
0010
0100
0001
0010
0100
0000
,  // measure 46
1000
0001
1000
0001
1000
0010
0100
0000
,  // measure 47
0001
0010
0100
1000
0001
0010
0100
0010
,  // measure 48
0001
1000
0000
0001
1000
0000
0001
1000
0000
0001
1000
0000
1010
0000
0000
0000
,  // measure 49
1000
0000
0000
0001
0000
0000
0100
0000
0000
0001
0000
0000
0010
0000
0000
0000
,  // measure 50
0001
0000
0000
0010
0000
0000
0100
0000
0000
0010
0000
0000
0001
0000
0000
0000
,  // measure 51
1000
0000
0000
0001
0000
0000
0100
0000
0000
0001
0000
0000
1000
0000
0000
0000
,  // measure 52
0110
0000
0000
0010
0000
0000
0001
0000
0000
0010
0000
0000
0100
0000
1000
0000
,  // measure 53
0010
0000
0100
0001
0000
0000
0100
0000
0010
1000
0000
0000
0010
0000
0000
0000
,  // measure 54
1000
0000
0001
0010
0000
0000
0001
0000
1000
0100
0000
0000
1000
0000
0000
0000
,  // measure 55
0100
0000
0010
0001
0000
0000
0100
0000
0010
1000
0000
0000
0001
0000
0100
0001
,  // measure 56
0000
0100
0001
0000
0010
0100
0000
0010
0100
0000
1000
0000
1000
0000
1000
0000
,  // measure 57
0010
1000
0100
0001
0100
1000
0001
0100
,  // measure 58
0002
1000
0100
1003
,  // measure 59
0100
1000
0010
0001
0010
1000
0001
0010
,  // measure 60
0001
1001
0110
1001
,  // measure 61
0010
1000
0100
0001
0100
1000
0010
0100
,  // measure 62
0020
0000
0100
0000
0100
0100
0130
0000
,  // measure 63
0001
0010
1000
0010
0001
1000
0010
1000
,  // measure 64
1100
1001
0110
1001
,  // measure 65
0101
0000
0000
0000
0101
0000
0000
0000
0100
0010
1000
0100
1000
0000
0000
0000
,  // measure 66
0011
0000
0000
0011
0000
0000
0110
0000
0000
1100
0000
0000
1000
0000
1000
0000
,  // measure 67
1001
0110
0000
0000
0000
0000
0000
0000
;

//---------------dance-single - ----------------
#NOTES:
     dance-single:
     :
     Challenge:
     16:
     0.846,0.830,0.494,0.159,0.766: // measure 1
1001
0000
0000
0000
1001
0000
0000
0000
0010
0001
0010
0100
1000
0000
0001
0000
,  // measure 2
0101
0000
0000
0000
0101
0000
0100
0000
0010
1000
0001
0010
0100
0000
0100
0000
,  // measure 3
1010
0000
0000
0000
1010
0000
0000
0000
0100
0010
0100
0001
0010
0000
0100
0000
,  // measure 4
1100
0000
0000
0110
0000
0000
0011
0000
0000
0001
0010
0100
1000
0000
1000
0000
,  // measure 5
0010
0100
0010
0200
0000
0000
0301
1000
0001
2000
0000
0000
3100
0000
0000
0000
,  // measure 6
0010
0001
0010
0002
0000
0000
0013
0100
0010
0200
0000
0000
1300
0000
0000
0000
,  // measure 7
0010
0100
0010
0200
0000
0000
0301
1000
0001
2000
0000
0000
3100
0000
0100
0000
,  // measure 8
1000
0001
1000
0002
0000
0000
0103
0001
0100
0001
0010
0000
0100
0010
0100
0000
,  // measure 9
1000
0001
0010
0100
1000
0000
0010
0100
0001
0010
0100
0000
0010
0000
0001
0000
,  // measure 10
0100
0010
1000
0100
0010
0000
0100
1000
0010
0100
0001
0000
0100
0000
0010
0000
,  // measure 11
0100
0001
0010
0100
1000
0001
0010
0100
1000
0001
1000
0010
0100
0001
1000
0010
,  // measure 12
0200
0000
0000
0300
1001
0000
0010
0010
,  // measure 13
1001
0000
0000
0000
1001
0000
0000
0000
0010
0001
0100
0000
0001
0000
1000
0000
,  // measure 14
1100
0000
0000
0000
1100
0000
0000
0000
1000
0010
0100
0001
0010
0000
0010
0000
,  // measure 15
1001
0000
0000
0000
1001
0000
0000
0000
1000
0100
0010
0000
0001
0000
0001
0000
,  // measure 16
1000
0001
0100
0000
1000
0100
0001
0000
0010
0100
1000
0100
0010
0000
0010
0000
,  // measure 17
0101
0000
0000
0000
0101
0000
0000
0000
0010
1000
0100
0000
0010
0000
0001
0000
,  // measure 18
0101
0000
0000
0000
0101
0000
0000
0000
0100
0010
0001
1000
0010
0000
0010
0000
,  // measure 19
1001
0000
0000
0000
1001
0000
0000
0000
0001
0100
0010
0000
1000
0000
0100
0000
,  // measure 20
1000
0001
0010
0000
1000
0010
0001
0000
0100
0010
0100
0001
0010
0000
0000
0000
,  // measure 21
1001
0000
0001
0000
1001
0000
1000
0000
0001
0100
0001
0100
1000
0100
0001
1000
,  // measure 22
0001
0000
0001
0000
0101
0000
0100
0000
0010
1000
0100
0010
0001
0000
0100
0000
,  // measure 23
0110
0000
0010
0000
1010
0000
1000
0000
0001
0010
0001
0010
1000
0010
0001
1000
,  // measure 24
0100
0010
0001
0000
1001
0000
0110
0000
1010
0000
1000
0001
0010
0100
0010
0000
,  // measure 25
0101
0000
0100
0000
0110
0000
0010
0000
1000
0100
1000
0100
0001
0100
1000
0001
,  // measure 26
0100
0000
0100
0000
0110
0000
0010
0000
0100
0001
0010
0000
0100
0000
0100
0000
,  // measure 27
1001
0000
0001
0000
0011
0000
0010
0000
0001
0100
0001
0100
1000
0100
0001
0010
,  // measure 28
0100
0000
0100
1000
0100
1000
0010
0000
0010
0100
0001
0010
0100
0000
0100
0000
,  // measure 29
1000
0010
0001
0010
1000
0001
1000
0100
,  // measure 30
0001
0000
0100
0000
1000
0000
0100
0000
0010
0000
0001
0000
1000
0000
0001
0100
,  // measure 31
0001
0100
1000
0100
0001
1000
0001
0010
,  // measure 32
1000
0010
0001
1000
0100
0010
0001
0000
,  // measure 33
1000
0100
0001
0100
1000
0001
1000
0010
,  // measure 34
0110
0100
1001
1000
0110
0001
0101
0100
,  // measure 35
0001
0010
0100
1000
0001
0010
0100
1000
,  // measure 36
0010
1000
0010
1000
0001
0010
0100
1000
0010
0001
0010
1000
0001
0000
0000
0000
,  // measure 37
1001
0000
0010
0100
1000
0100
0010
0100
1000
0100
0010
0100
1000
0000
1000
0000
,  // measure 38
0110
0000
0100
0001
0010
0001
0100
0001
0010
0001
0100
0001
1000
0000
1000
0000
,  // measure 39
0010
0000
0100
0001
0020
0000
0000
0031
1000
0100
0010
0001
0200
0000
0310
0000
,  // measure 40
1000
0000
0100
1000
0020
0000
0100
0000
0100
0000
0130
0010
1000
0000
0000
0000
,  // measure 41
1001
0000
0001
0010
0100
0010
0001
0010
0100
0010
0001
0010
0100
0000
0100
0000
,  // measure 42
1010
0000
0010
1000
0100
1000
0010
1000
0100
1000
0010
1000
0001
0000
0001
0000
,  // measure 43
0010
0000
0100
1000
0020
0000
0000
1030
0100
0010
0001
1000
0020
0000
0000
0000
,  // measure 44
0130
0000
0001
0000
0020
0000
0100
0000
0130
1000
0100
1000
0010
0000
0000
0000
,  // measure 45
1001
0001
0100
0001
1000
0100
0010
0000
,  // measure 46
1001
1000
0100
1000
0010
0100
0001
0000
,  // measure 47
0110
0010
0100
1000
0010
1000
0001
1000
,  // measure 48
0001
0100
0000
0100
0010
0000
1000
0100
0000
0100
0010
0000
1002
0000
0000
0000
,  // measure 49
1003
0100
0000
0010
0100
0000
0010
0001
0000
0100
0010
0000
1000
0000
0100
0000
,  // measure 50
0010
0100
0000
1000
0010
0000
0100
0001
0000
1000
0100
0000
0010
0000
0001
0000
,  // measure 51
0100
0001
0000
1000
0100
0000
0010
0100
0000
1000
0010
0000
0100
0000
0001
0000
,  // measure 52
1001
0000
0000
1010
0000
0000
0101
0000
0000
0110
0000
0000
1001
0000
1000
0000
,  // measure 53
0001
0000
0100
0010
0000
0010
1000
0000
0100
0010
0000
0010
0001
0000
1000
0000
,  // measure 54
0010
0000
0100
0001
0000
0001
1000
0000
0100
0010
0000
0010
0001
0000
0100
0000
,  // measure 55
0001
0000
0010
0100
0000
0100
1000
0000
0001
0100
0000
0100
0010
0000
1000
0100
,  // measure 56
0000
0001
0100
0000
1000
0010
0000
0001
0010
0000
1000
0001
1000
0001
1000
0001
,  // measure 57
1000
0010
0001
0010
1000
0100
0010
0001
,  // measure 58
2000
0000
0000
0010
0000
0000
0010
0000
0000
0100
0000
0000
3100
0000
0010
0001
,  // measure 59
1000
0010
0001
0010
1000
0100
0010
0001
,  // measure 60
0200
0000
0000
0010
0000
0000
0010
0000
0000
0001
0000
0000
0301
0000
0000
0000
,  // measure 61
1000
0010
0001
0010
1000
0100
0010
0001
,  // measure 62
0020
0000
0000
0001
0000
0000
0001
0000
0000
0100
0000
0000
0130
0000
0000
0000
,  // measure 63
1001
0000
1000
0000
0001
0000
1000
0000
0100
0010
0100
0010
0001
0100
1000
0100
,  // measure 64
0001
0010
0100
1000
0001
0010
0100
1000
0002
0000
0000
0000
1003
0100
1000
0100
,  // measure 65
0010
0000
0010
0000
1001
0000
1000
0000
0001
1000
0100
0010
0100
0000
0000
0000
,  // measure 66
1001
0000
0000
0101
0000
0000
1010
0000
0000
0010
0001
1000
0100
0010
0100
0000
,  // measure 67
1001
0101
0000
0000
0000
0000
0000
0000
;

//---------------dance-double - ----------------
#NOTES:
     dance-double:
     :
     Easy:
     6:
     0.323,0.387,0.192,0.427,0.000:
10000000
10000000
00100000
02000000
,
03001000
00001000
00010000
00000200
,
00000310
00000010
00000001
00000100
,
00000220
00000000
00000000
00000330
,
00020000
00000000
00000000
00000000
,
00032000
00000000
00000000
00000000
,
00203000
00000000
00000000
00000000
,
02300000
00000000
00000000
00000000
,
13000000
00010000
10000000
00010000
,
10000000
00010000
10000000
00010000
,
20000000
00000000
00000000
00000000
,
30010000
00000000
10010000
00000000
,
10000000
10000000
01000000
00100000
,
00001000
00001000
00010000
00000010
,
00000100
00000100
00000001
00000010
,
00000200
00000000
00020300
00000000
,
00031000
00001000
00100000
01000000
,
10000000
10000000
01000000
00100000
,
01000000
01000000
00100000
00001000
,
00010000
00010000
00011000
00000000
,
00000110
00000010
00001000
00000100
,
00000010
00000010
00000001
00000100
,
00000010
00000010
00001000
00010000
,
00100000
00100000
01100000
00000000
,
01000000
01000000
10000000
00010000
,
00100000
00100000
00010000
10000000
,
01000000
01000000
00100000
00010000
,
00002000
00023000
00032000
00013000
,
00000120
00000000
00000230
00000000
,
00000302
00000000
00000003
00000010
,
00000200
00000000
00002300
00000000
,
00023000
00000000
00030000
01000000
,
00200000
00000000
02300000
00000000
,
03020000
00000000
20030000
00000000
,
30002000
00000000
00000000
00003000
,
00010000
00001000
00010000
00001000
,
00022000
00000000
00000000
00033000
,
00000220
00000000
00000000
00000330
,
00001002
00000000
00002003
00000000
,
00003002
00000000
00000013
00000000
,
00022000
00000000
00000000
00033000
,
02200000
00000000
00000000
03300000
,
20010000
00000000
30020000
00000000
,
20030000
00000000
31000000
00000000
,
01100000
00000000
00100000
00000000
,
00100000
00000000
00100000
00000000
,
10010000
10000000
00010000
10000000
,
20020000
00000000
00000000
30030000
,
10010000
00100000
01000000
10000000
,
00001000
01000000
00100000
01000000
,
00001000
00010000
00000100
00000010
,
00000001
00000100
00000010
00000100
,
00000001
00000010
00000100
00001000
,
00010000
01000000
00100000
01000000
,
00010000
10000000
01000000
00100000
,
00001000
00001000
00021000
00000000
,
00030020
00000100
00000130
00000001
,
00000020
00000100
00000130
00001000
,
00020000
01000000
01030000
00100000
,
20000000
01000000
31000000
00100000
,
00002000
01000000
01003000
00010000
,
00000200
00000010
00000310
00000001
,
00002000
00000010
00000010
00003010
,
00000110
00000100
00000010
00000100
,
00001001
00001001
00000010
00000100
,
00022000
00000000
00033000
10001000
,
01100000
00000000
00000000
00000000
;

//---------------dance-double - ----------------
#NOTES:
     dance-double:
     :
     Medium:
     9:
     0.507,0.470,0.444,0.117,0.008:
10010000
00000000
10010000
00000000
01000000
10000000
01000000
00000000
,
00101000
00000000
00101000
00000000
00010000
00001000
00010000
00000000
,
00000110
00000000
00000110
00000000
00000001
00000100
00000001
00000000
,
00000110
00000000
00000000
00010010
00000000
00000000
00011000
00000000
,
00001000
00100000
01000000
00100000
,
00001000
00100000
10000000
00100000
,
00001000
01000000
00100000
01000000
,
00001000
00100000
01000000
10000000
,
00010000
10000000
00010000
00000000
01000000
00100000
01000000
00000000
,
00001000
00010000
00001000
00000000
00010000
00000010
00010000
00000000
,
00000010
00000100
00000010
00000100
00000010
00000100
00000010
00000000
,
00000110
00000000
00000000
00000000
00001001
00000000
00000100
00000100
,
00000110
00000000
00000110
00000000
00010000
00001000
00010000
00000000
,
01100000
00000000
01100000
00000000
00100000
10000000
00100000
00000000
,
10010000
00000000
10010000
00000000
10000000
00100000
01000000
00000000
,
00010000
01000000
00010000
01000000
00001000
00010000
00001000
00000000
,
00011000
00000000
00011000
00000000
00000010
00000100
00000010
00000000
,
00001001
00000000
00001001
00000000
00000010
00000001
00000100
00000000
,
00011000
00000000
00011000
00000000
00100000
01000000
10000000
00000000
,
01000000
00100000
01000000
00100000
00001000
00010000
00001000
00000000
,
00011000
00000000
00011000
00000000
00000100
00000010
00000001
00000000
,
00000110
00000000
00000110
00000000
00010000
00001000
01000000
00000000
,
01100000
00000000
01100000
00000000
01000000
10000000
00010000
00100000
,
01000000
00000000
10000000
10000000
10000000
00000000
00100000
01000000
,
01100000
00000000
01100000
00000000
01000000
00001000
00010000
00000000
,
00011000
00000000
00011000
00000000
00001000
00000100
00000010
00000000
,
00001001
00000000
00001001
00000000
00000010
00000001
00000100
00000000
,
00000010
00010000
00000010
00010000
00001000
00000000
00011000
00000000
,
02000000
00000000
00010000
00000000
03020000
00000000
10000000
20030000
,
00000000
00100000
00000000
30100000
,
02000000
00000000
00001000
00000000
03002000
00000000
00010000
00023000
,
00000000
00000100
00000000
00030100
,
00000020
00000000
00000001
00000000
00000032
00000000
00000100
00000203
,
00000000
00000010
00000320
00010000
,
00010030
00001000
00010000
00000000
00001000
01000000
00001000
00000000
,
10000000
01000000
10000000
01000000
10000000
01000000
10000000
00000000
,
10010000
00000000
10000000
01000000
00100000
00001000
00010000
00000000
,
00011000
00000000
00001000
00010000
00000010
00000100
00000001
00000000
,
00000200
00000010
00000310
00000000
00020000
00001000
00031000
00000000
,
01000000
00100000
01000000
00000000
01100000
00000000
00000000
00000000
,
10010000
00000000
00010000
00100000
01000000
00100000
00001000
00000000
,
00011000
00000000
00010000
00000010
00000100
00000010
00010000
00000000
,
00000200
00000010
00000310
00000000
00000002
00001000
00001003
00000000
,
00000001
00000100
00000010
00000000
00000110
00000000
00000000
00000000
,
00010000
00001000
00010000
00001000
00100000
01000000
00100000
00000000
,
00010000
10000000
00010000
10000000
01000000
00100000
01000000
00000000
,
10010000
01001000
00011000
00010010
,
00000010
00000100
00000010
00000100
00000010
00000100
00000110
00000000
,
00000100
00000001
00000010
00000001
00010000
00000000
00010000
00000000
,
00001000
00100000
01000000
00100000
00010000
00000000
00010000
00000000
,
10000000
00010000
01000000
00010000
10000000
00000000
10000000
00000000
,
01000000
00100000
00010000
00000000
00001000
00010000
00000010
00000000
,
00000100
00000001
00000010
00000100
00001000
00000000
00001000
00000000
,
00000010
00010000
00001000
00100000
01000000
00000000
01000000
00000000
,
10000000
00010000
00100000
00010000
10000000
01000000
00100000
00000000
,
00001000
00010000
00000100
00000010
00000100
00010000
00001000
00000000
,
00010000
00000010
00000100
00000000
00000001
00000010
00000100
00010000
,
00001000
00001000
00100000
00100000
,
01000000
10000000
00010000
00000000
00100000
01000000
10000000
00001000
,
01000000
01000000
00001000
00001000
,
00010000
00000100
00000010
00000000
00000001
00000100
00000010
00000100
,
00000001
00000000
00000001
00000000
00000010
00000100
00000010
00000000
,
00000100
00010000
00000100
00010000
00001000
00100000
00001000
00100000
,
01000000
11000000
00100000
01100000
,
00011000
00000000
00011000
00000000
00010000
00000010
00000100
00000000
,
00001001
00000000
00000000
00000001
00000000
00000000
00000010
00000000
00000000
00000100
00000000
00000000
00010000
00000000
00010000
00000000
,
01001000
01000000
00000000
00000000
00000000
00000000
00000000
00000000
;

//---------------dance-double - ----------------
#NOTES:
     dance-double:
     :
     Hard:
     13:
     0.644,0.581,0.460,0.067,0.272:
10010000
00000000
00000000
00000000
10010000
00000000
00000000
00000000
00100000
00000000
00000000
01000000
00000000
00000000
00001000
00000000
,
00011000
00000000
00000000
00000000
00011000
00000000
00000000
00000000
00000010
00000100
00000010
00000000
00000100
00000000
00000100
00000000
,
00001001
00000000
00000000
00000000
00001001
00000000
00000000
00000000
00000010
00000000
00000000
00000100
00000000
00000000
00010000
00000000
,
00011000
00000000
00000000
00011000
00000000
00000000
01001000
00000000
00000000
10100000
00000000
00000000
10100000
00000000
00000000
00000000
,
01100000
00100000
01000000
10000000
01000000
00100000
00001000
00000000
,
00011000
00010000
00000010
00000100
00000001
00001000
00010000
00000000
,
01100000
00100000
01000000
10000000
00010000
01000000
00001000
00000000
,
00011000
00010000
00000010
00000100
00000001
00001000
00000100
00000000
,
00001001
00000010
00000100
00001000
00000100
00000010
00010000
00001000
,
00100000
01000000
10000000
00100000
00010000
00100000
10000000
01000000
,
00010000
01000000
10000000
01000000
00100000
00010000
00001000
00010000
,
00020020
00000000
00030030
00000000
00000110
00000000
00000100
00000100
,
00001001
00000000
00000000
00000000
00001001
00000000
00000000
00000000
00000000
00001000
00000010
00000000
00010000
00000000
00010000
00000000
,
00011000
00000000
00000000
00000000
00011000
00000000
00000000
00000000
01000000
00100000
01000000
00100000
01000000
00000000
00000000
00000000
,
10010000
00000000
00000000
00000000
10010000
00000000
00000000
00000000
00000000
00100000
01000000
00000000
00001000
00000000
00001000
00000000
,
00000000
00010000
00000010
00000000
00000000
00000100
00000001
00000000
00000000
00000010
00000100
00000000
00001000
00000000
00001000
00000000
,
00000110
00000000
00000000
00000000
00000110
00000000
00000000
00000000
00000000
00000100
00000001
00000000
00010000
00000000
00001000
00000000
,
00011000
00000000
00000000
00000000
00011000
00000000
00000000
00000000
00100000
01000000
00100000
01000000
00100000
00000000
00000000
00000000
,
10010000
00000000
00000000
00000000
10010000
00000000
00000000
00000000
00000000
01000000
00100000
00000000
00001000
00000000
00001000
00000000
,
00000000
00010000
00000010
00000000
00000000
00000100
00000010
00000000
00000000
00000100
00000001
00000000
00000001
00000000
00000000
00000000
,
00000100
00000000
00000100
00000000
00000010
00000000
00000010
00000000
00010000
00001000
00010000
00000000
00001000
00000000
01000000
00000000
,
00100000
00000000
00100000
00000000
10000000
00000000
10000000
00000000
00010000
00100000
00010000
00000000
00100000
00000000
01000000
00000000
,
10000000
00000000
10000000
00000000
00001000
00000000
00001000
00000000
00010000
00001000
00010000
00000000
00000010
00000000
00000100
00000000
,
00000010
00000000
00001000
00000000
00000001
00000000
00000001
00000000
00001001
00000000
00000000
00000000
00000100
00000010
00000100
00000010
,
00001000
00000000
00001000
00000000
00000100
00000000
00000100
00000000
00001000
00010000
00001000
00000000
00100000
00000000
01000000
00000000
,
10000000
00000000
10000000
00000000
00100000
00000000
00100000
00000000
01000000
00100000
01000000
00100000
01000000
00000000
00001000
00000000
,
00010000
00000000
00010000
00000000
00000100
00000000
00000100
00000000
00000010
00000001
00000010
00000000
00000001
00000000
00000100
00000000
,
00000010
00000010
00000100
00000010
00000010
00000100
00000010
00000000
,
00001000
00010000
00001000
00010000
01000000
00100000
01000000
00010000
,
10000000
01000000
10000000
01000000
00100000
00010000
10000000
00000000
,
01000000
00100000
01000000
00100000
00001000
01000000
00001000
00010000
,
00000100
00000010
00000100
00000010
00000001
00000100
00000010
00000000
,
00000100
00000001
00000100
00000001
00000010
00000100
00000010
00000001
,
00010000
00000100
00010000
00000100
00001000
00010000
00100000
00000000
,
10000000
00100000
00010000
00100000
10000000
01000000
00010000
01000000
,
10000000
00100000
01000000
00001000
00010000
00000010
00000100
00000001
,
00000011
00000000
00000010
00000000
00000010
00000000
00000010
00000000
00000100
00010000
00000100
00010000
00001000
00000000
00000000
00000000
,
01100000
00000000
01000000
00000000
01000000
00000000
01000000
00000000
00100000
10000000
00100000
10000000
00010000
00000000
00000000
00000000
,
00100000
00000000
00001000
00010000
00002000
00000000
00000000
00000000
00013000
00000010
00010000
00000000
00000002
00000000
00000000
00000000
,
00000103
00000010
00000100
00000001
00000010
00000000
00000110
00000000
,
00010010
00000000
00010000
00000000
00010000
00000000
00010000
00000000
00001000
00100000
00001000
00100000
01000000
00000000
00000000
00000000
,
10100000
00000000
00100000
00000000
00100000
00000000
00100000
00000000
01000000
00010000
01000000
00010000
10000000
00000000
00000000
00000000
,
00100000
00000000
01000000
00001000
02000000
00000000
00000000
00000000
03001000
00010000
00001000
00000000
00020000
00000000
00000000
00000000
,
00030100
00000010
00000001
00000010
00000100
00001000
00001001
00000000
,
00000010
00000001
00000010
00000001
00000100
00000010
00001000
00000000
,
01000000
00100000
01000000
00100000
10000000
01000000
00100000
00000000
,
00001000
10000000
00001000
01000000
00100000
10000000
00010000
00001000
,
00000100
00000010
00000000
00000100
00000010
00000000
00000100
00000010
00000000
00000100
00000010
00000000
00001001
00000000
00000000
00000000
,
00000101
00000000
00000000
00000100
00000000
00000000
00000010
00000000
00000000
00001000
00000000
00000000
00010000
00000000
00000000
00000000
,
00100000
00000000
00000000
01000000
00000000
00000000
00100000
00000000
00000000
00010000
00000000
00000000
10000000
00000000
00000000
00000000
,
01000000
00000000
00000000
00100000
00000000
00000000
00010000
00000000
00000000
00100000
00000000
00000000
01000000
00000000
00000000
00000000
,
10010000
00000000
00000000
10000000
00000000
00000000
00100000
00000000
00000000
10000000
00000000
00000000
00010000
00000000
00100000
00000000
,
00001000
00000000
00010000
00001000
00000000
00000000
00010000
00000000
00000010
00001000
00000000
00000000
00000010
00000000
00000000
00000000
,
00000100
00000000
00000001
00000010
00000000
00000000
00000001
00000000
00000100
00000010
00000000
00000000
00000100
00000000
00000000
00000000
,
00000010
00000000
00001000
00010000
00000000
00000000
00001000
00000000
01000000
00100000
00000000
00000000
01000000
00000000
00001000
00010000
,
00000000
00001000
00010000
00000000
00001000
00010000
00000000
00001000
00010000
00000000
00001000
00000000
00001000
00000000
00001000
00000000
,
00010000
00000010
00000001
00000100
00000010
00000100
00000001
00000010
,
00020000
00000100
00001000
00030100
,
00010000
00001000
01000000
10000000
01000000
00001000
00010000
00000100
,
00000010
00000110
00001001
00000110
,
00000001
00000100
00001000
00000010
00001000
00000100
00000001
00000010
,
00000200
00000000
00010000
00000000
00010000
00010000
00010300
00000000
,
00001000
10000000
01000000
10000000
00010000
01000000
10000000
01000000
,
01010000
01100000
00011000
00000110
,
00001001
00000000
00000000
00000000
00001001
00000000
00000000
00000000
00001000
00000100
00000010
00000000
00000001
00000000
00001000
00000000
,
00001010
00000000
00000000
00001010
00000000
00000000
00011000
00000000
00000000
01001000
00000000
00000000
01000000
00000000
01000000
00000000
,
01100000
10010000
00000000
00000000
00000000
00000000
00000000
00000000
;

//---------------dance-double - ----------------
#NOTES:
     dance-double:
     :
     Challenge:
     16:
     0.852,0.802,0.477,0.075,0.803:
10010000
00000000
00000000
00000000
10010000
00000000
00000000
00000000
10000000
01000000
10000000
00010000
01000000
00000000
00001000
00000000
,
00011000
00000000
00000000
00000000
00011000
00000000
00010000
00000000
00000100
00001000
00000100
00001000
00000010
00000000
00000010
00000000
,
00001001
00000000
00000000
00000000
00001001
00000000
00000000
00000000
00000010
00000100
00000010
00000100
00000001
00000000
00001000
00000000
,
00001100
00000000
00000000
00010100
00000000
00000000
00011000
00000000
00000000
00001000
01000000
00100000
01000000
00000000
01000000
00000000
,
00010000
01000000
00010000
01000000
00010000
01000000
00100000
01000000
00100000
01000000
00100000
01000000
00010000
00000000
00000000
00000000
,
10000000
01000000
10000000
01000000
10000000
01000000
10000000
00010000
10000000
00010000
10000000
00010000
01000000
00000000
00000000
00000000
,
00001000
00010000
00001000
00010000
00001000
00010000
00000010
00001000
00000010
00001000
00000010
00001000
00000001
00000000
00000001
00000000
,
00000100
00000010
00000100
00000010
00000100
00000010
00010000
00000100
00010000
00000100
00010000
00000000
00001000
00010000
00001000
00000000
,
01000000
00100000
01000000
00010000
01000000
00000000
00010000
00100000
01000000
10000000
00010000
00000000
10000000
00000000
00100000
00000000
,
01000000
00010000
01000000
00100000
10000000
00000000
01000000
10000000
01000000
00100000
00001000
00000000
00010000
00000000
00000100
00000000
,
00001000
00000010
00001000
00000010
00000100
00000001
00000100
00000001
00000010
00000100
00001000
00010000
01000000
00100000
01000000
00010000
,
20000000
00000000
00000000
30000000
10010000
00000000
01000000
01000000
,
10010000
00000000
00000000
00000000
10010000
00000000
00000000
00000000
10000000
01000000
10000000
00000000
00100000
00000000
01000000
00000000
,
01001000
00000000
00000000
00000000
01001000
00000000
00000000
00000000
00010000
00000100
00010000
00000100
00000010
00000000
00000010
00000000
,
00001001
00000000
00000000
00000000
00001001
00000000
00000000
00000000
00000100
00000001
00000100
00000000
00000010
00000000
00000010
00000000
,
00010000
00000100
00010000
00000000
00001000
00010000
00001000
00000000
01000000
00010000
10000000
00010000
01000000
00000000
00100000
00000000
,
01100000
00000000
00000000
00000000
01100000
00000000
00000000
00000000
10000000
00100000
10000000
00000000
00010000
00000000
00100000
00000000
,
00110000
00000000
00000000
00000000
00110000
00000000
00000000
00000000
00100000
00001000
00100000
00001000
00010000
00000000
00000010
00000000
,
00000110
00000000
00000000
00000000
00000110
00000000
00000000
00000000
00000100
00000001
00000100
00000000
00000001
00000000
00000010
00000000
,
00000100
00010000
00000100
00000000
00010000
00001000
00100000
00000000
00010000
00100000
00010000
00100000
01000000
00000000
00000000
00000000
,
10010000
00000000
10000000
00000000
10010000
00000000
00010000
00000000
00100000
00001000
00100000
00001000
00010000
00000100
00000010
00000001
,
00000010
00000000
00000010
00000000
00000101
00000000
00000100
00000000
00000001
00000010
00000100
00010000
00001000
00000000
00010000
00000000
,
00011000
00000000
00001000
00000000
01000000
00000000
01000000
00000000
00100000
10000000
00100000
10000000
01000000
10000000
01000000
10000000
,
00001000
01000000
00001000
00000000
00011000
00000000
00011000
00000000
00011000
00000000
00010000
00000100
00000010
00000001
00000100
00000000
,
00001001
00000000
00000001
00000000
00000110
00000000
00000100
00000000
00000001
00000010
00000001
00000010
00000100
00010000
00000100
00010000
,
00001000
00000000
00001000
00000000
01100000
00000000
01000000
00000000
00010000
00100000
01000000
10000000
00010000
00000000
00010000
00000000
,
01100000
00000000
00100000
00000000
10100000
00000000
10000000
00000000
01000000
00100000
01000000
00100000
00001000
00010000
00001000
00010000
,
00000010
00000000
00001000
00000001
00000100
00000001
00001000
00000000
00000100
00000010
00000001
00000010
00000100
00000000
00010000
00000000
,
00011000
00001000
01000000
10000000
01000000
00100000
10000000
00010000
,
00100000
00000000
00010000
00000000
01000000
00000000
00010000
00000000
10000000
00000000
00100000
00000000
01000000
00000000
00001000
00010000
,
00001000
00010000
00000010
00000001
00000010
00000100
00000001
00001000
,
00000001
00000100
00000010
00001000
00010000
01000000
00100000
00100000
,
10010000
10000000
00100000
00010000
00100000
01000000
00001000
00010000
,
00010010
00000010
00000110
00000100
00000101
00000001
00001001
00001000
,
00000010
00010000
00001000
01000000
00100000
10000000
01000000
10000000
,
01000000
00100000
01000000
00100000
00010000
10000000
00010000
00100000
01000000
10000000
00001000
01000000
00001000
00000000
00000000
00000000
,
00011000
00000000
00010000
00000010
00000100
00000010
00010000
00000010
00000100
00000010
00010000
00000010
00000100
00000000
00000001
00000000
,
00000010
00000000
00000100
00000010
00000001
00000010
00000100
00000010
00000001
00000010
00000100
00000010
00000001
00000000
00001000
00000000
,
00000100
00000000
00010000
00001000
02000000
00000000
00000000
03100000
01000000
00010000
00100000
01000000
20000000
00000000
30010000
00000000
,
01000000
00000000
00010000
01000000
00001000
00000000
00010000
00001000
00010000
00000000
00000010
00000100
00000001
00000000
00000000
00000000
,
00001001
00000000
00001000
00000010
00000100
00000010
00001000
00000010
00000100
00000010
00001000
00000010
00000100
00000000
00000010
00000000
,
00010000
00000000
00001000
00100000
01000000
00100000
00001000
00100000
01000000
00100000
00001000
00100000
01000000
00000000
10000000
00000000
,
00010000
00000000
10000000
00100000
20000000
00000000
00000000
31000000
00100000
00001000
00100000
00001000
00020000
00000000
00000000
00000000
,
00030100
00000000
00000010
00000000
00000001
00000000
00000001
00000000
00000100
00000010
00000100
00000010
00000100
00000000
00000000
00000000
,
00001001
00000010
00000100
00001000
00010000
00100000
01000000
00000000
,
10010000
01000000
00100000
00010000
00001000
00000100
00000010
00000000
,
00001001
00000010
00000100
00010000
00001000
01000000
00100000
01000000
,
00010000
00100000
00000000
00001000
00100000
00000000
00010000
00100000
00000000
00001000
00100000
00000000
01100000
00000000
00000000
00000000
,
10000000
01000000
00000000
10000000
00010000
00000000
10000000
01000000
00000000
10000000
00010000
00000000
01000000
00000000
00001000
00000000
,
00010000
00000010
00000000
00000100
00000010
00000000
00010000
00000010
00000000
00000100
00000010
00000000
00000100
00000000
00000001
00000000
,
00000010
00000100
00000000
00000010
00000001
00000000
00000010
00000100
00000000
00000010
00000001
00000000
00001000
00000000
00000100
00000000
,
00010100
00000000
00000000
00011000
00000000
00000000
00101000
00000000
00000000
01100000
00000000
00000000
10010000
00000000
10000000
00000000
,
00010000
00000000
00100000
01000000
00000000
10000000
01000000
00000000
00100000
00001000
00000000
00010000
00001000
00000000
00010000
00000000
,
00000010
00000000
00000100
00000001
00000000
00000010
00000100
00000000
00000010
00000001
00000000
00001000
00000010
00000000
00010000
00000000
,
00001000
00000000
10000000
00010000
00000000
01000000
00010000
00000000
10000000
00001000
00000000
00100000
00001000
00000000
00010000
00000010
,
00000000
00000100
00000010
00000000
00000100
00000001
00000000
00000010
00000100
00000000
00010000
00001000
00010000
00001000
00010000
00001000
,
00010000
00001000
00100000
10000000
00100000
00001000
10000000
00100000
,
02000000
00000000
00000000
00010000
00000000
00000000
00010000
00000000
00000000
00100000
00000000
00000000
03100000
00000000
10000000
01000000
,
00100000
00001000
00100000
10000000
00100000
00001000
00010000
00000100
,
00000020
00000000
00000000
00000001
00000000
00000000
00000001
00000000
00000000
00000100
00000000
00000000
00000130
00000000
00000000
00000000
,
00001000
00000100
00010000
00001000
00100000
10000000
00100000
00001000
,
20000000
00000000
00000000
00100000
00000000
00000000
00100000
00000000
00000000
00010000
00000000
00000000
30010000
00000000
00000000
00000000
,
10000000
00000000
01000000
00000000
00100000
00000000
00001000
00000000
00010000
00000100
00010000
00000100
00000010
00000001
00000010
00000100
,
00010000
00001000
00100000
01000000
00100000
00001000
00100000
01000000
20000000
00000000
00000000
00000000
30100000
01000000
00100000
01000000
,
00010000
00000000
00010000
00000000
01001000
00000000
00001000
00000000
00010000
00000100
00000010
00000001
00001000
00000000
00000000
00000000
,
00010010
00000000
00000000
00011000
00000000
00000000
01001000
00000000
00000000
01000000
00010000
00100000
01000000
10000000
00100000
00000000
,
01100000
10010000
00000000
00000000
00000000
00000000
00000000
00000000
;

//---------------dance-single - ----------------
#NOTES:
     dance-single:
     :
     Beginner:
     2:
     0.109,0.166,0.134,0.000,0.000:
1000
0000
0000
0000
,
0001
0000
0000
0000
,
1000
0000
0000
0000
,
0010
0000
0000
0000
,
0110
0000
0000
0000
,
0100
0000
0000
0000
,
0010
0000
0000
0000
,
0100
0000
0000
0000
,
0001
0000
0000
0000
,
0010
0000
0000
0000
,
0100
0000
0000
0000
,
1000
0000
0000
0000
,
1001
0000
0000
0000
,
1001
0000
0000
0000
,
1001
0000
0000
0000
,
0001
0000
0000
0000
,
0110
0000
0000
0000
,
0110
0000
0000
0000
,
0110
0000
0000
0000
,
1000
0000
0000
0000
,
1001
0000
0000
0000
,
1001
0000
0000
0000
,
1001
0000
0000
0000
,
0010
0000
0000
0000
,
0110
0000
0000
0000
,
0110
0000
0000
0000
,
0110
0000
0000
0000
,
0100
0000
0000
0000
,
0001
0000
0000
0000
,
0000
0000
0000
0000
,
0010
0000
0000
0000
,
0000
0000
0000
0000
,
0100
0000
0000
0000
,
0000
0000
0000
0000
,
1000
0000
0000
0000
,
0001
0000
0000
0000
,
1000
0000
0000
0000
,
0100
0000
0000
0000
,
0010
0000
0010
0000
,
0010
0000
0000
0000
,
0001
0000
0000
0000
,
0100
0000
0000
0000
,
0010
0000
0010
0000
,
0010
0000
0000
0000
,
1001
0000
0000
0000
,
0100
0000
0000
0000
,
0010
0000
0000
0000
,
0001
0000
0000
0000
,
0100
0000
0001
0000
,
0100
0000
0000
0000
,
0001
0000
1000
0000
,
0001
0000
0000
0000
,
1000
0000
0100
0000
,
1000
0000
0000
0000
,
0010
0000
0100
0000
,
0010
0000
0000
0000
,
1000
0000
0100
0000
,
1000
0000
0000
0000
,
0001
0000
1000
0000
,
0001
0000
0000
0000
,
0100
0000
0001
0000
,
0100
0000
0000
0000
,
0010
0000
0100
0000
,
0010
0000
0100
0000
,
0010
0000
0000
0000
,
0110
0000
0000
0000
,
1001
0000
0000
0000
;
