#TITLE:Miracle Moon;
#SUBTITLE:(お月さまが中継局);
#ARTIST:Togo Project featuring Sana;
#TITLETRANSLIT:;
#SUBTITLETRANSLIT:(OTSUKISAMA GA CHUUKEIKYOKU);
#ARTISTTRANSLIT:;
#CREDIT:DigiMindAxel;
#BANNER:Miracle Moon (OTSUKISAMA GA CHUUKEIKYOKU).png;
#BACKGROUND:Miracle Moon (OTSUKISAMA GA CHUUKEIKYOKU)-bg.png;
#LYRICSPATH:Miracle Moon (OTSUKISAMA GA CHUUKEIKYOKU).lrc;
#CDTITLE:beatmania.png;
#MUSIC:Miracle Moon (OTSUKISAMA GA CHUUKEIKYOKU).ogg;
#METERTYPE:DDR X;
#OFFSET:-0.800;
#SAMPLESTART:64.575;
#SAMPLELENGTH:12.000;
#SELECTABLE:YES;
#BPMS:0.000=128.000;
#STOPS:197.500=0.938
;
#BGCHANGES:-1.000=Miracle Moon (OTSUKISAMA GA CHUUKEIKYOKU).avi=1.000=1=1=0,
99999=-nosongbg-=1.000=0=0=0 // don't automatically add -songbackground-
;

//---------------dance-single - ----------------
#NOTES:
     dance-single:
     :
     Easy:
     3:
     0.133,0.201,0.048,0.058,0.000: // measure 1
0000
0000
0000
0000
,  // measure 2
0000
0000
0000
0000
,  // measure 3
0000
0000
0000
0000
,  // measure 4
0000
0000
0000
0000
,  // measure 5
0000
0000
0000
0000
,  // measure 6
1000
0000
1000
0000
,  // measure 7
0001
0000
0002
0000
,  // measure 8
0103
0000
0100
0000
,  // measure 9
0010
0000
0020
0000
,  // measure 10
0130
0000
0000
0000
,  // measure 11
0001
0000
0000
0000
,  // measure 12
0010
0000
0000
0000
,  // measure 13
0100
0000
0000
0000
,  // measure 14
1000
0000
0000
0000
,  // measure 15
0001
0000
0000
0000
,  // measure 16
1000
0000
0000
0000
,  // measure 17
0000
0000
0000
0000
,  // measure 18
1001
0000
0000
0000
,  // measure 19
0010
0000
0000
0000
,  // measure 20
0100
0000
0000
0000
,  // measure 21
0001
0000
0000
0000
,  // measure 22
1000
0000
0000
0000
,  // measure 23
1000
0000
0000
0000
,  // measure 24
1001
0000
0000
0000
,  // measure 25
0020
0000
0000
0000
,  // measure 26
0130
0000
0000
0000
,  // measure 27
0002
0000
0000
0000
,  // measure 28
1003
0000
0000
0000
,  // measure 29
0001
0000
0001
0000
,  // measure 30
1000
0000
1000
0000
,  // measure 31
0001
0000
0010
0000
,  // measure 32
0100
0000
1000
0000
,  // measure 33
1000
0000
0000
0000
,  // measure 34
0002
0000
0000
0000
,  // measure 35
1003
0000
0001
0100
,  // measure 36
0001
0000
0000
0000
,  // measure 37
1000
0000
0100
0010
,  // measure 38
0100
0000
0000
0000
,  // measure 39
1000
0001
1000
0000
,  // measure 40
0001
1000
0001
0000
,  // measure 41
0100
0001
0100
0000
,  // measure 42
0001
1000
0001
0000
,  // measure 43
1000
0100
1000
0000
,  // measure 44
0001
0010
0001
0000
,  // measure 45
1000
0001
1000
0000
,  // measure 46
0001
1000
0001
0000
,  // measure 47
0010
0001
0010
0000
,  // measure 48
0100
1000
0100
0000
,  // measure 49
1000
0001
1000
0000
,  // measure 50
0001
0100
0001
0000
,  // measure 51
1001
0000
0020
0000
,  // measure 52
0130
0000
0010
0000
,  // measure 53
0110
0000
0000
0110
0000
0000
0000
0000
;

//---------------dance-single - ----------------
#NOTES:
     dance-single:
     :
     Medium:
     6:
     0.255,0.302,0.173,0.048,0.005: // measure 1
0000
0000
0000
0000
,  // measure 2
0000
0000
0000
0000
,  // measure 3
0000
0000
0000
0000
,  // measure 4
0000
0000
0000
0000
,  // measure 5
0000
0000
0000
0000
,  // measure 6
1000
0001
1000
0001
,  // measure 7
1000
0001
0100
0000
,  // measure 8
0010
0100
0010
0100
,  // measure 9
0010
0100
0001
0000
,  // measure 10
1001
0100
0010
0000
,  // measure 11
0001
0010
0100
0000
,  // measure 12
0010
0001
0100
0000
,  // measure 13
0010
1000
0100
0000
,  // measure 14
1000
0100
0010
0000
,  // measure 15
0001
0010
0100
0000
,  // measure 16
1000
0001
0100
0000
,  // measure 17
0000
0000
0020
0000
0000
0000
0000
0000
0000
0000
0000
0000
,  // measure 18
0130
0001
1000
0100
,  // measure 19
0010
0001
0010
0001
,  // measure 20
1000
0010
0010
0100
,  // measure 21
0100
0010
0010
1000
,  // measure 22
0001
0010
0100
0010
,  // measure 23
0100
1000
0010
0100
,  // measure 24
1001
0000
0000
0001
0000
0000
1000
0000
,  // measure 25
0110
0000
0010
0000
0000
0010
0000
0000
,  // measure 26
0002
0000
1003
0000
,  // measure 27
0110
0000
0100
0000
0000
0100
0000
0000
,  // measure 28
2000
0000
3001
0000
,  // measure 29
1000
0000
0100
0000
0010
0000
0001
1000
,  // measure 30
0000
0000
0000
0000
,  // measure 31
0001
0000
0010
0000
0100
0000
1000
0001
,  // measure 32
0000
0000
0000
0000
,  // measure 33
1000
0002
1000
1003
,  // measure 34
0020
0000
0030
0000
,  // measure 35
0100
0000
0001
0010
0100
0000
0010
0000
,  // measure 36
0001
0000
0001
0000
,  // measure 37
0100
0000
0010
1000
0100
0000
1000
0000
,  // measure 38
0010
0000
0010
0000
,  // measure 39
1000
0001
1000
0000
0001
0000
0010
0000
,  // measure 40
0100
1000
0100
0000
0010
0000
0010
0000
,  // measure 41
0001
0100
0001
0000
0010
0000
0100
0000
,  // measure 42
1000
0001
1000
0000
0010
0000
0010
0000
,  // measure 43
0100
0110
0100
0110
,  // measure 44
1000
1001
1000
0000
,  // measure 45
0001
1001
0001
1001
,  // measure 46
0010
0110
0100
0000
,  // measure 47
1000
1100
1000
1100
,  // measure 48
0010
0010
0100
0100
,  // measure 49
0001
1001
1000
1001
,  // measure 50
0100
0000
0110
0000
0001
0000
0000
0100
,  // measure 51
0010
0000
1000
0000
1001
0000
0001
0100
,  // measure 52
0001
0000
1001
0000
1000
0000
0000
0010
,  // measure 53
0100
0000
0000
1001
0000
0000
0000
0000
;

//---------------dance-single - ----------------
#NOTES:
     dance-single:
     :
     Hard:
     9:
     0.428,0.453,0.221,0.211,0.317: // measure 1
0000
0000
0000
0000
,  // measure 2
0000
0000
0000
0000
,  // measure 3
0000
0000
0000
0000
,  // measure 4
0000
0000
0000
0000
,  // measure 5
0000
0000
0000
0000
,  // measure 6
1000
0100
0001
0100
,  // measure 7
1000
0000
0000
0000
0010
0000
0000
0000
0100
0010
0000
0100
0000
0100
0010
0000
,  // measure 8
1000
0010
0001
0010
,  // measure 9
1000
0000
0000
0000
0100
0000
0000
0000
0010
0100
0000
0010
0000
0010
0100
0000
,  // measure 10
1001
0000
0000
1000
0000
0000
1000
0000
0000
0000
0001
0000
0200
0000
0000
0000
,  // measure 11
0301
0000
0000
0001
0000
0000
0001
0000
0000
0000
0010
0000
0200
0000
0000
0000
,  // measure 12
1300
0000
0000
1000
0000
0000
1000
0000
0000
0000
0001
0000
0200
0000
0000
0000
,  // measure 13
0310
0000
0000
0010
0000
0000
0010
0000
0000
0000
1000
0000
0200
0000
0000
0000
,  // measure 14
0310
0000
0000
0010
0000
0000
0010
0000
0000
0000
0001
0000
0100
0001
0000
0000
,  // measure 15
1000
0000
0000
1000
0000
0000
1000
0000
0000
0000
0100
0000
0010
0100
0000
0000
,  // measure 16
0010
0000
0000
0010
0000
0000
0010
0000
0000
0000
0001
0000
0100
0001
0000
0000
,  // measure 17
0000
0000
1000
0000
0100
0000
0010
0000
0001
0000
1000
0000
,  // measure 18
1002
0000
0000
1000
0000
0000
1003
0000
0000
0000
0001
0000
0100
0002
0000
0000
,  // measure 19
2003
0000
0000
0100
0000
0000
3100
0000
0000
0000
0010
0000
0001
0200
0000
0000
,  // measure 20
0301
0000
0000
0000
1000
0001
0000
1000
0000
1000
0000
0000
0010
0000
0100
0010
,  // measure 21
0000
0000
0000
0000
1000
0001
0000
1000
0000
1000
0001
0000
0020
0000
0000
0000
,  // measure 22
0230
0000
0000
1000
0000
0000
1300
0000
0000
0000
0001
0000
1000
0200
0000
0000
,  // measure 23
2300
0000
0000
0010
0000
0000
3010
0000
0000
0000
1000
0000
0001
0020
0000
0000
,  // measure 24
0031
1000
0000
0000
0000
0000
0001
1000
0000
1000
0000
0000
0100
0010
0000
0000
,  // measure 25
1001
0000
1200
0000
0000
1300
0000
0000
,  // measure 26
0020
0000
0000
0000
0000
0000
0000
0000
0000
0000
0130
0000
0000
0010
0000
0000
,  // measure 27
1000
0000
1020
0000
0000
1030
0000
0000
,  // measure 28
0200
0000
0000
0000
0000
0000
0000
0000
0010
0000
0310
0000
0000
0001
0000
0000
,  // measure 29
0110
0000
1100
0000
0011
0000
0001
2000
,  // measure 30
0000
0010
0000
3010
,  // measure 31
1001
0000
0011
0000
1100
0000
1000
0002
,  // measure 32
0000
0100
0000
0103
,  // measure 33
0001
0000
0110
0000
0010
0100
1000
0020
,  // measure 34
0000
0000
0030
0000
,  // measure 35
0001
0000
1000
0000
0010
0000
1000
0000
0001
0000
0000
0010
0000
0000
1000
0000
,  // measure 36
0100
0000
0000
0000
0100
0000
0000
0000
0020
0000
0000
0001
0000
0000
0031
0000
,  // measure 37
1000
0000
0001
0000
0010
0000
0100
0000
0010
0000
0000
0001
0000
0000
0100
0000
,  // measure 38
0010
0000
0000
0000
0010
0000
0000
0000
2000
0000
0000
0001
0000
0000
3001
0000
,  // measure 39
1000
0000
0100
0000
0010
0000
0100
0000
1000
0000
0000
0001
0000
0000
0100
0000
,  // measure 40
0001
0000
0010
0000
0100
0000
0000
0000
1000
0001
0000
1000
0000
1000
0001
0000
,  // measure 41
0010
0000
0100
0000
0010
0000
0001
0000
1000
0000
0000
0010
0000
0000
0100
0000
,  // measure 42
0001
0000
0010
0000
0100
0000
0000
0000
1000
0001
0000
1000
0000
1000
0001
0000
,  // measure 43
0100
0010
1010
0000
0100
0001
1001
0000
,  // measure 44
1000
0000
0100
0000
0010
0000
0001
0000
0100
0010
0000
0100
0000
0100
0010
0000
,  // measure 45
1000
0001
0011
0000
0100
1000
1001
0000
,  // measure 46
0100
0000
0001
0000
0010
0000
0100
0000
1000
0001
0000
1000
0000
1000
0001
0000
,  // measure 47
0010
0100
1100
0000
0010
0001
0101
0000
,  // measure 48
0010
0000
0010
0000
0100
0000
0100
0000
0001
1000
0000
0001
0000
0001
1000
0000
,  // measure 49
0100
0010
0011
0000
0100
0010
0110
0000
,  // measure 50
1000
0000
0100
0000
0010
0000
0000
0000
0000
0100
0000
0000
0100
0000
0001
0000
,  // measure 51
0010
0000
0000
1000
0000
0000
1100
0000
0000
0000
0000
0000
0010
0000
0010
0000
,  // measure 52
0010
0000
0000
0000
1001
0000
0000
0000
0000
0010
0000
0000
0010
0000
0100
0000
,  // measure 53
0001
0000
0000
0010
0000
0000
1010
0000
0000
0000
0000
0000
0000
0000
0000
0000
;

//---------------dance-double - ----------------
#NOTES:
     dance-double:
     :
     Easy:
     3:
     0.139,0.201,0.058,0.048,0.000:
00000000
00000000
00000000
00000000
,
00000000
00000000
00000000
00000000
,
00000000
00000000
00000000
00000000
,
00000000
00000000
00000000
00000000
,
00000000
00000000
00000000
00000000
,
10000000
00000000
10000000
00000000
,
10000000
00000000
10010000
00000000
,
00010000
00000000
00010000
00000000
,
00010000
00000000
10010000
00000000
,
01000000
00000000
00000000
00000000
,
00100000
00000000
00000000
00000000
,
00001000
00000000
00000000
00000000
,
00010000
00000000
00000000
00000000
,
00001000
00000000
00000000
00000000
,
00010000
00000000
00000000
00000000
,
00000100
00000000
00000000
00000000
,
00000000
00000000
00000000
00000000
,
00000110
00000000
00000000
00000000
,
00000010
00000000
00000100
00000000
,
00000010
00000000
00000000
00000000
,
00000100
00000000
00000000
00000000
,
00000001
00000000
00001000
00000000
,
00000001
00000000
00000000
00000000
,
00000110
00000000
00000000
00000000
,
00000020
00000000
00000000
00000000
,
00010030
00000000
00000000
00000000
,
00002000
00000000
00000000
00000000
,
00013000
00000000
00000000
00000000
,
00100000
00000000
00100000
00000000
,
01000000
00000000
01000000
00000000
,
10000000
00000000
01000000
00000000
,
10000000
00000000
00001000
00000000
,
00020000
00000000
00000000
00000000
,
00032000
00000000
00000000
00000000
,
00013000
00000100
00010000
00000100
,
00010000
00000000
00000000
00000000
,
00000010
00000100
00000010
00000100
,
00000010
00000000
00000000
00000000
,
00001000
00000100
00001000
00000100
,
00001000
00000000
00010000
00000000
,
01000000
00100000
01000000
00100000
,
01000000
00000000
00010000
00000000
,
01000000
00010000
01000000
00000000
,
00100000
10000000
00001000
00000000
,
00010000
00000100
00010000
00000000
,
00000001
00000010
00000100
00000000
,
00001000
00000001
00001000
00000000
,
00000010
00000100
00000001
00000000
,
00010000
00000100
00010000
00000000
,
00001000
01000000
01000000
00000000
,
01100000
00000000
20000000
00000000
,
30010000
00000000
01000000
00000000
,
00001000
00000000
00000000
00011000
00000000
00000000
00000000
00000000
;

//---------------dance-double - ----------------
#NOTES:
     dance-double:
     :
     Medium:
     7:
     0.286,0.327,0.211,0.087,0.005:
00000000
00000000
00000000
00000000
,
00000000
00000000
00000000
00000000
,
00000000
00000000
00000000
00000000
,
00000000
00000000
00000000
00000000
,
00000000
00000000
00000000
00000000
,
10000000
10000000
00010000
00010000
,
10000000
10000000
01100000
00000000
,
00001000
00001000
00010000
00010000
,
00001000
00001000
00000110
00000000
,
00001001
00000001
00000100
00000001
,
00000100
00001000
00000100
00000001
,
00000010
00000100
00010000
00000000
,
00001000
01000000
00100000
00000000
,
10000000
01000000
10000000
01000000
,
00010000
01000000
10000000
00100000
,
01000000
00001000
00010000
00000000
,
00000000
00000000
00000020
00000000
00000000
00000000
00000000
00000000
00000000
00000000
00000000
00000000
,
00000130
00000001
00000010
00000001
,
00000100
00001000
00000100
00000001
,
00010000
00000000
00001000
00010000
00002000
00000000
01000000
00000000
,
01003000
00000000
00100000
01000000
00200000
00000000
01000000
00000000
,
01300000
00010000
00100000
01000000
,
00100000
00010000
01000000
00001000
,
00011000
00000000
00000000
00011000
00000000
00000000
00000000
00000000
,
00000110
00000000
00000010
00000000
00000000
00000010
00000000
00000000
,
00000020
00000000
00000130
00000000
,
00001001
00000000
00001000
00000000
00000000
00001000
00000000
00000000
,
00002000
00000000
00003001
00000000
,
00001000
00000000
00000100
00000000
00000010
00000000
00000001
00010000
,
00000000
00000000
00000000
00000000
,
00001000
00000000
01000000
00000000
00100000
00000000
10000000
00010000
,
00000000
00000000
00000000
00000000
,
00000000
20010000
00010000
30010000
,
02000000
00000000
03000000
00000000
,
00010000
01000000
00100000
00000000
10000000
00000000
01000000
00000000
,
00100000
00001000
00011000
00000000
,
00001000
00000100
00000010
00000000
00000100
00000000
00001000
00000000
,
00000001
00010000
00011000
00000000
,
01000000
00100000
01000000
00000000
00100000
00000000
10000000
00000000
,
00010000
01000000
00010000
00000000
01100000
00000000
01001000
00000000
,
00001000
00010000
00001000
00000000
00010000
00000000
00000100
00000000
,
00000010
00000100
00000010
00000000
00000101
00000000
00001001
00000000
,
00000100
00000110
00000100
00000110
,
00010000
00010100
00010000
00000000
,
00100000
01100000
00100000
01100000
,
10000000
10010000
00010000
00000000
,
01000000
00100000
01000000
00000000
01000000
00010000
01000000
00000000
,
00001000
00001000
00001000
00000000
00010000
00010000
00010000
00000000
,
00000100
00000010
00000100
00000000
00000100
00001000
00000100
00000000
,
00000010
00000100
00000010
00000000
00000002
00000000
00000000
00000100
,
00000103
00000000
00000010
00001000
00010000
00000000
00100000
01000000
,
00100000
00000000
01100000
00000000
20000000
00000000
00000000
01000000
,
31000000
00000000
00000000
00101000
00000000
00000000
00000000
00000000
;

//---------------dance-double - ----------------
#NOTES:
     dance-double:
     :
     Hard:
     9:
     0.426,0.453,0.173,0.135,0.317:
00000000
00000000
00000000
00000000
,
00000000
00000000
00000000
00000000
,
00000000
00000000
00000000
00000000
,
00000000
00000000
00000000
00000000
,
00000000
00000000
00000000
00000000
,
10000000
01000000
10000000
01000000
,
00100000
00000000
00000000
00000000
00001000
00000000
00000000
00000000
00010000
00001000
00000000
00010000
00000000
00010000
00001000
00000000
,
00010000
00000010
00010000
00000010
,
00000100
00000000
00000000
00000000
00000001
00000000
00000000
00000000
00000100
00000010
00000000
00000100
00000000
00000100
00000010
00000000
,
00010000
00000000
00000000
00010000
00000000
00000000
00010000
00000000
00000000
00000000
00001000
00000000
02000000
00000000
00000000
00000000
,
03100000
00000000
00000000
00100000
00000000
00000000
00100000
00000000
00000000
00000000
10000000
00000000
00200000
00000000
00000000
00000000
,
01300000
00000000
00000000
01000000
00000000
00000000
01000000
00000000
00000000
00000000
00001000
00000000
00020000
00000000
00000000
00000000
,
00030100
00000000
00000000
00000100
00000000
00000000
00000100
00000000
00000000
00000000
00000010
00000000
00000002
00000000
00000000
00000000
,
00000013
00000000
00000000
00000010
00000000
00000000
00000010
00000000
00000000
00000000
00000100
00000000
00001000
00000100
00000000
00000000
,
00010000
00000000
00000000
00010000
00000000
00000000
00010000
00000000
00000000
00000000
00001000
00000000
01000000
00001000
00000000
00000000
,
10000000
00000000
00000000
10000000
00000000
00000000
10000000
00000000
00000000
00000000
00100000
00000000
01000000
00100000
00000000
00000000
,
00000000
00000000
10000000
00000000
01000000
00000000
00001000
00000000
00000100
00000000
00000001
00000000
,
00000110
00000000
00000000
00000100
00000000
00000000
00000100
00000000
00000000
00000000
00000001
00000000
00000100
00000020
00000000
00000000
,
00010030
00000000
00000000
00010000
00000000
00000000
00010000
00000000
00000000
00000000
00001000
00000000
00100000
02000000
00000000
00000000
,
03100000
00000000
00000000
00000000
00010000
10000000
00000000
00010000
00000000
00010000
00000000
00000000
01000000
00000000
00100000
01000000
,
00000000
00000000
00000000
00000000
00001000
00010000
00000000
00001000
00000000
00001000
00010000
00000000
00000200
00000000
00000000
00000000
,
00000310
00000000
00000000
00000010
00000000
00000000
00000010
00000000
00000000
00000000
00000001
00000000
00000100
00000002
00000000
00000000
,
00001003
00000000
00000000
00001000
00000000
00000000
00001000
00000000
00000000
00000000
00000100
00000000
00001000
00020000
00000000
00000000
,
00130000
01000000
00000000
00000000
00000000
00000000
00100000
01000000
00000000
01000000
00000000
00000000
10000000
00010000
00000000
00000000
,
10010000
00000000
01100000
00000000
00000000
01001000
00000000
00000000
,
00011000
00000000
00000000
00000000
00000000
00000000
00000000
00000000
00000000
00000000
00000100
00000000
00000000
00000010
00000000
00000000
,
00000100
00000000
00001001
00000000
00000000
00010010
00000000
00000000
,
00011000
00000000
00000000
00000000
00000000
00000000
00000000
00000000
00100000
00000000
01000000
00000000
00000000
00100000
00000000
00000000
,
10010000
00000000
11000000
00000000
00110000
00000000
00001000
00020000
,
00000000
00000100
00000000
00030100
,
00000110
00000000
00000011
00000000
00001100
00000000
00010000
00002000
,
00000000
01000000
00000000
01003000
,
00100000
00000000
10010000
00000000
10000000
01000000
00100000
00002000
,
00000000
00000000
00000000
00003000
,
00010000
00000000
00000010
00000000
00000100
00000000
00000010
00000000
00010000
00000000
00000000
00000010
00000000
00000000
00000001
00000000
,
00000010
00000000
00000000
00000000
00010000
00000000
00000000
00000000
00002000
00000000
00000000
00100000
00000000
00000000
00103000
00000000
,
00001000
00000000
00100000
00000000
01000000
00000000
00100000
00000000
00001000
00000000
00000000
01000000
00000000
00000000
10000000
00000000
,
01000000
00000000
00000000
00000000
00001000
00000000
00000000
00000000
00020000
00000000
00000000
00000010
00000000
00000000
00030010
00000000
,
00000100
00000000
00000001
00000000
00000010
00000000
00000100
00000000
00010000
00000000
00000000
00001000
00000000
00000000
01000000
00000000
,
00100000
00000000
00100000
00000000
10000000
00000000
10000000
00000000
00010000
01000000
00000000
00010000
00000000
00010000
01000000
00000000
,
00001000
00000000
00010000
00000000
00000100
00000000
00000010
00000000
00000001
00000000
00000000
00000100
00000000
00000000
00000010
00000000
,
00001000
00000000
00001000
00000000
00000001
00000000
00000001
00000000
00000010
00000100
00000000
00000010
00000000
00000010
00000100
00000000
,
00010000
00001000
00100000
01000000
10000000
00100000
01000000
00010000
,
10000000
00000000
10000000
00000000
00001000
00000000
00001000
00000000
00010000
00000010
00000000
00010000
00000000
00010000
00000010
00000000
,
00000100
00000001
00000010
00001000
00000010
00000001
00001000
00000100
,
00010000
00000000
00010000
00000000
00001000
00000000
00001000
00000000
01000000
00100000
00000000
01000000
00000000
01000000
00100000
00000000
,
10000000
00010000
01000000
10000000
01000000
00010000
00100000
00001000
,
00010000
00000000
00010000
00000000
00000010
00000000
00000010
00000000
00000100
00000001
00000000
00000100
00000000
00000100
00000001
00000000
,
00000010
00000100
00001000
00000100
00000010
00000001
00000100
00000010
,
00010000
00000000
00010000
00000000
00001000
00000000
00001000
00000000
00000000
01000000
00000000
00000000
01000000
00000000
00100000
00000000
,
10000000
00000000
00000000
01000000
00000000
00000000
01100000
00000000
00000000
00000000
00000000
00000000
00001000
00000000
00001000
00000000
,
00001000
00000000
00000000
00000000
00010010
00000000
00000000
00000000
00000000
00000100
00000000
00000000
00000100
00000000
00000001
00000000
,
00000010
00000000
00000000
00001000
00000000
00000000
00000110
00000000
00000000
00000000
00000000
00000000
00000000
00000000
00000000
00000000
;

//---------------dance-single - ----------------
#NOTES:
     dance-single:
     :
     Beginner:
     1:
     0.060,0.101,0.038,0.000,0.000: // measure 1
0000
0000
0000
0000
,  // measure 2
0000
0000
0000
0000
,  // measure 3
0000
0000
0000
0000
,  // measure 4
0000
0000
0000
0000
,  // measure 5
0000
0000
0000
0000
,  // measure 6
1000
0000
0000
0000
,  // measure 7
0001
0000
0000
0000
,  // measure 8
1000
0000
0000
0000
,  // measure 9
0001
0000
0000
0000
,  // measure 10
1001
0000
0000
0000
,  // measure 11
0100
0000
0000
0000
,  // measure 12
0100
0000
0000
0000
,  // measure 13
0000
0000
0000
0000
,  // measure 14
0001
0000
0000
0000
,  // measure 15
1000
0000
0000
0000
,  // measure 16
0010
0000
0000
0000
,  // measure 17
0000
0000
0000
0000
,  // measure 18
1001
0000
0000
0000
,  // measure 19
0001
0000
0000
0000
,  // measure 20
1000
0000
0000
0000
,  // measure 21
0000
0000
0000
0000
,  // measure 22
0001
0000
0000
0000
,  // measure 23
1000
0000
0000
0000
,  // measure 24
0001
0000
0000
0000
,  // measure 25
0000
1000
0000
0000
,  // measure 26
0000
0000
0000
0000
,  // measure 27
0000
1000
0000
0000
,  // measure 28
0000
0000
0000
0000
,  // measure 29
0010
0000
0000
0000
,  // measure 30
0100
0000
0000
0000
,  // measure 31
0010
0000
0000
0000
,  // measure 32
0100
0000
0000
0000
,  // measure 33
0000
0000
0000
0000
,  // measure 34
0000
0000
0000
0000
,  // measure 35
1001
0000
0000
0000
,  // measure 36
0001
0000
0000
0000
,  // measure 37
1000
0000
0000
0000
,  // measure 38
1000
0000
0000
0000
,  // measure 39
0100
0000
0000
0000
,  // measure 40
0010
0000
0000
0000
,  // measure 41
0001
0000
0000
0000
,  // measure 42
0010
0000
0000
0000
,  // measure 43
0100
0000
0000
0000
,  // measure 44
1000
0000
0000
0000
,  // measure 45
0100
0000
0000
0000
,  // measure 46
1000
0000
0000
0000
,  // measure 47
0010
0000
0000
0000
,  // measure 48
0100
0000
0000
0000
,  // measure 49
0010
0000
0000
0000
,  // measure 50
0100
0000
0000
0000
,  // measure 51
0000
0000
0000
1000
,  // measure 52
0000
0000
0000
0000
,  // measure 53
0000
0000
0000
1001
0000
0000
0000
0000
;
