#TITLE:無双;
#SUBTITLE:;
#ARTIST:SOUND HOLIC Vs. VENUS feat. Nana Takahashi;
#TITLETRANSLIT:MUSOU;
#SUBTITLETRANSLIT:;
#ARTISTTRANSLIT:;
#CREDIT:DigiMindAxel;
#BANNER:MUSOU.png;
#BACKGROUND:MUSOU-bg.png;
#LYRICSPATH:MUSOU.lrc;
#CDTITLE:SOUND VOLTEX.png;
#MUSIC:MUSOU.ogg;
#METERTYPE:DDR X;
#OFFSET:-6.847;
#SAMPLESTART:58.193;
#SAMPLELENGTH:12.000;
#SELECTABLE:YES;
#BPMS:0.000=180.000;
#STOPS:;
#BGCHANGES:;

//---------------dance-single - ----------------
#NOTES:
     dance-single:
     :
     Easy:
     6:
     0.317,0.354,0.113,0.143,0.000:
1000
0000
1000
0000
,
0001
0000
0001
0000
,
1000
0000
1000
0000
,
1001
0000
0000
0000
,
0001
0000
0100
0000
,
0010
0000
0100
0000
,
0001
0000
1000
0000
,
0100
0000
1000
0000
,
0001
0100
0001
0000
,
1000
0001
1000
0000
,
0100
1000
0100
0000
,
1001
1001
0000
0000
,
0001
0100
0010
0000
,
0100
0010
1000
0000
,
0001
0010
0100
0000
,
0010
0100
1000
0000
,
0001
1000
0100
0000
,
0010
0001
1000
0000
,
0001
1000
0010
0000
,
0100
0001
1000
0000
,
0002
0000
0000
0000
,
0000
0000
0000
0003
,
1001
0000
1000
0000
,
0001
0100
0001
0000
,
1000
0000
1000
0000
,
0100
1000
0100
0000
,
0010
0000
0010
0000
,
0001
0100
0001
0000
,
0010
0000
0010
0000
,
0100
1000
0100
0000
,
1001
0000
0001
0100
,
0001
1000
0100
0010
,
2002
0000
0000
0000
,
0000
0000
0000
3003
,
1000
0010
1000
0001
,
0010
0100
1000
0000
,
0010
0100
0010
1000
,
2002
0000
0000
0000
,
0000
3003
0000
0000
,
1000
0001
0100
0001
,
1000
0001
0100
0001
,
0010
0100
1000
0002
,
0000
2003
0000
0000
,
3001
0100
0010
0100
,
0001
1000
0100
1000
,
1001
0000
0000
0000
,
0110
0000
0000
0000
,
0010
1000
0010
0100
,
0010
1000
0010
0100
,
0001
0010
0100
2000
,
0000
3002
0000
0000
,
0103
0010
0100
0001
,
1000
0000
0100
0010
,
0002
0000
1003
0000
,
0001
1000
0001
0000
,
2000
0000
3001
0000
,
1000
0001
1000
0000
,
0002
0000
1003
0000
,
0001
1000
0001
0000
,
2000
0000
3001
0000
,
1000
0001
1000
0000
,
0100
1000
0100
1000
,
0010
0100
0010
0100
,
0001
0010
0001
0010
,
0001
1000
0001
1000
,
0100
0010
0001
1000
,
0100
0010
0001
1000
,
0010
0100
0010
1000
,
0001
0000
1000
0100
,
0020
0000
0000
0000
,
0032
0000
0000
0000
,
1003
0000
0000
2002
,
0000
0000
0000
3003
,
0001
0001
0001
0001
,
1000
1000
1000
1000
,
1001
0000
0000
0000
,
0110
0000
0000
0000
,
0100
1000
0010
0100
,
0010
1000
0100
1000
,
0100
0010
0001
1000
,
0100
1000
0100
1000
,
0001
0100
0010
0100
,
0001
0000
1000
0100
,
0010
0001
0010
0001
,
0100
0010
1000
0100
,
0010
0001
0010
0001
,
0100
0010
0100
0010
,
1000
0001
0010
0100
,
1000
0100
0010
0000
,
0001
1000
0010
0100
,
0001
0010
0100
0000
,
1000
0010
0100
0001
,
0100
0010
1000
0000
,
1001
0000
0000
1001
0000
0000
0000
0220
,
0000
0000
0330
0000
;

//---------------dance-single - ----------------
#NOTES:
     dance-single:
     :
     Medium:
     9:
     0.485,0.496,0.285,0.195,0.000:
1000
1000
1000
1000
,
0001
0001
0001
0001
,
0100
0100
0100
0100
,
0000
0101
0000
0000
1001
0000
1001
0000
,
1000
0100
1000
0010
,
0100
0001
0010
0001
,
0100
0010
1000
0100
,
1000
0001
0010
0100
,
1001
0001
0100
0001
,
1000
0100
0010
0001
,
1000
0010
1000
0001
,
1001
1001
0000
0000
,
1000
0100
0010
0000
0001
0000
0100
0002
,
0000
0013
0100
1000
0001
0000
0100
0002
,
0000
1003
0100
0010
0100
0000
1000
0002
,
0000
1003
0010
0100
0001
0000
1000
0001
,
1000
0000
0100
0000
0010
0100
1000
0002
,
0000
1003
0100
0010
0001
0000
1000
0002
,
0000
0103
0010
1000
0001
0000
0100
0020
,
0000
0130
0001
0010
0100
0000
1000
0000
,
1000
0001
0001
0001
,
0001
0001
1001
1001
,
1000
0001
0000
0000
0000
0000
1000
0100
,
0010
0000
0000
0001
0000
0101
0000
0000
,
0100
0010
0000
0000
0000
0000
0100
0001
,
1000
0100
0010
0001
,
1000
0001
0000
0000
0000
0000
0010
0100
,
1000
0001
0000
0100
0000
0000
0000
0000
,
0001
1000
0000
0100
0000
0010
0000
0000
,
0001
0000
1000
0000
0100
1000
0000
1001
,
0000
1000
0100
0010
,
0100
1000
0010
0100
,
0110
0000
0000
0101
0000
0000
0110
0000
,
0000
1010
0000
0000
1001
0000
0000
1001
,
0000
1000
0100
0001
,
0100
1000
0001
1000
,
1001
0001
0010
0100
,
1000
0010
0000
1000
0010
0000
1000
0001
,
0000
1001
0000
0000
0000
0000
0000
0000
,
1000
0100
1000
0000
0100
1000
0100
0000
,
1000
0001
1000
0000
0001
1000
0001
0000
,
0100
0000
0000
0010
0000
0000
2000
0000
,
0000
0100
3100
1000
,
0001
1000
0001
0000
1000
0001
1000
0000
,
0001
0100
0001
0000
0100
0001
0100
0000
,
1001
0000
0000
1001
0000
0000
0000
2002
,
0000
0000
0000
3003
,
0001
0100
0001
0000
0100
0001
0100
0000
,
0001
1000
0001
0000
1000
0001
1000
0000
,
0100
1000
0100
0000
1000
0100
2000
0000
,
0000
0000
0100
0000
3100
0000
1000
0001
,
1000
0000
0001
1000
0001
0000
0010
0001
,
0010
0001
0100
0010
0000
0100
0000
0000
,
0001
1000
1100
1100
,
0010
0001
0000
0000
,
1000
0001
0101
0101
,
0001
1000
0000
0000
,
0100
0010
0011
0011
,
0001
1000
0000
0000
,
0100
1000
0110
0110
,
0010
0000
0001
1000
0000
0000
0000
0000
,
0002
0203
0320
0230
,
0302
0000
2003
0000
3200
0000
1300
0002
,
0000
0000
0103
0001
1000
0000
0100
0000
,
0001
0100
2000
3002
,
0103
0001
1000
0000
0100
1000
0001
0000
,
0010
0100
0010
0100
1000
0001
1000
0001
,
0100
0000
0010
0000
1000
0100
1000
0002
,
0000
0000
1000
1003
0000
0000
0000
0000
,
1001
0000
0000
0000
,
0001
0000
0000
0000
,
0010
0000
0000
0100
0000
0000
2200
0000
,
0000
0000
0000
3300
,
1000
1000
1000
1000
,
0100
0100
0100
0100
,
0011
0000
0000
0011
0000
0000
0000
1001
,
0000
0000
0000
0000
0000
1001
0000
0000
,
1000
0010
1000
0000
0010
0100
0010
0000
,
1000
0010
1000
0000
0010
0100
0010
0000
,
1000
0000
0000
0100
0000
0000
0020
0000
,
0000
0000
0001
0000
0031
0000
0100
0001
,
0100
0000
0001
1000
0001
0000
0100
0001
,
0000
0000
0000
1000
0000
0100
1000
0010
,
0100
0001
0010
0100
,
1000
0000
0001
0010
0100
1000
0001
0000
,
1000
0100
0010
0001
,
1000
0100
1000
0001
,
1000
0000
0001
0100
0000
0010
0000
1000
,
0000
0001
0010
0001
0000
1000
0010
0000
,
1000
0000
0001
1000
0000
0100
0000
0010
,
0000
0001
0100
0001
0000
1000
0001
0000
,
1000
0000
0010
0100
0000
0001
0000
0010
,
0000
0100
1000
0100
0000
1000
0001
0000
,
1001
0000
0000
0110
0000
0000
0000
2002
,
0000
0000
3003
0000
;

//---------------dance-single - ----------------
#NOTES:
     dance-single:
     :
     Hard:
     12:
     0.645,0.780,0.225,0.488,0.015: // measure 1
1001
0000
0000
0001
0000
0000
0010
0000
,  // measure 2
0100
0000
0000
1000
0000
0000
0100
0000
,  // measure 3
0010
0000
0000
0001
0000
0000
0100
0000
,  // measure 4
0001
2000
0000
0000
0001
0000
3001
0000
,  // measure 5
1000
0000
0001
0100
0000
0001
0100
0000
,  // measure 6
0001
0000
1000
0100
0000
1000
0100
0000
,  // measure 7
0010
0000
0001
1000
0000
0001
1000
0000
,  // measure 8
0010
0000
0100
0001
0000
0100
0001
0000
,  // measure 9
1001
0000
1000
0100
0000
1000
0100
0000
,  // measure 10
0010
0000
0001
0100
0000
0001
0100
0000
,  // measure 11
0010
0000
1000
0001
0000
1000
0001
0000
,  // measure 12
1001
1001
0000
0000
,  // measure 13
1000
0100
0010
0001
1000
0001
0000
0002
,  // measure 14
0000
1003
0001
0010
0100
1000
0000
2000
,  // measure 15
0000
3001
1000
0010
0100
0001
0000
0002
,  // measure 16
0000
1003
0001
0100
0010
1000
0000
2000
,  // measure 17
0000
3001
1000
0100
0010
0001
0100
0002
,  // measure 18
0000
1003
0001
0010
0100
1000
0010
2000
,  // measure 19
0000
3001
1000
0010
0100
0001
1000
0002
,  // measure 20
0000
1003
0001
0100
0010
1000
0001
1000
,  // measure 21
0002
1000
1000
1000
,  // measure 22
1000
0000
1003
0000
0001
0001
1000
1000
,  // measure 23
0001
0010
0000
0000
0000
0000
0100
1000
,  // measure 24
0000
0001
0000
0100
0000
0020
0000
0000
,  // measure 25
1030
0001
0000
0000
0000
0000
0010
0100
,  // measure 26
1000
0100
1000
0001
1000
0001
1000
0000
,  // measure 27
0010
0100
0001
0000
0010
0000
0100
1000
,  // measure 28
0001
0100
0000
0002
0000
1003
0001
0010
,  // measure 29
0100
1000
0000
0100
0000
0010
0000
0001
,  // measure 30
1000
0100
1000
0001
0100
0010
0000
1002
,  // measure 31
0000
0000
1003
0000
0010
0000
0001
0010
,  // measure 32
1000
0000
0100
0000
0010
0001
1000
0000
,  // measure 33
2002
0000
3003
0202
0000
0303
0220
0000
,  // measure 34
0330
2200
0000
3300
2002
0000
3003
2001
,  // measure 35
0000
0000
3001
0000
0100
0000
1000
0100
,  // measure 36
0001
0000
0010
0000
0100
1000
0001
0000
,  // measure 37
1001
0000
1000
0010
1000
0010
0100
0001
,  // measure 38
0100
0100
0000
0001
0001
0000
1000
1000
,  // measure 39
0000
1001
0000
0000
0000
0000
0000
0000
,  // measure 40
1000
0001
1000
0001
0010
0001
0010
0001
,  // measure 41
0100
0010
0100
0010
1000
0100
1000
0100
,  // measure 42
0010
0000
0001
0100
0000
0100
0020
0000
,  // measure 43
0000
1030
0100
0020
0000
0001
0031
0000
,  // measure 44
0100
0010
0100
0010
1000
0100
1000
0100
,  // measure 45
0010
0001
0010
0001
1000
0010
0100
0000
,  // measure 46
2002
0000
3003
2200
0000
3300
2000
0002
,  // measure 47
0000
0000
0000
3003
0000
1001
0000
0000
,  // measure 48
0001
0100
0001
0100
0010
1000
0010
1000
,  // measure 49
0100
0010
0100
0010
0001
1000
0100
0010
,  // measure 50
0001
0000
0100
0010
0000
0010
2000
0000
,  // measure 51
0000
3001
0010
0200
0000
1000
1300
0000
,  // measure 52
0001
0100
0010
0100
0001
0000
1000
0010
,  // measure 53
0000
0100
0100
0100
0000
2001
0000
0000
,  // measure 54
3001
0010
1000
0010
0001
0000
1001
0000
,  // measure 55
1000
0010
0100
0001
0000
1000
0100
0010
,  // measure 56
0000
0001
0100
1000
0100
0000
1001
0000
,  // measure 57
1000
0100
0010
0001
0000
1000
0010
0100
,  // measure 58
0000
0001
0010
1000
0010
0000
1001
0000
,  // measure 59
1000
0100
0010
0001
0000
1000
0010
0100
,  // measure 60
0001
0100
1000
0100
0001
0000
1001
0000
,  // measure 61
1000
0010
0100
0002
0000
0000
0003
0000
,  // measure 62
1000
0000
1000
0100
0001
0100
1000
0001
,  // measure 63
0100
0010
1000
0001
0010
0100
0010
0002
,  // measure 64
0000
0000
1003
0010
0001
0010
1000
0100
,  // measure 65
0020
0000
0000
0032
0000
0000
1003
0100
1000
0100
0010
0001
,  // measure 66
0100
0000
0101
0000
1001
0001
1000
0010
,  // measure 67
0100
0100
0001
0010
1000
0010
0001
1000
,  // measure 68
0100
1000
0100
0010
0001
0010
0001
0200
,  // measure 69
0000
0010
0010
0310
0000
0000
0000
0000
,  // measure 70
1002
0000
0000
0000
,  // measure 71
2003
0000
0000
0000
,  // measure 72
3001
0000
0100
0001
0000
0001
2000
0000
,  // measure 73
0000
0100
0000
0000
0100
0000
3100
1000
,  // measure 74
0002
0203
0302
0203
,  // measure 75
0302
2003
3002
1003
,  // measure 76
2200
0000
3300
2002
0000
3003
0002
0200
,  // measure 77
0000
0000
0000
0303
0000
1001
0000
0000
,  // measure 78
0001
0010
0001
0010
0100
1000
0100
1000
,  // measure 79
0010
0100
0010
0100
0001
0010
0100
1000
,  // measure 80
0001
0000
0100
0001
0000
0001
2000
0000
,  // measure 81
0000
3100
0010
0002
0000
0100
0103
0000
,  // measure 82
0010
1000
0010
1000
0100
0010
0100
0010
,  // measure 83
0000
0001
0001
0001
0000
1001
0000
0000
,  // measure 84
1000
0010
0100
0000
0001
0100
0010
0000
,  // measure 85
1000
0100
0010
0001
0100
1000
0100
0001
,  // measure 86
1000
0100
0010
0000
0100
1000
0001
0000
,  // measure 87
0100
0001
1000
0000
0100
0010
0001
0000
,  // measure 88
1001
0000
1000
0010
0000
0100
0000
0002
,  // measure 89
0000
0103
0010
2000
0000
3001
0100
0001
,  // measure 90
1000
0100
0010
0001
0000
1000
0000
0020
,  // measure 91
0000
0130
0001
2000
0000
3010
0100
0001
,  // measure 92
1000
0000
0010
1000
0000
0001
0000
0020
,  // measure 93
0000
0031
1000
0200
0000
1300
0001
0010
,  // measure 94
0100
1000
0010
0001
0010
1000
0100
0220
,  // measure 95
0000
0000
0330
0000
;

//---------------dance-single - ----------------
#NOTES:
     dance-single:
     :
     Challenge:
     14:
     0.800,0.886,0.293,0.330,0.195: // measure 1
1020
0000
0000
1000
0000
0000
1030
0000
,  // measure 2
0120
0000
0000
0100
0000
0000
0130
0000
,  // measure 3
0102
0000
0000
0100
0000
0000
0103
0000
,  // measure 4
0001
1001
0000
0000
1001
0000
1001
0000
,  // measure 5
0001
0100
0001
0100
0001
0100
0010
0000
,  // measure 6
1000
0001
1000
0001
1000
0001
0010
0000
,  // measure 7
0100
0010
0100
0010
0100
0010
0001
0000
,  // measure 8
1000
0010
1000
0010
1000
0010
0100
0000
,  // measure 9
0001
1000
0100
1000
0001
1000
0100
0000
,  // measure 10
0010
0001
0100
0010
0100
0001
0010
0000
,  // measure 11
0001
1000
0010
1000
0001
1000
0010
0000
,  // measure 12
1001
1001
0000
0000
,  // measure 13
1000
0001
0100
1000
0100
0001
1000
0002
,  // measure 14
0000
1003
0100
0001
0100
1000
0001
2000
,  // measure 15
0000
3001
0010
1000
0010
0001
1000
0002
,  // measure 16
0000
1003
0010
0001
0010
1000
0001
2000
,  // measure 17
0000
3001
1000
0010
0001
0010
0100
0002
,  // measure 18
0000
1003
0001
0100
1000
0100
0010
2000
,  // measure 19
0000
3001
0010
1000
0010
0100
1000
0002
,  // measure 20
0000
1003
0100
0001
0100
0010
0001
1000
,  // measure 21
1001
0001
1000
1000
,  // measure 22
0001
0000
0000
0000
0001
0000
0000
0000
0010
0100
1000
0000
0010
0000
0010
0000
,  // measure 23
1001
0000
1000
0010
1000
0001
0010
0100
,  // measure 24
0010
0001
1000
0010
0000
0010
0100
0010
,  // measure 25
0100
0001
0010
0100
1000
0001
0010
0100
,  // measure 26
1000
0010
0001
0010
1000
0000
1001
0000
,  // measure 27
0001
0100
0001
1000
0100
0010
1000
0010
,  // measure 28
0100
0000
0000
1000
0000
0000
0002
0000
0000
0000
1003
0000
0001
0000
0010
0000
,  // measure 29
0001
0100
1000
0100
0001
0010
0100
0010
,  // measure 30
0001
1000
0010
1000
0001
0001
0000
2001
,  // measure 31
0000
0000
3010
1000
0010
1000
0100
0010
,  // measure 32
0100
0010
0001
0100
0001
0100
0010
1000
,  // measure 33
1001
0000
0010
0011
0000
0100
0110
0000
,  // measure 34
1000
0000
1100
0000
0000
0000
0010
0000
0001
1000
0001
1000
0001
0000
2001
0000
,  // measure 35
0000
0000
3001
0010
0001
0010
0100
1000
,  // measure 36
0100
1000
0001
0100
0010
0100
0001
1000
,  // measure 37
1001
0000
0001
0001
0100
0100
0010
0010
,  // measure 38
1000
0000
1010
0000
0000
0000
0010
0000
0100
0001
0100
0001
0100
0001
0100
0000
,  // measure 39
0000
2002
0000
0000
0000
0000
3003
0000
,  // measure 40
1000
0001
0010
0001
1000
0001
0010
0001
,  // measure 41
1000
0100
0001
0100
1000
0010
0100
0010
,  // measure 42
1000
0001
0020
0100
0000
0130
2000
0000
,  // measure 43
3001
0000
1000
0000
0010
0000
0200
0000
0000
0000
0301
0000
1000
0001
1000
0001
,  // measure 44
1000
0100
0010
0100
1000
0001
0100
0001
,  // measure 45
1000
0010
0001
0010
1000
0001
0010
0100
,  // measure 46
0110
0000
1000
1010
0000
0010
0100
0102
,  // measure 47
0000
0000
0000
0000
1003
0001
1000
0000
0000
0000
1001
0000
0000
0000
0000
0000
,  // measure 48
0001
1000
0010
1000
0010
0100
0001
0010
,  // measure 49
0100
0010
0001
1000
0001
0100
1000
0100
,  // measure 50
0001
0010
0200
1000
0000
1300
0020
0000
,  // measure 51
0130
0000
0001
0000
0010
0000
0200
0000
0000
0000
1300
0000
0001
1000
0001
1000
,  // measure 52
0001
0000
0010
0000
0100
0000
0010
0000
0001
0000
1000
0000
0010
1000
0010
1000
,  // measure 53
0010
0100
0100
0110
0000
1002
0000
0000
,  // measure 54
1003
0010
0001
0010
1000
0100
0001
0100
,  // measure 55
1000
0001
0010
0100
0000
1000
1000
1000
,  // measure 56
0001
0100
1000
0100
0001
0010
1000
0010
,  // measure 57
0001
1000
0100
0010
0000
0001
0001
0001
,  // measure 58
1000
0010
0001
0010
1000
0100
0001
0100
,  // measure 59
1000
0001
0100
0010
0000
1000
1000
0001
,  // measure 60
0001
0100
1000
0100
0001
0010
1000
0010
,  // measure 61
0001
0000
1000
0000
0100
0000
0020
0000
0000
0000
0031
1000
0001
1000
0001
0000
,  // measure 62
1000
0010
1000
0010
0100
0000
0001
1000
0001
1000
0100
0000
0010
0001
0010
0001
,  // measure 63
0100
0000
0010
1000
0010
1000
0001
0000
0010
0100
0010
0100
1000
0000
0020
0000
,  // measure 64
0000
0000
0030
0000
0100
0010
1000
0000
0100
0000
0001
0000
0100
0000
1000
0000
,  // measure 65
0001
0000
0000
0001
0000
0000
0100
0000
0000
0100
0000
0000
0010
0000
1000
0000
0001
0000
0010
0000
0100
0000
1000
0000
,  // measure 66
0001
0100
0001
0000
1000
0100
1000
0000
0200
0000
0010
0000
0310
0000
0001
0000
,  // measure 67
1000
0010
0000
1000
0010
0000
1000
0001
0000
1000
0001
0000
0010
0100
0000
0010
,  // measure 68
0100
0000
1000
0000
0010
0000
0001
0000
0010
0000
1000
0001
1000
0001
2000
0000
,  // measure 69
0000
0100
0100
3100
0010
0001
0100
0010
,  // measure 70
2001
0000
0000
0010
3010
0000
0000
0000
,  // measure 71
0200
0000
0000
0001
0301
0000
1000
0100
,  // measure 72
0020
0000
0001
0032
0000
0100
0103
0000
,  // measure 73
0000
0000
0001
0000
1000
0000
0100
0000
0010
0000
0000
0000
0001
1000
0001
1000
,  // measure 74
0001
0010
0001
0000
1000
0100
1000
0000
,  // measure 75
0001
1000
0100
0010
0001
1000
0010
1000
,  // measure 76
1001
0000
0010
0110
0000
0100
0010
2010
,  // measure 77
0000
0000
3001
1000
0001
1000
0001
0000
0000
0000
1001
0000
0000
0000
0000
0000
,  // measure 78
0001
0010
1000
0010
0001
1000
0010
1000
,  // measure 79
0001
0010
1000
0010
0001
1000
0100
0010
,  // measure 80
0002
0000
0203
0010
0000
0310
2000
0000
,  // measure 81
0000
0000
3010
0000
0100
0000
0002
0000
0000
0000
1003
0000
0001
1000
0001
1000
,  // measure 82
0001
0000
0100
0000
1000
0000
0100
0000
0001
0000
0010
0000
0100
1000
0100
0000
,  // measure 83
0000
0010
0010
0010
0000
1001
0000
0000
,  // measure 84
0001
0010
0001
0010
0100
1000
0100
1000
,  // measure 85
0010
0100
0010
0100
0001
0010
1000
0010
,  // measure 86
0001
1000
0001
1000
0100
0010
0100
0010
,  // measure 87
0001
0000
0100
0000
0001
0000
0100
0000
0010
0000
1000
0000
0001
1000
0001
0000
,  // measure 88
1000
0100
0010
0001
0000
0101
0000
0120
,  // measure 89
0000
1030
0001
0020
0000
0031
0100
1000
,  // measure 90
0100
0001
0010
0100
0000
1100
0000
0201
,  // measure 91
0000
0000
0310
0000
1000
0000
0002
0000
0000
0000
1003
0000
0001
0100
0001
0000
,  // measure 92
1000
0100
0010
0001
0000
0101
0000
0120
,  // measure 93
0000
0000
1030
0000
0001
0000
0200
0000
0000
0000
0310
0000
1000
0001
1000
0001
,  // measure 94
1000
0010
0001
0010
1000
0100
0010
2002
,  // measure 95
0000
0000
3003
0000
;

//---------------dance-single - ----------------
#NOTES:
     dance-single:
     :
     Beginner:
     3:
     0.122,0.176,0.038,0.000,0.000:
1000
0000
0000
0000
,
0000
0000
0000
0000
,
0000
0000
0000
0000
,
1001
0000
0000
0000
,
0001
0000
0000
0000
,
0100
0000
0000
0000
,
0001
0000
0000
0000
,
0100
0000
0000
0000
,
0010
0000
0000
0000
,
1000
0000
0000
0000
,
0010
0000
0000
0000
,
1000
0000
0000
0000
,
0001
0000
0000
0000
,
0010
0000
0000
0000
,
0100
0000
0000
0000
,
0010
0000
0000
0000
,
0001
0000
0000
0000
,
0010
0000
0000
0000
,
0100
0000
0000
0000
,
0010
0000
0000
0000
,
0001
0000
0000
0000
,
0000
0000
0000
0000
,
1001
0000
0000
0000
,
0000
0000
0000
0000
,
1000
0000
0000
0000
,
0000
0000
0000
0000
,
1001
0000
0000
0000
,
0000
0000
0000
0000
,
0001
0000
0000
0000
,
1000
0000
0000
0000
,
0010
0000
0100
0000
,
0010
0000
0100
0000
,
0010
0000
0000
0000
,
0000
0000
0000
0000
,
1000
0000
0001
0000
,
1000
0000
0000
0000
,
0001
0000
1000
0000
,
0001
0000
0000
0000
,
0000
0000
0000
0000
,
0010
0000
0001
0000
,
0010
0000
0001
0000
,
0100
0000
0010
0000
,
1000
0000
0000
0000
,
0010
0000
1000
0000
,
0010
0000
1000
0000
,
0100
0000
0000
0000
,
0010
0000
0000
0000
,
0001
0000
1000
0000
,
0001
0000
1000
0000
,
0001
0000
0000
0000
,
0100
0000
0000
0000
,
0010
0000
1000
0000
,
0001
0000
0000
0000
,
1000
0000
0000
0000
,
0000
0000
0000
0000
,
0100
0000
0000
0000
,
0000
0000
0000
0000
,
0010
0000
0000
0000
,
0000
0000
0000
0000
,
0001
0000
0000
0000
,
0000
0000
0000
0000
,
1000
0000
0000
0000
,
0010
0000
0000
0000
,
0100
0000
0000
0000
,
0001
0000
0000
0000
,
1000
0000
1000
0000
,
0001
0000
0001
0000
,
0010
0000
0100
0000
,
1000
0000
0000
0000
,
1001
0000
0000
0000
,
0000
0000
0000
0000
,
0000
0000
0000
0000
,
0000
0000
0000
0000
,
0001
0000
0001
0000
,
1000
0000
1000
0000
,
1001
0000
0000
0000
,
0000
0000
0000
0000
,
0001
0000
0010
0000
,
0001
0000
0010
0000
,
0001
0000
0000
0000
,
1000
0000
0000
0000
,
0100
0000
1000
0000
,
0100
0000
0000
0000
,
0010
0000
0001
0000
,
0010
0000
0001
0000
,
0100
0000
0010
0000
,
0100
0000
0010
0000
,
1000
0000
1000
0000
,
0001
0000
0001
0000
,
0010
0000
0100
0000
,
0010
0000
0000
0000
,
0001
0000
0001
0000
,
1000
0000
1000
0000
,
0100
0000
0010
0000
,
0100
0000
0000
0000
;
