#TITLE:MIND ERUPTION;
#SUBTITLE:;
#ARTIST:山本真央樹;
#TITLETRANSLIT:;
#SUBTITLETRANSLIT:;
#ARTISTTRANSLIT:MAOKI YAMAMOTO;
#CREDIT:DigiMindAxel;
#BANNER:MIND ERUPTION.png;
#BACKGROUND:MIND ERUPTION-bg.png;
#LYRICSPATH:;
#CDTITLE:GITADORA.png;
#MUSIC:MIND ERUPTION.ogg;
#METERTYPE:DDR X;
#OFFSET:-0.334;
#SAMPLESTART:24.296;
#SAMPLELENGTH:12.000;
#SELECTABLE:YES;
#BPMS:0.000=140.000;
#STOPS:;
#BGCHANGES:-4.000=MIND ERUPTION.avi=1.000=1=1=0,
99999=-nosongbg-=1.000=0=0=0 // don't automatically add -songbackground-
;

//---------------dance-single - ----------------
#NOTES:
     dance-single:
     :
     Easy:
     5:
     0.233,0.334,0.131,0.139,0.000: // measure 1
0000
0000
0000
0000
,  // measure 2
0000
0000
0000
0000
,  // measure 3
0000
0000
0000
0000
,  // measure 4
0000
0000
0000
0000
,  // measure 5
2000
0000
0000
0000
,  // measure 6
3002
0000
0000
0000
,  // measure 7
1003
0100
1000
0000
,  // measure 8
0001
1000
0001
0000
,  // measure 9
0100
0001
1000
0100
,  // measure 10
0220
0000
0330
1001
,  // measure 11
1001
0000
0001
0000
,  // measure 12
1000
0000
0001
0000
,  // measure 13
0010
0000
0100
0000
,  // measure 14
0010
0000
0100
0000
,  // measure 15
1000
0100
1000
0000
,  // measure 16
0001
1000
0001
0000
,  // measure 17
0010
0001
0010
0000
,  // measure 18
0100
0010
0100
0000
,  // measure 19
1000
0010
1000
0000
,  // measure 20
0001
1000
0001
0000
,  // measure 21
0010
0001
0100
0000
,  // measure 22
0010
1000
0100
0000
,  // measure 23
0220
0000
0330
0000
,  // measure 24
0001
1000
1001
0000
,  // measure 25
0200
0000
0000
0000
,  // measure 26
0310
0100
0010
2000
,  // measure 27
0000
3000
0000
0000
,  // measure 28
0002
0000
0000
1003
,  // measure 29
0100
0000
0000
0010
0000
0000
0000
0000
,  // measure 30
0001
0000
0000
0010
0000
0000
0000
0000
,  // measure 31
0100
0000
0000
0110
0000
0000
0100
0000
,  // measure 32
0000
0110
0000
0000
0200
0000
0000
0000
,  // measure 33
0310
0000
0000
0000
,  // measure 34
1000
0001
0010
0100
,  // measure 35
1000
0100
1000
0001
,  // measure 36
1000
0100
1000
0001
,  // measure 37
1000
0100
0010
0001
,  // measure 38
0100
0010
0100
0001
,  // measure 39
0100
0010
0100
0001
,  // measure 40
1000
0100
0010
0001
,  // measure 41
1000
0100
1000
0001
,  // measure 42
0200
0000
0000
0000
,  // measure 43
0310
1000
0001
0000
,  // measure 44
0010
0001
0100
0000
,  // measure 45
0001
0010
0100
0000
,  // measure 46
1000
0100
0010
0000
,  // measure 47
0001
1000
0010
0000
,  // measure 48
0100
0001
1000
0100
,  // measure 49
1000
0010
0100
0000
,  // measure 50
0001
0010
0100
0000
,  // measure 51
0010
0001
0010
0001
,  // measure 52
0000
0000
0000
1001
0000
0000
0000
2001
,  // measure 53
0000
0000
0000
0000
,  // measure 54
3002
0000
0000
0000
,  // measure 55
0203
0000
0000
0000
,  // measure 56
0310
1000
0100
0010
,  // measure 57
0001
1000
0100
0010
,  // measure 58
0001
0100
0010
0100
,  // measure 59
0001
0000
0000
1001
0000
0000
0110
0000
,  // measure 60
0000
0110
0000
0000
0000
1001
0000
0000
,  // measure 61
1001
0000
0010
0000
0000
0010
0000
0000
,  // measure 62
0010
0000
0000
0100
0000
0000
0000
0000
,  // measure 63
0000
0220
0000
0000
0000
0000
0000
0000
,  // measure 64
0000
0000
0000
0000
,  // measure 65
0330
0000
0000
0000
;

//---------------dance-single - ----------------
#NOTES:
     dance-single:
     :
     Medium:
     8:
     0.378,0.418,0.331,0.183,0.048:
0000
0000
0000
0000
,
0000
0000
0000
0000
,
0000
0000
0000
0000
,
0000
0000
0000
0000
,
1000
0100
0010
0001
,
1001
0200
0320
0130
,
1000
0100
0010
0100
0000
1000
0010
0010
,
0100
0001
0010
0100
0000
0010
0001
0001
,
0100
0010
1000
0100
0000
0010
0001
1000
,
1001
0000
0000
1100
0000
0000
0110
0000
,
0110
0000
0100
0000
0001
0010
0100
0000
,
0010
0000
0001
0000
0100
0001
0010
0000
,
1000
0000
0010
0000
0001
1000
0100
0010
,
0001
0000
0000
0120
0000
0000
0130
0000
,
1000
0100
0010
0100
1000
0000
0001
0010
,
0001
1000
0100
0010
0000
0000
0001
0010
,
0001
0100
0010
0100
,
0001
0010
0001
0100
0010
0000
1000
0000
,
0001
0100
0001
1000
0100
0000
1000
0001
,
1000
0100
0010
0001
0000
0000
0100
0001
,
0010
0000
0100
0000
0010
0000
0100
1000
,
0010
0100
0010
0100
0000
0000
0001
0000
,
1000
0000
0000
0001
0000
0000
1001
0000
0000
0000
0000
0000
0000
0000
0000
0010
,
0000
0000
0000
0000
0100
0000
0000
0000
0000
0010
0000
0000
0000
0000
0220
0000
,
0000
0000
0000
0330
,
1100
0110
0011
0120
,
0000
0000
0000
0000
0000
0130
0000
0000
0000
0000
0000
0000
0000
0000
0000
0000
,
0010
0000
0010
0110
,
0200
0000
0000
0301
0000
0000
1000
0001
,
2000
0000
0000
3100
0000
0000
0010
0000
,
0011
0000
0000
0011
0000
0000
0110
0000
,
0000
0110
0000
0000
2200
0000
0000
0000
,
3300
0000
0000
0000
,
1001
0000
1000
0100
0010
0100
0000
1000
,
0001
0010
0100
0010
0000
0001
0000
0000
,
0100
0010
0100
0001
0000
0010
0000
0000
,
0100
1000
0100
0010
0000
0001
0000
0000
,
1001
0000
1000
0100
0000
0010
0000
0000
,
0101
0000
0100
0010
0000
1000
0000
0000
,
1100
0000
1000
0001
0000
0010
0000
0000
,
1200
0000
0000
2300
0000
0000
3000
0000
,
2002
0000
0000
3003
,
1000
0100
1000
0001
1000
0000
0100
0000
,
0010
0001
0100
0010
0000
0000
1000
0001
,
1000
0100
0010
0001
0000
0000
0100
0000
,
0101
0000
0000
1001
0000
0000
0110
0000
,
0010
0001
0100
0010
0100
0000
0001
0000
,
0101
0000
0000
1001
0000
0000
1000
0010
,
1000
0100
0010
0001
0000
1000
0100
0010
,
0001
0000
0000
0101
0000
0000
0000
0000
,
1000
0100
1000
0001
0000
0010
0100
2000
,
0000
0000
0000
0000
0010
0000
0000
3010
0000
0000
0000
0000
0100
0000
0000
0200
,
0000
0000
0000
0300
,
0220
0000
0000
0030
,
0002
0000
0000
0303
,
0001
0010
0100
0010
0001
1000
0000
0100
,
0000
0010
0100
1000
0010
0000
0100
0000
,
0001
0100
0010
0100
0000
0001
0010
0100
,
1000
0000
0000
1010
0000
0000
0110
0000
,
0000
1001
0000
0000
0000
0110
0000
0000
,
0101
0000
0000
0000
0000
1001
0000
0000
0000
0000
0000
0100
0000
0010
0000
0000
,
1000
0000
0000
1000
0000
0000
0000
0001
0000
0000
0001
0000
0000
0000
0000
0000
,
0000
2002
0000
0000
0000
0000
0000
0000
,
0000
0000
0000
0000
,
3003
0000
0000
0000
;

//---------------dance-single - ----------------
#NOTES:
     dance-single:
     :
     Hard:
     13:
     0.602,0.725,0.366,0.183,0.566:
0000
0000
0000
0000
,
0000
0000
0000
0000
,
0000
0000
0000
0000
,
0000
0000
0000
0000
,
1000
0100
0010
0001
1000
0100
0010
0001
,
1000
0100
0010
0001
1000
0100
0010
0001
,
1000
0010
1000
0000
0010
0100
0001
0100
0000
0001
0010
0000
0100
0000
1000
0000
,
0001
0100
0001
0000
0100
0010
0100
0001
0000
1000
0001
0000
0010
0000
0100
0000
,
0010
0001
0010
0000
0100
0010
0100
0010
0000
0000
0001
0100
0001
0100
0010
0000
,
0110
0000
0000
0100
0000
0000
1100
0000
0000
1000
0000
0000
0000
0001
0000
0001
,
1000
0100
1000
0020
0000
0000
0130
0000
,
0001
0010
0001
0200
0000
0000
0310
0000
,
0001
0010
0100
1000
0001
0100
0001
0000
,
0100
0001
1000
1001
0000
0000
0100
0010
,
0100
0000
0001
0100
0000
0100
0010
0000
0000
0000
0001
1000
0001
0000
0010
0000
,
0100
0000
1000
0010
0000
1000
0001
0000
0000
0000
0000
0000
0010
0100
0010
0100
,
0010
0000
1000
0001
0000
0001
0010
0000
0100
0000
0000
0000
1000
0000
0000
0000
,
1020
0000
0000
0230
0000
0000
0301
0000
,
1000
0000
0010
0100
0000
0100
0010
0000
0000
0000
0001
1000
0001
0000
0010
0000
,
0100
0000
1000
0010
0000
1000
0001
0000
0000
0000
0000
0000
0100
0010
0100
0010
,
0100
0000
0001
1000
0000
1000
0100
0000
1000
0000
0000
0000
0001
0100
0001
0000
,
1000
0100
0010
0001
0000
0000
0101
0000
,
1001
0000
0000
0110
0000
0000
1001
0000
0000
0000
0000
0000
0000
0000
0000
1100
,
0000
0000
0000
0100
0010
0000
0000
0000
0000
0011
0000
0000
0000
0001
2000
0000
,
0000
0000
0000
3000
,
0101
0100
0001
0010
0100
1000
1001
0000
,
0000
0000
0000
0000
0000
0202
0000
0000
0000
0000
0000
0000
0000
0000
0000
0000
,
0000
0000
0303
0110
,
0101
0000
0010
0000
0100
0000
1000
0000
0000
0000
0100
1000
0100
1000
0010
0000
,
0100
0000
0001
0000
0010
0000
0100
0000
0000
0000
1000
0001
1000
0001
0010
0000
,
0011
0000
0000
0001
0000
0000
1001
0000
0000
1000
0000
0000
1010
0000
0000
0010
,
0000
0000
0110
0000
0000
0100
0000
0000
0101
0000
0000
1001
0000
0000
0220
0000
,
0000
0000
0000
0330
,
0010
0000
0100
1000
0100
0000
0010
0000
0001
0000
0100
0000
0001
0000
1000
0000
,
0100
0000
0010
0001
0010
0000
0100
0000
1000
0000
0010
0000
0100
0000
0010
0000
,
1000
0000
0100
1000
0100
0000
0010
0000
0100
0000
1000
0000
0001
0000
0100
0000
,
0001
0000
1000
0100
1000
0000
0001
0000
0010
0000
0100
0000
0010
0000
0001
0000
,
0101
0100
0010
1000
0100
0001
0100
1000
,
0001
0100
0001
1000
0010
0001
0010
1000
,
0100
0000
0010
0001
0010
0000
0001
1000
0001
1000
0001
1000
0000
0010
1000
0010
,
2000
0000
0000
3200
0000
0000
0320
0000
0000
0000
0000
0000
0030
0000
0000
0000
,
0001
0100
0001
0100
0001
1000
0001
1000
0001
0010
0000
0000
,
0100
0000
1000
0010
0000
0010
0100
0000
0000
0000
0001
1000
0001
0000
0010
0000
,
0100
0000
1000
0010
0000
1000
0001
0000
0000
0000
0000
0000
0100
0001
0100
0001
,
0100
0000
0010
1000
0000
1000
0100
0000
0000
0000
0020
0000
0000
0000
0031
0000
,
0010
0000
0100
1000
0000
1000
0010
0000
0000
0000
0000
0000
0100
0010
0100
0010
,
1000
0000
0100
0010
0000
0010
0001
0000
0000
0000
1000
0001
1000
0010
1000
0010
,
1000
0000
0000
1010
0000
0000
0110
0000
0000
0110
0000
0000
0101
0000
0001
0000
,
1000
0000
0100
0010
0000
0010
0001
0000
0100
0010
0000
0100
0001
0000
0010
0100
,
1000
0001
0100
0001
0000
0001
2000
0000
0000
0000
0000
0000
3000
0000
0000
0000
,
0100
0000
0001
0010
0100
1000
0001
0100
0000
0000
0001
1000
0100
0010
0001
0200
,
0000
0000
0000
0000
0320
0000
0000
2030
0000
0000
0000
0000
3002
0000
0000
0200
,
0000
0000
0000
0303
,
0001
0010
0100
1000
0001
0010
0100
1000
,
0001
0010
0100
1000
0001
0010
0100
1000
,
0001
0100
0001
0000
1000
0100
1000
0001
0000
0100
0001
0000
0100
0000
0010
0000
,
1000
0100
1000
0000
0001
0100
0001
1000
0000
0100
1000
0000
0001
0000
0010
0000
,
0100
1000
0100
0000
1000
0001
1000
0001
0000
0010
0100
0010
0100
1000
0100
1000
,
0100
0000
0000
1100
0000
0000
0100
0000
0000
0110
0000
0000
1001
0000
0000
0110
,
0000
0000
1001
0000
0000
0101
0000
0000
0000
0000
1001
0000
0000
0001
0000
0000
,
0011
0000
0000
0010
0000
0110
0000
0000
0000
0000
0000
1000
0000
1100
0000
0000
,
0110
0000
0000
0110
0000
0000
0000
0101
0000
0000
0101
0000
0000
0000
0000
0000
,
0000
0220
0000
0000
0000
0000
0000
0000
,
0000
0000
0000
0000
,
0330
0000
0000
0000
;

//---------------dance-single - ----------------
#NOTES:
     dance-single:
     :
     Challenge:
     15:
     0.804,0.836,0.287,0.253,1.000:
0000
0000
0000
0000
,
0000
0000
0000
0000
,
0000
0000
0000
0000
,
0000
0000
0000
0000
,
1000
0001
1000
0001
0100
0001
0100
0001
0000
0010
0100
0010
0100
1000
0100
1000
,
0000
0010
0100
0010
0100
0001
0010
0001
0000
0100
0010
0100
0010
1000
0100
1000
,
0001
0010
0100
1000
0100
0010
0100
1000
0000
0010
1000
0010
0100
0001
0010
0100
,
0000
1000
0010
0100
0001
0100
0010
1000
0000
0100
0010
0001
0100
0010
1000
0100
,
1000
0100
0001
0100
1000
0100
0010
0001
0000
1000
0010
0001
0010
1000
0100
0010
,
0001
0100
0000
0100
0001
0000
0001
1000
0000
1000
0100
0000
0000
1000
0000
1000
,
0001
0000
0010
0000
0100
0000
1100
0000
0000
0000
0010
0100
0010
0100
0001
0000
,
1000
0000
0010
0000
0100
0000
0101
0000
0000
0000
0010
0100
0010
0100
1000
0000
,
1001
0000
0010
0000
0100
0000
1100
0000
0000
0000
0010
0100
0010
0100
0001
0000
,
0010
0000
0100
0000
1000
0000
1100
0000
0000
0000
0001
1000
0001
1000
0001
0000
,
0100
0001
1000
0100
0000
0100
0010
0000
0000
0000
0001
0100
0001
1000
0100
0010
,
0001
0000
0001
0100
0000
0100
0020
0000
0000
0000
0000
1030
0001
0010
0100
1000
,
0001
0100
0001
1000
0000
1000
0200
0000
0000
0000
0000
0000
0310
0001
0010
0000
,
0002
0000
0000
0203
0000
0000
0320
0000
0000
0000
0000
0000
1030
0001
1000
0000
,
0001
0010
0100
1000
0000
1000
0010
0000
0000
0000
0100
0010
0100
0001
0010
0100
,
1000
0000
0010
1000
0000
1000
0002
0000
0000
0000
0000
1003
0001
1000
0010
1000
,
0001
0010
0100
1000
0000
1000
0001
0100
0010
0100
0000
0100
0001
0010
0100
0010
,
0001
0100
0001
1000
0100
0010
0200
0000
0000
0000
0000
0000
1300
0010
1000
0000
,
1001
0000
0000
0011
0000
0000
1100
0000
1000
0100
0010
0001
0010
0100
1000
1100
,
0000
0000
0010
0100
0001
0000
0000
0010
0100
1100
0000
0000
0100
0010
0002
0000
,
1000
0000
0000
1000
0000
0000
0000
0000
1000
0000
0000
0000
1003
0000
0000
0000
,
1001
0000
0001
0010
0100
0010
0001
0100
0001
0010
1000
0010
0001
0100
0010
0100
,
0000
0000
0000
0000
0000
1002
0000
0000
0000
0000
0000
0000
0000
0000
0000
0000
,
0100
0000
0000
0000
0100
0000
0000
0000
0103
0000
0000
0000
0001
0010
0100
1000
,
0001
0100
0001
0100
0010
1000
0200
0000
0000
0000
0310
0001
0100
0010
0100
0000
,
0001
0010
0001
0010
0100
1000
0020
0000
0000
0000
0130
0010
0100
0001
1000
0000
,
1010
0000
0000
1010
0000
0000
0110
0000
0000
0110
0000
0000
0011
0000
0000
1100
,
0000
0000
1001
0000
0000
0001
0100
1000
0100
0001
0010
1000
0010
0001
0100
0020
,
0000
0000
0000
0000
0000
0000
0000
0000
0000
0000
0000
0000
0030
0000
1000
0001
,
1000
0000
0001
0100
0010
0000
1000
0000
0100
0000
0020
0000
0001
0000
0031
1000
,
0001
0000
1000
0001
0000
0001
0100
0000
0010
0000
0100
0000
0001
0000
1000
0100
,
1000
0000
0001
0010
0100
0000
1000
0000
0010
0000
2000
0000
0001
0000
3001
1000
,
0001
0000
0100
0001
0000
0001
1000
0000
0100
0000
0010
0000
0100
0000
1000
0000
,
1001
0000
0001
1000
0100
1000
0001
1000
0100
1000
0001
1000
0100
0000
0010
0001
,
2000
0000
0000
0010
0000
0000
3020
0000
0000
0000
0130
0001
0010
0001
0100
0000
,
0001
0000
1000
0100
0010
0100
1000
0100
0010
0100
0010
0001
0100
0010
0100
0010
,
1000
0000
0100
0010
0000
0010
0002
0000
0000
0000
0000
0000
0000
0000
0000
0000
,
1003
1000
0010
0100
0100
0001
1000
1000
0100
0010
0000
0000
,
0001
0010
0100
1000
0000
1000
0001
0000
0000
0000
0010
0001
0010
0001
1000
0100
,
0010
0000
0001
0100
0000
0100
0020
0000
0000
0000
0000
1030
0001
1000
0010
1000
,
0001
0000
1000
0010
0000
0010
0200
0000
0000
0000
0302
0000
0000
0000
0013
0100
,
1000
0000
0010
1000
0000
1000
0002
0000
0000
0000
0000
0000
0103
0010
0100
0010
,
1000
0001
0010
0100
0000
0100
0010
0000
0000
0001
1000
0100
0010
0001
1000
0010
,
1000
0000
0000
1010
0000
0000
0101
0000
0000
1001
0000
0000
0110
0000
1001
0000
,
0000
0001
0010
0001
0000
0001
0100
0010
1000
0100
0000
0010
0001
0100
1000
0100
,
0001
0010
0100
1000
0000
1000
0002
0000
0000
0000
0000
0000
0000
0000
0000
0000
,
1003
0000
0001
0010
1000
0010
0001
0100
0000
0000
0001
0100
1000
0100
0001
0020
,
0000
0000
0000
0000
0032
0000
0000
0203
0000
0000
0000
0000
0301
0000
0000
2002
,
0000
0000
0000
3003
,
1000
0001
0100
0001
0100
0001
1000
0001
0000
0100
0001
0100
0001
1000
0100
1000
,
0000
0100
0010
0100
0010
0001
0100
0001
0000
1000
0010
1000
0100
0010
0100
0010
,
0001
0100
1000
0100
0001
0010
1000
0010
0001
0100
0010
0100
0001
1000
0100
0010
,
0000
0001
0100
1000
0100
0001
0010
1000
0010
0001
1000
0100
1000
0010
0100
0001
,
0000
1000
0010
0001
0010
1000
0100
0010
0000
0010
0001
0010
0100
1000
0001
0010
,
0100
0000
1000
0010
0000
0010
0100
0000
0100
0001
0000
0001
0010
0000
0010
1000
,
0000
1000
0010
0000
0010
0001
0100
0000
0000
0000
0010
0100
0000
0100
0001
0000
,
0001
1000
0000
1000
0001
0010
0000
0000
0000
0000
0000
1001
0000
1001
0000
0000
,
0011
0000
0000
0110
0000
0000
0000
1010
0000
0000
1010
0000
0000
0000
0000
0000
,
0000
2002
0000
0000
0000
0000
0000
0000
,
0000
0000
0000
0000
,
3003
0000
0000
0000
;

//---------------dance-double - ----------------
#NOTES:
     dance-double:
     :
     Easy:
     5:
     0.229,0.279,0.113,0.139,0.000:
00000000
00000000
00000000
00000000
,
00000000
00000000
00000000
00000000
,
00000000
00000000
00000000
00000000
,
00000000
00000000
00000000
00000000
,
20010000
00000000
00000000
00000000
,
30020000
00000000
00000000
00000000
,
10030000
01000000
10000000
00000000
,
01000000
00100000
01000000
00000000
,
00100000
00001000
00010000
00001000
,
00022000
00000000
00000000
00033000
,
00010001
00000000
00000001
00000000
,
00000010
00000000
00000001
00000000
,
00000010
00000000
00000100
00000000
,
00010000
00000000
00001000
00000000
,
00100000
01000000
00100000
00000000
,
00010000
00010000
00010000
00000000
,
01000000
00010000
02000000
00000000
,
00010000
00000000
03010000
00000000
,
10000000
01000000
10000000
00000000
,
01000000
01000000
01000000
00000000
,
00100000
00001000
00010000
00000000
,
00001000
00010000
00000100
00000010
,
00000220
00000000
00000330
00000000
,
00001000
00000001
00001001
00000000
,
00000200
00000000
00000000
00000000
,
00000310
00000100
00000010
00020000
,
00000000
00031000
00000000
00000000
,
00000000
00000000
00000000
00100000
,
01000000
00000000
00000000
10000000
00000000
00000000
00000000
00000000
,
01000000
00000000
00000000
00100000
00000000
00000000
00000000
00000000
,
00001000
00000000
00000000
00011000
00000000
00000000
00001000
00000000
,
00000000
00011000
00000000
00000000
00020000
00000000
00000000
00000000
,
00030010
00000000
00000000
00000000
,
00000100
00000010
00000100
00000010
,
00001000
00000100
00001000
00000100
,
00000010
00000001
00000010
00000001
,
00000100
00000010
00000100
00000010
,
00010000
00001000
00010000
00001000
,
00100000
01000000
00100000
01000000
,
10000000
00100000
10000000
00100000
,
01000000
00001000
01000000
00001000
,
00020000
00000000
00000000
00000000
,
00031000
00100000
01000000
00000000
,
10000000
00100000
01000000
00000000
,
00001000
00010000
00001000
00000000
,
00010000
00000100
00000010
00000000
,
00000001
00000010
00000100
00000000
,
00010000
00001000
00010000
00001000
,
01000000
00100000
10000000
00000000
,
01000000
00100000
01000000
00000000
,
10000000
01000000
00100000
00001000
,
00000000
00000000
00000000
00011000
00000000
00000000
00000000
00020001
,
00000000
00000000
00000000
00000000
,
00030002
00000000
00000000
00000000
,
00000023
00000000
00000000
00000000
,
00000130
00001000
00000010
00010000
,
00001000
00100000
01000000
10000000
,
01000000
10000000
00010000
10000000
,
00100000
00000000
00000000
01100000
00000000
00000000
00100000
00000000
,
00000000
01100000
00000000
00000000
00000000
00001000
00000000
00000000
,
00011000
00000000
00010000
00000000
00000000
00010000
00000000
00000000
,
00010000
00000000
00000000
00000100
00000000
00000000
00000000
00000000
,
00002002
00000000
00000000
00000000
,
00000000
00000000
00000000
00000000
,
00003003
00000000
00000000
00000000
;

//---------------dance-double - ----------------
#NOTES:
     dance-double:
     :
     Medium:
     8:
     0.392,0.418,0.183,0.183,0.065:
00000000
00000000
00000000
00000000
,
00000000
00000000
00000000
00000000
,
00000000
00000000
00000000
00000000
,
00000000
00000000
00000000
00000000
,
10000000
01000000
00100000
00010000
,
01000000
00100000
02000000
00000000
03100000
00000000
10000000
00000000
,
01000000
00100000
00001000
00010000
00000000
00000100
00000010
00000010
,
00000001
00000100
00000010
00010000
00000000
00001000
00100000
00100000
,
01000000
10000000
01000000
00100000
00000000
00001000
00010000
00000010
,
00000110
00000000
00000000
00000000
00000000
00000000
00000101
00000000
00000000
00000000
00000000
00000000
00000000
00000100
00000000
00000000
,
00000110
00000000
00000010
00000000
00000100
00001000
00000001
00000100
,
00000001
00000000
00000010
00000000
00000100
00010000
00001000
01000000
,
00010000
00000000
10000000
00000000
01000000
00100000
00010000
00100000
,
01000000
00000000
00000000
20010000
00000000
00000000
30010000
00000000
,
10000000
00100000
01000000
00100000
10000000
00000000
00100000
01000000
,
00001000
00010000
00000100
00000010
00000000
00000000
00000001
00000100
,
00000001
00001000
00000100
00001000
00010000
00000000
00100000
00000000
,
02000000
00000000
00000000
23000000
00000000
00000000
30010000
00000000
,
01000000
00010000
00100000
00010000
01000000
00000000
00001000
00010000
,
00000100
00000010
00000001
00000100
00000000
00000000
00000010
00000100
,
00000001
00000010
00000001
00000100
00000010
00000000
00010000
00001000
,
00100000
01000000
10000000
00002000
00000000
00000000
00013000
00000000
,
00001000
00000000
00000000
00010000
00000000
00000000
00011000
00000000
00000000
00000000
00000000
00000000
00000000
00000000
00000000
00000010
,
00000000
00000000
00000000
00000000
00000100
00000000
00000000
00000000
00000000
00000001
00000000
00000000
00000000
00000000
00002002
00000000
,
00000000
00000000
00000000
00003003
,
00001000
00000100
00010000
00001000
00100000
01000000
20000000
00000000
,
00000000
00000000
00000000
00000000
00000000
30010000
00000000
00000000
00000000
00000000
00000000
00000000
00000000
00000000
00000000
00000000
,
00000000
00000000
00000000
00000110
,
00000200
00000000
00000000
00000301
00000000
00000000
00000100
00000010
,
00002000
00000000
00000000
00013000
00000000
00000000
00100000
00000000
,
10100000
00000000
00000000
10100000
00000000
00000000
01001000
00000000
,
00000000
01001000
00000000
00002000
00000000
00000000
00000000
00013000
,
00000000
00000000
00000000
00000000
,
00000110
00000000
00000100
00000001
00000100
00000001
00000000
00000010
,
00000100
00010000
00001000
00010000
00001000
01000000
00000000
00000000
,
00100000
01000000
00100000
01000000
00000000
00010000
10000000
01000000
,
10000000
01000000
00100000
00001000
00010000
00001000
00000000
00000000
,
00010000
00000010
00010000
00000010
00000100
00000001
00000000
00000000
,
00000010
00000100
00000010
00000001
00000100
00000010
00000000
00000000
,
00010000
00001000
00100000
01000000
10000000
00100000
00000000
00000000
,
01000000
00010000
10000000
02000000
00000000
00000000
03000000
00000000
,
02200000
00000000
00000000
03300000
,
01000000
00010000
01000000
00100000
01000000
00000000
00010000
10000000
,
01000000
00100000
00001000
00010000
00000000
00000000
00000100
00000010
,
00000100
00001000
00000010
00000100
00000000
00000002
00000000
00000000
,
00002003
00000000
00000000
00003100
00000000
00000000
00001000
00000001
,
00010000
00000000
00000000
00010000
00000000
00000000
00010000
00000000
00000000
00000000
00000000
00000000
00000000
00000000
00000000
00000000
,
00001000
00000000
00000000
00001000
00000000
00000000
01000000
00000000
00000000
01000000
00000000
00000000
00100000
00000000
01000000
00000000
,
00000000
00010000
10000000
01000000
00100000
01000000
00000000
10000000
,
00100000
10000000
00001000
00011000
00000000
00000000
00000000
00000000
,
00010000
00000100
00000010
00000001
00000000
00000100
00000010
00020000
,
00000000
00000000
00000000
00000000
00001000
00000000
00000000
00031000
00000000
00000000
00000000
00000000
02000000
00000000
00000000
00200000
,
00000000
00000000
00000000
03300000
,
10010000
00100000
01000000
10000000
,
00010000
00100000
01000000
10000000
,
00010000
10000000
00100000
10000000
00010000
00100000
00001000
00010000
,
00000000
00000100
00000010
00000001
00000010
00000100
00010000
00000010
,
00000000
00001000
00000010
00010000
00000000
00001000
00100000
01000000
,
10000000
00000000
00000000
11000000
00000000
00000000
10010000
00000000
,
00000000
01001000
00000000
00000000
00000000
00011000
00000000
00000000
,
00010010
00000000
00000000
00000000
00000000
00000010
00000000
00000000
00000000
00000000
00000000
00000100
00000000
00000100
00000000
00000000
,
00000001
00000000
00000000
00000001
00000000
00000000
00000000
00001000
00000000
00000000
00001000
00000000
00000000
00000000
00000000
00000000
,
00000000
00002200
00000000
00000000
00000000
00000000
00000000
00000000
,
00000000
00000000
00000000
00000000
,
00003300
00000000
00000000
00000000
;

//---------------dance-double - ----------------
#NOTES:
     dance-double:
     :
     Hard:
     13:
     0.610,0.725,0.366,0.183,0.579:
00000000
00000000
00000000
00000000
,
00000000
00000000
00000000
00000000
,
00000000
00000000
00000000
00000000
,
00000000
00000000
00000000
00000000
,
10000000
01000000
00100000
00010000
00001000
00000100
00000010
00000001
,
00000010
00000100
00001000
00010000
00100000
01000000
10000000
00010000
,
10000000
01000000
10000000
00000000
01000000
00100000
00010000
00001000
00000000
00000010
00000100
00000000
00000001
00000000
00000010
00000000
,
00000100
00000010
00000100
00000000
00010000
00001000
00100000
01000000
00000000
10000000
00100000
00000000
01000000
00000000
00010000
00000000
,
10000000
01000000
10000000
00000000
01000000
00100000
00010000
00001000
00000000
00000000
00000010
00000100
00000010
00000100
00000001
00000000
,
00001001
00000000
00000000
00000011
00000000
00000000
00000110
00000000
00000000
00010100
00000000
00000000
00000000
00001000
00000000
00001000
,
10000000
01000000
00100000
00020000
00000000
00000000
01030000
00000000
,
00001000
00010000
00000100
00000020
00000000
00000000
00000031
00000000
,
00001000
00000100
00000010
00000001
00010000
00000100
00010000
00000000
,
00001000
00100000
01000000
20000000
00000000
00000000
00010000
30010000
,
10000000
00000000
00100000
01000000
00000000
01000000
00001000
00000000
00000000
00000000
00010000
00001000
00010000
00000000
00000010
00000000
,
00000100
00000000
00000001
00000100
00000000
00000100
00000010
00000000
00000000
00000000
00000000
00000000
00010000
00001000
00010000
00001000
,
00010000
00000000
00001000
00100000
00000000
00100000
01000000
00000000
10000000
00000000
00000000
00000000
01000000
00000000
00000000
00000000
,
21000000
00000000
00000000
30020000
00000000
00000000
00130000
00000000
,
00001000
00000000
00010000
00000010
00000000
00000010
00000100
00000000
00000000
00000000
00000001
00001000
00000001
00000000
00000010
00000000
,
00000100
00000000
00010000
00001000
00000000
00001000
00100000
00000000
00000000
00000000
00000000
00000000
00010000
10000000
00010000
10000000
,
00010000
00000000
00100000
01000000
00000000
01000000
10000000
00000000
00100000
00000000
00000000
00000000
01000000
00100000
01000000
00000000
,
00010000
00100000
01000000
00200000
00000000
00000000
00310000
00000000
,
01100000
00000000
00000000
01001000
00000000
00000000
00011000
00000000
00000000
00000000
00000000
00000000
00000000
00000000
00000000
00000011
,
00000000
00000000
00000000
00000100
00000010
00000000
00000000
00000000
00000000
00011000
00000000
00000000
00000000
00100000
02000000
00000000
,
00000000
00000000
00000000
03000000
,
10000000
01000000
00100000
00010000
00001000
00000100
00000010
00000001
,
00000000
00000000
00000000
00000000
00000000
00000110
00000000
00000000
00000000
00000000
00000000
00000000
00000000
00000000
00000000
00000000
,
00000000
00000000
00000000
00000000
00000000
00000000
00010000
00001000
,
00100000
00000000
10000000
00000000
00100000
00000000
00001000
00000000
00000000
00000000
00010000
00001000
00010000
00001000
00010000
00000000
,
00000100
00000000
00000001
00000000
00000100
00000000
00010000
00000000
00000000
00000000
00001000
00010000
00001000
00010000
00001000
00000000
,
00011000
00000000
00000000
00011000
00000000
00000000
01100000
00000000
00000000
01100000
00000000
00000000
11000000
00000000
00000000
11000000
,
00000000
00000000
01001000
00000000
00000000
01001000
00000000
00000000
00011000
00000000
00000000
00011000
00000000
00000000
00020020
00000000
,
00000000
00000000
00000000
00030030
,
00000010
00000000
00001000
00000100
00001000
00000000
00000010
00000000
00000100
00000000
00000001
00000000
00000010
00000000
00000100
00000000
,
00010000
00000000
00001000
00010000
00001000
00000000
00100000
00000000
01000000
00000000
10000000
00000000
00100000
00000000
00010000
00000000
,
00100000
00000000
10000000
00010000
10000000
00000000
01000000
00000000
00100000
00000000
00010000
00000000
00001000
00000000
00000100
00000000
,
00000010
00000000
00000001
00000100
00000001
00000000
00001000
00000000
00000010
00000000
00000001
00000000
00000010
00000000
00001000
00000000
,
00011000
00010000
00100000
01000000
00010000
00100000
00010000
01000000
,
00100000
00010000
10000000
01000000
00010000
01000000
10000000
00100000
,
01000000
00000000
00001000
01000000
00001000
01000000
00001000
00010000
00001000
00010000
00001000
00010000
00000000
00000100
00000010
00000100
,
00000020
00000000
00000000
00000032
00000000
00000000
00002003
00000000
00000000
00000000
00000000
00000000
00003000
00000000
00000000
00000000
,
00000001
00000001
00000010
00000100
00010000
00001000
00001000
01000000
00100000
10000000
00000000
00000000
,
00010000
00000000
01000000
00100000
00000000
00100000
10000000
00000000
00000000
00000000
01000000
00100000
01000000
00000000
00100000
00000000
,
00001000
00000000
00010000
00000100
00000000
00000100
00000010
00000000
00000000
00000000
00000000
00000000
00000001
00001000
00000001
00001000
,
00000001
00000000
00000010
00000100
00000000
00000100
00010000
00000000
00000000
00000000
00002000
00000000
00000000
00000000
00103000
00000000
,
01000000
00000000
10000000
00100000
00000000
00100000
01000000
00000000
00000000
00000000
00000000
00000000
00001000
00010000
00001000
00010000
,
00001000
00000000
00010000
00000100
00000000
00000100
00000010
00000000
00000000
00000000
00000001
00000100
00000001
00000010
00000100
00010000
,
00000100
00000000
00000000
00010100
00000000
00000000
00011000
00000000
00000000
00011000
00000000
00000000
01100000
00000000
00100000
00000000
,
01000000
00000000
00010000
10000000
00000000
10000000
00100000
00000000
01000000
00001000
00000000
00001000
00010000
00001000
00010000
00000010
,
00000100
00000010
00000100
00000001
00000010
00000100
00002000
00000000
00000000
00000000
00000000
00000000
00000000
00000000
00003000
00000000
,
00000100
00000000
00010000
00001000
00100000
01000000
10000000
01000000
00000000
00000000
10000000
01000000
00100000
00001000
00010000
00002000
,
00000000
00000000
00000000
00000000
00023000
00000000
00000000
00030200
00000000
00000000
00000000
00000000
00000320
00000000
00000000
00000002
,
00000000
00000000
00000000
00000033
,
00000001
00000010
00000100
00001000
00010000
00100000
01000000
10000000
,
01000000
00100000
00010000
00001000
00000100
00000010
00000001
00000100
,
00000001
00000100
00000001
00001000
00000100
00010000
00001000
00100000
00000000
01000000
00100000
00000000
00010000
00000000
10000000
00000000
,
01000000
00100000
01000000
00000000
10000000
01000000
00100000
00010000
00000000
00001000
00010000
00000000
00000010
00000000
00000100
00000000
,
00000001
00000100
00000001
00000000
00000010
00000100
00001000
00010000
00000000
01000000
00100000
01000000
00100000
00010000
00100000
00010000
,
00100000
00000000
00000000
00110000
00000000
00000000
01100000
00000000
00000000
01100000
00000000
00000000
11000000
00000000
00000000
01001000
,
00000000
00000000
00011000
00000000
00000000
00010010
00000000
00000000
00000000
00000000
00000110
00000000
00000000
00000110
00000000
00000000
,
00001001
00000000
00000000
00001001
00000000
00000001
00000000
00000000
00000000
00000000
00000000
00000010
00000000
00000100
00000000
00000000
,
00010000
00000000
00000000
00011000
00000000
00000000
00000000
00101000
00000000
00000000
00101000
00000000
00000000
00000000
00000000
00000000
,
00000000
22000000
00000000
00000000
00000000
00000000
00000000
00000000
,
00000000
00000000
00000000
00000000
,
33000000
00000000
00000000
00000000
;

//---------------dance-double - ----------------
#NOTES:
     dance-double:
     :
     Challenge:
     15:
     0.805,0.864,0.235,0.287,1.000:
00000000
00000000
00000000
00000000
,
00000000
00000000
00000000
00000000
,
00000000
00000000
00000000
00000000
,
00000000
00000000
00000000
00000000
,
10000000
01000000
10000000
01000000
00100000
00001000
00100000
00001000
00000000
00010000
00000010
00010000
00000010
00000100
00000001
00000100
,
00000000
00000001
00000010
00000001
00000010
00000100
00010000
00000100
00000000
00010000
00001000
00010000
00001000
01000000
00100000
01000000
,
00010000
00100000
01000000
00100000
00001000
00010000
00000100
00000010
00000000
00000001
00001000
00000010
00001000
00000001
00000010
00000100
,
00000000
00001000
00010000
01000000
00100000
01000000
00010000
01000000
00000000
00010000
00100000
01000000
00100000
00001000
00010000
00000100
,
00000010
00000100
00000010
00000001
00000010
00000100
00010000
00001000
00000000
00100000
01000000
10000000
01000000
00100000
00010000
01000000
,
00001000
00010000
00000000
00010000
00000010
00000000
00000010
00000100
00000000
00000100
00000001
00000000
00000000
00010000
00000000
00010000
,
00001000
00000000
00100000
00000000
01000000
00000000
20000000
00000000
00000000
00000000
30100000
01000000
00010000
01000000
00100000
00000000
,
10000000
00000000
01000000
00000000
00100000
00000000
00002000
00000000
00000000
00000000
00013000
00000100
00000010
00000100
00010000
00000000
,
00000110
00000000
00000100
00000000
00000010
00000000
00000002
00000000
00000000
00000000
00000103
00000001
00000010
00000001
00000100
00000000
,
00000010
00000000
00010000
00000000
00001000
00000000
00200000
00000000
00000000
00000000
01300000
10000000
00100000
10000000
01000000
00000000
,
10000000
00100000
01000000
00010000
00000000
00010000
10000000
00000000
00000000
00000000
00100000
01000000
00010000
00001000
00000100
00000010
,
00000100
00000000
00000100
00001000
00000000
00001000
00000002
00000000
00000000
00000000
00000000
00000013
00000001
00000010
00000001
00000100
,
00000010
00001000
00010000
01000000
00000000
01000000
00020000
00000000
00000000
00000000
00000000
00000000
10030000
00100000
10000000
00000000
,
00200000
00000000
00000000
02300000
00000000
00000000
03020000
00000000
00000000
00000000
00000000
00000000
01030000
00100000
01000000
00000000
,
00010000
00100000
01000000
10000000
00000000
10000000
00100000
00000000
00000000
00000000
01000000
00100000
01000000
00001000
00010000
00000100
,
00000010
00000000
00000010
00000001
00000000
00000001
00000200
00000000
00000000
00000000
00000000
00000310
00001000
00000100
00001000
00000010
,
00010000
00001000
00100000
01000000
00000000
01000000
00100000
00010000
10000000
01000000
00000000
10000000
01000000
00010000
01000000
10000000
,
00100000
00010000
00100000
10000000
01000000
00100000
00002000
00000000
00000000
00000000
00000000
00000000
00013000
00001000
00010000
00000000
,
00011000
00000000
00000000
00010010
00000000
00000000
00000110
00000000
00000100
00000010
00000001
00001000
00000010
00010000
00001000
00100000
,
00000000
00000000
00010000
00100000
01000000
00000000
00000000
10000000
00100000
01000000
00000000
00000000
00010000
00100000
00002000
00000000
,
00010000
00000000
00000000
00010000
00000000
00000000
00000000
00000000
00010000
00000000
00000000
00000000
00013000
00000000
00000000
00000000
,
00000110
00000000
00000100
00000010
00000001
00000010
00000100
00010000
00001000
01000000
00100000
01000000
00010000
00100000
01000000
10000000
,
00000000
00000000
00000000
00000000
00000000
01200000
00000000
00000000
00000000
00000000
00000000
00000000
00000000
00000000
00000000
00000000
,
10000000
00000000
00000000
00000000
10000000
00000000
00000000
00000000
10300000
00000000
00000000
00000000
00100000
01000000
00100000
01000000
,
00010000
00100000
01000000
10000000
01000000
00100000
00002000
00000000
00000000
00000000
00013000
00000100
00010000
00000100
00010000
00000010
,
00000100
00000001
00000100
00000010
00001000
00000100
00020000
00000000
00000000
00000000
00031000
00100000
01000000
10000000
00100000
00000000
,
10100000
00000000
00000000
10100000
00000000
00000000
01001000
00000000
00000000
01001000
00000000
00000000
00011000
00000000
00000000
00010010
,
00000000
00000000
00000110
00000000
00000000
00000010
00000001
00000010
00000100
00010000
00001000
00010000
00001000
01000000
00100000
02000000
,
00000000
00000000
00000000
00000000
00000000
00000000
00000000
00000000
00000000
00000000
00000000
00000000
00000000
00000000
03100000
01000000
,
00100000
00000000
10000000
01000000
00100000
00000000
00001000
00000000
00010000
00000000
00000020
00000000
00000100
00000000
00000130
00000001
,
00000010
00000000
00000100
00000010
00000000
00000010
00000001
00000000
00001000
00000000
00000010
00000000
00001000
00000000
00000010
00010000
,
00001000
00000000
00100000
01000000
10000000
00000000
00100000
00000000
10000000
00000000
00020000
00000000
00100000
00000000
00130000
01000000
,
00100000
00000000
00010000
00100000
00000000
00100000
01000000
00000000
10000000
00000000
00100000
00000000
10000000
00000000
00001000
00000000
,
00011000
00000000
00010000
00000100
00010000
00000100
00000010
00000001
00000010
00000001
00000100
00000010
00000100
00000000
00000001
00000010
,
00000200
00000000
00000000
00010000
00000000
00000000
00020300
00000000
00000000
00000000
00031000
00100000
01000000
00100000
00001000
00000000
,
00100000
00000000
01000000
10000000
01000000
10000000
00100000
01000000
00100000
01000000
00001000
00010000
00001000
00010000
00000100
00000010
,
00000100
00000000
00001000
00000010
00000000
00000010
00000200
00000000
00000000
00000000
00000000
00000000
00000000
00000000
00000000
00000000
,
00000301
00000010
00001000
00000010
00000001
00010000
00001000
01000000
10000000
01000000
00000000
00000000
,
00001000
01000000
00100000
10000000
00000000
10000000
00100000
00000000
00000000
00000000
10000000
01000000
00100000
01000000
10000000
00010000
,
01000000
00000000
01000000
00010000
00000000
00010000
00002000
00000000
00000000
00000000
00000000
00003100
00000010
00000001
00000100
00000010
,
00000100
00000000
00000100
00000001
00000000
00000001
00020000
00000000
00000000
00000000
00032000
00000000
00000000
00000000
00103000
01000000
,
10000000
00000000
10000000
00100000
00000000
00100000
02000000
00000000
00000000
00000000
00000000
00000000
03010000
10000000
00010000
10000000
,
01000000
00100000
00001000
00010000
00000000
00000100
00000010
00000000
00000000
00000001
00000100
00000001
00001000
00000100
00000010
00000001
,
00000100
00000000
00000000
00000101
00000000
00000000
00010010
00000000
00000000
00011000
00000000
00000000
00101000
00000000
01100000
00000000
,
00000000
00100000
01000000
00100000
00000000
00100000
10000000
01000000
00100000
00010000
00000000
10000000
00100000
00010000
00100000
10000000
,
01000000
00010000
01000000
10000000
01000000
00100000
00020000
00000000
00000000
00000000
00000000
00000000
00000000
00000000
00000000
00000000
,
01030000
00000000
00100000
10000000
01000000
10000000
00100000
01000000
00000000
00000000
00001000
00010000
00000100
00000010
00000100
00020000
,
00000000
00000000
00000000
00000000
00030020
00000000
00000000
00000230
00000000
00000000
00000000
00000000
00000301
00000000
00000000
00000220
,
00000000
00000000
00000000
00000330
,
00000100
00000001
00000100
00000001
00010000
00000100
00010000
00000100
00000000
00001000
00010000
00001000
00010000
01000000
00100000
01000000
,
00000000
00010000
10000000
00010000
10000000
01000000
00100000
01000000
00000000
10000000
01000000
10000000
01000000
00100000
00001000
00100000
,
00001000
00010000
00000100
00000010
00000100
00010000
00000100
00000010
00000001
00000100
00000010
00000100
00000001
00000100
00000010
00010000
,
00000000
00001000
01000000
00100000
01000000
00001000
10000000
01000000
10000000
00100000
01000000
00001000
00010000
00001000
00010000
00000100
,
00000000
00000010
00000001
00000010
00000100
00000010
00000001
00000100
00000010
00010000
00001000
01000000
00100000
01000000
00001000
00100000
,
01000000
00000000
01000000
10000000
00000000
10000000
00001000
00000000
00001000
00010000
00000000
00010000
00000010
00000000
00000010
00000100
,
00000000
00000100
00000001
00000000
00000001
00000010
00000100
00000000
00000000
00000000
00010000
00001000
00000000
00001000
00100000
00000000
,
00100000
01000000
00000000
01000000
00100000
00010000
00000000
00000000
00000000
00000000
00000000
01100000
00000000
01100000
00000000
00000000
,
10100000
00000000
00000000
01001000
00000000
00000000
00000000
00011000
00000000
00000000
00011000
00000000
00000000
00000000
00000000
00000000
,
00000000
00000220
00000000
00000000
00000000
00000000
00000000
00000000
,
00000000
00000000
00000000
00000000
,
00000330
00000000
00000000
00000000
;

//---------------dance-single - ----------------
#NOTES:
     dance-single:
     :
     Beginner:
     2:
     0.075,0.135,0.026,0.000,0.000:
0000
0000
0000
0000
,
0000
0000
0000
0000
,
0000
0000
0000
0000
,
0000
0000
0000
0000
,
1000
0000
0000
0000
,
0000
0000
0000
0000
,
0100
0000
0000
0000
,
0010
0000
0000
0000
,
0001
0000
0000
0000
,
1000
0000
0000
0000
,
1000
0000
0000
0000
,
0100
0000
0000
0000
,
1000
0000
0000
0000
,
0100
0000
0000
0000
,
0010
0000
0000
0000
,
0010
0000
0000
0000
,
0001
0000
0000
0000
,
0001
0000
0000
0000
,
0100
0000
0000
0000
,
0010
0000
0000
0000
,
1000
0000
0000
0000
,
1000
0000
0000
0000
,
1001
0000
0000
0000
,
0001
0000
0000
0000
,
0000
0000
0000
0000
,
0010
0000
0000
0000
,
0000
0100
0000
0000
,
0000
0000
0000
0000
,
1000
0000
0000
0000
,
0010
0000
0000
0000
,
1000
0000
0000
0000
,
0000
0000
0000
0000
,
0000
0000
0000
0000
,
0010
0000
0000
0000
,
0100
0000
0000
0000
,
0010
0000
0000
0000
,
0100
0000
0000
0000
,
0001
0000
0001
0000
,
1000
0000
1000
0000
,
0001
0000
0001
0000
,
1000
0000
1000
0000
,
0001
0000
0000
0000
,
0100
0000
0000
0000
,
0001
0000
0000
0000
,
0010
0000
0000
0000
,
0100
0000
0000
0000
,
1000
0000
0000
0000
,
1000
0000
0000
0000
,
0001
0000
0000
0000
,
0100
0000
0000
0000
,
0010
0000
0000
0000
,
1000
0000
0000
0000
,
1001
0000
0000
0000
,
0001
0000
0000
0000
,
0000
0000
0000
0000
,
0010
0000
0000
0000
,
0100
0000
0000
0000
,
1000
0000
0000
0000
,
0001
0000
0000
0100
,
0000
0000
0000
0010
,
0000
0100
0000
0000
,
0000
0000
0000
0000
,
0000
0110
0000
0000
0000
0000
0000
0000
;
