#TITLE:MAXiMiZED OVERKiLL;
#SUBTITLE:;
#ARTIST:iNFECTiON underground;
#TITLETRANSLIT:;
#SUBTITLETRANSLIT:;
#ARTISTTRANSLIT:;
#CREDIT:DigiMindAxel+Damox;
#BANNER:MAXiMiZED OVERKiLL.png;
#BACKGROUND:MAXiMiZED OVERKiLL-bg.png;
#LYRICSPATH:;
#CDTITLE:DigiMindAxel original simfile.png;
#MUSIC:MAXiMiZED OVERKiLL.ogg;
#METERTYPE:DDR X;
#OFFSET:-10.372;
#SAMPLESTART:103.455;
#SAMPLELENGTH:12.000;
#SELECTABLE:YES;
#DISPLAYBPM:*;
#BPMS:0.000=210.000,32.000=105.000,40.000=210.000,48.000=420.000,60.000=840.000,63.000=210.000,127.000=105.000,129.000=420.000,257.000=210.000,261.000=105.000,293.000=210.000,309.000=220.000,349.000=440.000,357.000=880.000,373.000=440.000,629.000=220.000;
#STOPS:60.000=0.107142
,60.500=0.107142
,61.000=0.035714
,61.500=0.035714
,62.000=0.035714
,62.500=0.035714
;
#BGCHANGES:;

//---------------dance-single - ----------------
#NOTES:
     dance-single:
     :
     Easy:
     11:
     0.492,0.713,0.094,0.047,0.000: // measure 1
1000
0100
1000
0001
,  // measure 2
1000
0100
1000
0010
,  // measure 3
0100
0001
0100
0010
,  // measure 4
0100
0001
1000
0100
,  // measure 5
0010
0000
0001
0000
1000
0000
0100
1000
,  // measure 6
0100
0000
0010
0000
0001
0000
0100
0010
,  // measure 7
0100
0000
0001
0000
0100
0000
0010
1000
,  // measure 8
0010
1000
0010
1000
0001
0000
0000
0000
,  // measure 9
1001
0000
0000
0000
,  // measure 10
1001
0001
0010
0001
,  // measure 11
1001
0000
1000
0000
,  // measure 12
0010
1000
0010
1000
,  // measure 13
0001
0000
0010
0000
,  // measure 14
0100
0000
1000
0000
,  // measure 15
0010
0100
0010
0100
,  // measure 16
0020
0000
0000
1030
,  // measure 17
0001
0100
0000
0001
0100
0000
0001
0000
,  // measure 18
0100
0001
0000
0100
0001
0000
1000
0000
,  // measure 19
0100
1000
0000
0100
1000
0000
0100
0000
,  // measure 20
1000
0100
0000
1000
0100
0000
0010
0000
,  // measure 21
0001
0100
0000
0001
0100
0000
0001
0000
,  // measure 22
0010
0100
0000
0010
0100
0000
1000
0000
,  // measure 23
0010
1000
0000
0010
1000
0000
0001
0000
,  // measure 24
0010
0100
0000
0010
0100
0000
1000
0000
,  // measure 25
0001
0100
0000
0001
1000
0000
0001
0000
,  // measure 26
1000
0010
0000
1000
0001
0000
1000
0000
,  // measure 27
0001
0010
0000
0001
1000
0000
0001
0000
,  // measure 28
1000
0100
0000
1000
0001
0000
1000
0000
,  // measure 29
0001
0010
0000
0001
1000
0000
0001
0000
,  // measure 30
1000
0010
0000
1000
0001
0000
1000
0000
,  // measure 31
0001
0010
0000
0001
1000
0000
0100
0010
,  // measure 32
0100
0010
0001
1000
0001
1000
0100
0000
,  // measure 33
0000
1001
0000
0001
,  // measure 34
1000
0001
1000
0100
,  // measure 35
0000
1000
0001
1000
,  // measure 36
0001
1000
0010
0100
,  // measure 37
0000
0001
0100
0001
,  // measure 38
0100
0001
1000
0100
,  // measure 39
0000
0010
0001
0010
,  // measure 40
0001
1000
0010
1000
,  // measure 41
0000
0001
1000
0001
,  // measure 42
1000
0100
1000
0100
,  // measure 43
0000
0010
0001
0010
,  // measure 44
0001
1000
0010
0100
,  // measure 45
0000
0010
0100
0010
,  // measure 46
0100
0001
0010
0100
,  // measure 47
0000
0010
0001
0010
,  // measure 48
0001
1000
0010
1000
,  // measure 49
0000
0010
0100
0010
,  // measure 50
0100
0001
0100
0010
,  // measure 51
0000
0100
0001
0100
,  // measure 52
0001
0100
0010
0100
,  // measure 53
0000
0001
1000
0100
,  // measure 54
1000
0100
1000
0001
,  // measure 55
0000
1000
0001
0010
,  // measure 56
0001
0010
0001
1000
,  // measure 57
0000
0010
0100
0010
,  // measure 58
0100
0010
1000
0001
,  // measure 59
0000
0100
0010
0100
,  // measure 60
0010
0100
0001
1000
,  // measure 61
0000
0100
1000
0100
,  // measure 62
1000
0100
1000
0001
,  // measure 63
0000
0010
0001
0010
,  // measure 64
0001
0010
0001
1000
,  // measure 65
0000
1001
0001
2000
,  // measure 66
0000
3001
0100
0010
,  // measure 67
0100
0001
0100
1000
,  // measure 68
0100
0001
0010
0001
,  // measure 69
1000
0001
0010
1000
,  // measure 70
0010
0001
0100
0010
,  // measure 71
0100
0001
1000
0100
,  // measure 72
1000
0001
0100
1000
,  // measure 73
0100
0001
0010
0100
,  // measure 74
1000
0000
0001
0000
0000
0001
0000
0000
,  // measure 75
1000
0000
0100
0000
0000
0100
0000
0000
,  // measure 76
0100
0000
0010
0000
0000
0010
0000
0000
,  // measure 77
0010
0000
0001
0000
0000
0001
0000
0000
,  // measure 78
0001
0000
0100
0000
0000
0100
0000
0000
,  // measure 79
0100
0000
0010
0000
0000
0010
0000
0000
,  // measure 80
0010
0000
1000
0000
0000
1000
0000
0000
,  // measure 81
1000
0000
0100
0000
0000
0100
0000
0000
,  // measure 82
0100
2002
0000
0000
,  // measure 83
0000
0000
0000
0000
,  // measure 84
0000
0000
0000
0000
,  // measure 85
0000
0000
0000
3003
,  // measure 86
0000
1001
0000
0001
,  // measure 87
0000
1000
0000
0100
,  // measure 88
0000
0010
0000
0001
,  // measure 89
0000
0010
0000
0001
,  // measure 90
0000
2000
0000
0000
,  // measure 91
0000
0000
0000
0000
,  // measure 92
0000
0000
0000
0000
,  // measure 93
0000
3000
0000
0000
,  // measure 94
0000
0001
0000
0100
,  // measure 95
0000
0001
0000
0100
,  // measure 96
0000
0010
0000
1000
,  // measure 97
0000
0010
0000
1000
,  // measure 98
0000
0010
0000
0100
,  // measure 99
0000
0010
0000
0100
,  // measure 100
0000
0001
0000
0001
,  // measure 101
0000
1000
0000
1000
,  // measure 102
0000
0001
0000
0010
,  // measure 103
0000
0100
0000
1000
,  // measure 104
0000
0010
0000
0100
,  // measure 105
0000
0001
0000
1000
,  // measure 106
0000
0100
0000
0010
,  // measure 107
0000
0001
0000
0001
,  // measure 108
0000
1000
0000
1000
,  // measure 109
0000
0100
0000
0010
,  // measure 110
0000
0001
1000
0001
,  // measure 111
0000
1000
0100
1000
,  // measure 112
0000
0001
1000
0001
,  // measure 113
0000
1000
0100
1000
,  // measure 114
0000
0001
1000
0001
,  // measure 115
0000
0100
0010
0100
,  // measure 116
0010
0100
0000
0100
,  // measure 117
0000
0010
0000
0010
,  // measure 118
0000
1000
0001
1000
,  // measure 119
0000
0001
0010
0001
,  // measure 120
0000
1000
0100
1000
,  // measure 121
0000
0001
1000
0001
,  // measure 122
0000
0100
0010
0100
,  // measure 123
0000
0001
0100
0001
,  // measure 124
0100
0001
0100
0001
,  // measure 125
0000
0001
0000
0001
,  // measure 126
0000
1000
0000
0100
,  // measure 127
1000
0100
0000
1000
,  // measure 128
0000
0001
0100
0001
,  // measure 129
0000
0010
0000
0100
,  // measure 130
0000
1000
0000
0010
,  // measure 131
0100
0010
0000
1000
,  // measure 132
0000
1001
0000
0001
,  // measure 133
0000
1001
0000
1000
,  // measure 134
0000
0001
0000
0100
,  // measure 135
0010
0100
0000
0001
,  // measure 136
0000
1000
0000
0100
,  // measure 137
1000
0100
0000
0010
,  // measure 138
0000
0100
0000
1000
,  // measure 139
0010
1000
0000
0001
,  // measure 140
0000
1001
0000
1000
,  // measure 141
0000
1001
0000
0001
,  // measure 142
0000
0100
0010
0100
,  // measure 143
0010
0100
0010
1000
,  // measure 144
0000
0001
0000
0100
,  // measure 145
0001
0100
0000
0010
,  // measure 146
0000
1000
0001
0100
,  // measure 147
0001
0100
0001
1000
,  // measure 148
0000
1001
0000
0001
,  // measure 149
0000
1001
0000
1000
,  // measure 150
0000
0100
0010
0100
,  // measure 151
0010
0001
0010
0001
,  // measure 152
0000
0100
0010
0100
,  // measure 153
0010
1000
0100
1000
,  // measure 154
0000
0100
1000
0100
,  // measure 155
1000
0100
1000
0001
,  // measure 156
1000
0001
1000
0001
,  // measure 157
0100
0010
1000
0010
,  // measure 158
0100
0001
0000
0000
,  // measure 159
0000
2002
0000
0000
,  // measure 160
0000
0000
0000
0000
,  // measure 161
0000
0000
0000
0000
,  // measure 162
0000
0000
0000
0000
,  // measure 163
0000
0000
0000
0000
,  // measure 164
0000
0000
3003
0000
;

//---------------dance-single - ----------------
#NOTES:
     dance-single:
     :
     Medium:
     15:
     0.688,1.000,0.302,0.087,0.034: // measure 1
0001
0000
0010
0000
0100
0010
0001
0000
,  // measure 2
1000
0000
0010
0000
0100
0001
1000
0001
,  // measure 3
0100
0000
0001
0000
0010
0100
1000
0000
,  // measure 4
0001
0100
0001
0100
0001
1000
0100
1000
,  // measure 5
0100
0000
0010
0000
0001
1000
0010
0000
,  // measure 6
0100
0000
0001
0000
0010
0100
1000
0100
,  // measure 7
0010
0001
0010
0001
0100
0010
0100
0010
,  // measure 8
1000
0001
0010
0001
1000
0000
0000
0000
,  // measure 9
2002
0000
0000
3003
,  // measure 10
1000
0001
0000
0100
0000
1000
0000
0100
0000
0001
0000
1000
0000
0010
0000
1000
,  // measure 11
1001
0000
0100
0010
0100
0000
0001
0100
,  // measure 12
0001
0010
0100
1000
,  // measure 13
0010
0100
0010
0100
,  // measure 14
0001
1000
0001
1000
,  // measure 15
0010
0100
0001
0010
,  // measure 16
0200
0320
0000
0130
,  // measure 17
1000
0010
0000
1000
0001
0010
0001
0000
,  // measure 18
0010
0100
0000
0010
0100
1000
0100
0000
,  // measure 19
0010
0001
0000
0010
0001
1000
0010
0100
,  // measure 20
0010
0100
0010
0100
0001
1000
0100
0000
,  // measure 21
0010
0100
0000
0010
0100
1000
0100
0000
,  // measure 22
0010
0001
0000
0010
0001
1000
0001
0000
,  // measure 23
0100
0010
0000
0100
0010
1000
0100
0010
,  // measure 24
0100
0010
0100
0010
0100
1000
0100
0010
,  // measure 25
0001
0100
0000
0001
0100
0000
0001
0010
,  // measure 26
0100
1000
0000
0100
1000
0000
0010
0100
,  // measure 27
0001
0100
0000
0001
0100
0000
0010
1000
,  // measure 28
0100
0010
0100
0010
0100
0010
0001
1000
,  // measure 29
0100
1000
0000
0001
0100
0000
0010
1000
,  // measure 30
0100
0010
0000
0001
0100
0000
0010
1000
,  // measure 31
0001
0010
0001
0100
0010
0000
1000
0100
,  // measure 32
0010
0100
1000
0001
0100
0001
2000
3002
,  // measure 33
2003
3000
1001
0000
0001
0000
1000
0000
,  // measure 34
0001
1000
0100
1000
,  // measure 35
0010
0100
0001
0010
,  // measure 36
0001
0010
0100
0010
,  // measure 37
0100
1000
0010
1000
,  // measure 38
0001
1000
0010
0100
,  // measure 39
0001
1000
0001
1000
,  // measure 40
0100
0010
0100
0010
,  // measure 41
0001
0100
0001
1000
,  // measure 42
0100
0010
0001
1000
,  // measure 43
0100
1000
0100
0010
,  // measure 44
0100
0010
0001
0100
,  // measure 45
0001
1000
0100
1000
,  // measure 46
0100
0010
0100
0010
,  // measure 47
0001
0100
0001
0100
,  // measure 48
0010
1000
0100
0010
,  // measure 49
0001
1001
0000
0100
,  // measure 50
1000
0000
0001
0100
,  // measure 51
0000
1001
0000
1000
,  // measure 52
0100
0000
0010
0100
,  // measure 53
0000
1001
0000
0010
,  // measure 54
0001
0000
0100
0010
,  // measure 55
0000
1001
1000
0010
,  // measure 56
0100
0001
1000
0100
,  // measure 57
0000
1001
0000
0001
,  // measure 58
0100
0000
0001
1000
,  // measure 59
0000
1001
0000
1000
,  // measure 60
0010
0000
1000
0001
,  // measure 61
0000
0101
0100
0001
,  // measure 62
0010
0100
1000
0001
,  // measure 63
0100
0010
0100
0001
,  // measure 64
0010
0100
1000
0001
,  // measure 65
0010
0000
0200
0000
2300
0000
3001
0001
,  // measure 66
0002
0000
1003
0100
0010
0001
1000
0100
,  // measure 67
0010
0001
0100
0100
0010
0010
1000
0010
,  // measure 68
0100
0010
1000
1000
0010
0010
0100
0001
,  // measure 69
0010
0100
1000
1000
0001
0001
0010
0100
,  // measure 70
1000
0001
0100
0100
0010
0010
0100
0001
,  // measure 71
0010
0100
1000
1000
0010
0010
0100
0001
,  // measure 72
0010
0100
1000
1000
0100
0100
1000
0010
,  // measure 73
0100
0001
0010
0010
0100
0100
0010
0001
,  // measure 74
0010
0010
0100
0100
0010
0000
0000
0000
0001
0000
0101
0000
0000
0000
0100
0000
,  // measure 75
0110
0000
0010
0000
1000
1100
0000
0100
,  // measure 76
0110
0000
0010
0000
0001
0101
0000
0100
,  // measure 77
0110
0000
1000
0000
0100
1100
0000
0010
,  // measure 78
0110
0000
0001
0000
1000
1100
0000
0010
,  // measure 79
0110
0000
0001
0000
0010
0011
0000
0100
,  // measure 80
0110
0000
1000
0000
0010
1010
0000
0100
,  // measure 81
0110
0000
0001
0000
0010
0011
0000
0100
,  // measure 82
0110
0000
1001
0000
1000
0000
0000
0010
,  // measure 83
0000
0100
0000
0000
,  // measure 84
0000
1001
0000
0001
,  // measure 85
0000
0010
0000
0000
0100
0000
0000
0000
,  // measure 86
0000
1001
0000
0011
,  // measure 87
0000
1100
0010
0001
,  // measure 88
0010
0100
1000
0100
,  // measure 89
1000
0010
0100
0010
,  // measure 90
0100
0002
0000
0000
,  // measure 91
0000
0000
0000
0000
,  // measure 92
0000
0000
0000
0000
,  // measure 93
0000
0003
0000
0000
,  // measure 94
0000
1000
0010
1000
,  // measure 95
0000
0010
0100
0010
,  // measure 96
0000
1000
0010
1000
,  // measure 97
0000
0001
0010
0001
,  // measure 98
0000
1001
0000
0001
,  // measure 99
0000
1000
0100
0010
,  // measure 100
0100
1000
0001
0100
,  // measure 101
0010
0100
0001
0100
,  // measure 102
0000
0001
1000
0001
,  // measure 103
0000
1000
0100
1000
,  // measure 104
0000
0001
1000
0001
,  // measure 105
0000
1000
0010
1000
,  // measure 106
0000
1001
0000
0001
,  // measure 107
0000
0010
0100
1000
,  // measure 108
0001
0100
0001
1000
,  // measure 109
0100
0010
0100
1000
,  // measure 110
0000
0100
1000
0100
,  // measure 111
1000
0010
0100
0010
,  // measure 112
0100
0001
0010
0001
,  // measure 113
0010
0100
0010
0100
,  // measure 114
1000
1001
0000
0001
,  // measure 115
0000
0100
0001
0100
,  // measure 116
0001
0010
0100
1000
,  // measure 117
0100
0010
0100
1000
,  // measure 118
0000
0001
1000
0001
,  // measure 119
1000
0010
0100
0010
,  // measure 120
0100
0001
0010
0001
,  // measure 121
0010
0100
1000
0001
,  // measure 122
1000
1001
0000
0001
,  // measure 123
0000
0010
0001
0010
,  // measure 124
0001
0100
0010
1000
,  // measure 125
0100
0010
0100
1000
,  // measure 126
0000
1001
0000
1000
,  // measure 127
0100
1000
0000
0100
,  // measure 128
0010
0100
0000
0010
,  // measure 129
0001
0010
0000
0001
,  // measure 130
1000
1100
0000
0010
,  // measure 131
0001
0010
0000
0100
,  // measure 132
0010
0100
0000
1000
,  // measure 133
0010
0110
0000
0001
,  // measure 134
1000
0100
1000
0010
,  // measure 135
0100
0010
1000
0100
,  // measure 136
0000
0010
0001
0100
,  // measure 137
0010
1000
0100
1000
,  // measure 138
0010
0110
0000
0100
,  // measure 139
0001
0100
0001
1000
,  // measure 140
0100
1100
0000
0010
,  // measure 141
0001
0011
0000
0100
,  // measure 142
0010
0100
0001
0100
,  // measure 143
0010
0100
0001
0010
,  // measure 144
0100
1000
0001
0100
,  // measure 145
0001
1000
0100
0010
,  // measure 146
0001
1000
0100
1000
,  // measure 147
0010
0100
0001
1000
,  // measure 148
0010
0110
0000
0100
,  // measure 149
0001
1001
0000
1000
,  // measure 150
0100
1000
0100
0010
,  // measure 151
0001
0100
0010
1000
,  // measure 152
0100
0010
0001
0100
,  // measure 153
0010
0100
0001
1000
,  // measure 154
0001
1000
0100
0001
,  // measure 155
0100
1000
0010
0100
,  // measure 156
0001
1000
0010
0001
,  // measure 157
0010
1000
0001
0010
,  // measure 158
0100
1100
0000
0000
,  // measure 159
0000
2002
0000
0000
,  // measure 160
0000
0000
0000
0000
,  // measure 161
0000
3000
0000
0000
,  // measure 162
0000
0000
0000
0000
,  // measure 163
0000
0000
0000
0000
,  // measure 164
0000
0000
0003
0000
;

//---------------dance-single - ----------------
#NOTES:
     dance-single:
     :
     Hard:
     19:
     1.000,1.000,0.765,0.047,0.235: // measure 1
1100
0000
0010
0001
0000
1000
0010
0000
,  // measure 2
0100
0001
1000
0100
0001
0100
1000
0010
,  // measure 3
0100
0000
0001
0010
0000
0100
0010
0000
,  // measure 4
0001
0100
0010
0001
0010
0100
0001
1000
,  // measure 5
0001
0100
0001
0000
1000
0100
0000
0010
,  // measure 6
0100
0000
1000
0010
0001
0010
1000
0001
,  // measure 7
0100
0010
0001
0010
0100
0001
1000
0100
,  // measure 8
0010
0100
0010
0100
0010
0001
0010
0001
0010
0000
0000
0000
0000
0000
0000
0000
,  // measure 9
0001
0010
0100
1000
0000
0001
0100
0000
0010
1000
0100
0010
0000
0100
0010
0000
,  // measure 10
0001
1000
0100
0010
0000
0001
0100
0010
0100
0001
0010
0100
0000
0010
0001
0100
,  // measure 11
0010
1000
0100
0010
0000
0100
1000
0010
,  // measure 12
0100
0010
1000
0100
0000
0010
0001
1000
,  // measure 13
0001
0100
1000
0100
,  // measure 14
0001
0010
0100
0010
,  // measure 15
0001
1000
0001
1000
0100
0010
0100
0010
,  // measure 16
0001
0001
0010
0100
1000
0100
1001
0001
,  // measure 17
0100
0110
0000
0010
0100
1000
0010
0100
,  // measure 18
0001
0011
0000
0100
1000
0001
0100
0001
,  // measure 19
1000
1100
0000
0010
0001
0010
0100
0100
,  // measure 20
1000
1000
0010
0010
0100
0100
0010
1000
,  // measure 21
0001
0011
0000
0001
0010
0100
0010
0001
,  // measure 22
1000
1010
0000
0010
0100
0001
0010
1000
,  // measure 23
0010
0011
0000
0100
1000
0010
0100
0100
,  // measure 24
0001
0001
1000
1000
0100
0010
0101
0001
,  // measure 25
1000
1100
0000
0010
0001
0100
1000
0100
,  // measure 26
0001
0101
0000
0010
1000
0100
0001
0100
,  // measure 27
1000
1100
0000
0010
0001
1000
0010
0010
,  // measure 28
0100
0100
0001
0001
0010
0100
1001
0001
,  // measure 29
0100
0110
0000
0010
1000
0100
0011
0001
,  // measure 30
1000
1010
0000
0100
0001
0010
1100
1000
,  // measure 31
0010
0000
0010
0000
0100
0000
0100
0000
0001
0000
0001
0000
1000
0100
1000
0100
,  // measure 32
1000
0001
1000
0001
0100
0010
0100
0010
0100
0010
0100
0010
0200
0000
0001
0000
,  // measure 33
0001
0001
0301
0000
1001
0000
0000
0000
1000
0000
0000
0000
0100
0000
0000
0000
,  // measure 34
0001
0000
0100
0000
1000
0000
0001
0100
,  // measure 35
0001
0100
0001
0000
0010
0000
1000
0000
,  // measure 36
0010
0000
0001
0000
1000
0000
0100
1000
,  // measure 37
0100
1000
0100
0000
0001
0000
0100
0000
,  // measure 38
1000
0000
0001
0000
0100
0000
0010
0100
,  // measure 39
0010
0000
1000
0001
1000
0001
1000
0100
,  // measure 40
1000
0100
0010
0001
0010
0001
1000
0001
,  // measure 41
1000
0001
1000
0000
0100
0000
1000
0000
,  // measure 42
0010
0000
0001
0000
0010
0000
1000
0100
,  // measure 43
1000
0100
1000
0000
0001
0000
1000
0000
,  // measure 44
0010
0000
0001
0000
0010
0000
1000
0100
,  // measure 45
1000
0100
1000
0000
0001
0000
0010
0000
,  // measure 46
1000
0000
0010
0000
0001
0000
0100
0010
,  // measure 47
0100
0000
0001
1000
0001
1000
0010
1000
,  // measure 48
0010
1000
0001
0100
0001
0100
0010
0100
,  // measure 49
0010
0000
1001
0000
1000
0000
0100
0010
,  // measure 50
0001
0000
0001
0000
0100
0010
1000
0000
,  // measure 51
0000
0000
1001
0000
0001
0000
0010
0100
,  // measure 52
1000
0000
1000
0000
0010
0100
0001
0000
,  // measure 53
0000
0000
0011
0000
0100
0000
1000
0010
,  // measure 54
0100
0000
0100
0000
0001
0010
0100
0000
,  // measure 55
0000
0000
1100
0000
0010
0000
0001
0100
,  // measure 56
0010
0000
0010
0000
1000
0100
0010
0100
,  // measure 57
1000
0000
1001
0000
0001
0000
0100
0010
,  // measure 58
1000
0000
1000
0000
0100
0010
0001
0000
,  // measure 59
0000
0000
1001
0000
1000
0000
0100
0010
,  // measure 60
0001
0000
0001
0000
1000
0010
0100
0000
,  // measure 61
0000
1001
0001
0100
,  // measure 62
0100
0010
0010
1000
,  // measure 63
1000
0000
0001
0010
0001
0010
0001
1000
,  // measure 64
0001
1000
0100
0010
0100
0010
0001
0100
,  // measure 65
0001
0100
0002
0000
1000
0000
1000
1000
,  // measure 66
1003
0000
0000
0000
0000
0000
0000
0000
1100
0000
0000
0000
0110
0000
0000
0000
0011
0000
0000
0000
0110
0000
0000
0000
0100
1000
0000
0000
0100
1000
0000
0000
,  // measure 67
0001
0100
0000
0000
0001
0100
0000
0000
1010
0000
0000
0000
0110
0000
0000
0000
0101
0000
0000
0000
0110
0000
0000
0000
0010
1000
0000
0000
0010
1000
0000
0000
,  // measure 68
0100
0010
0000
0000
0100
0010
0000
0000
0011
0000
0000
0000
0110
0000
0000
0000
1100
0000
0000
0000
1001
0000
0000
0000
0001
0100
0000
0000
0001
0100
0000
0000
,  // measure 69
0001
1000
0000
0000
0001
1000
0000
0000
1100
0000
0000
0000
0110
0000
0000
0000
0011
0000
0000
0000
1100
0000
0000
0000
1000
0000
1000
0000
0010
0000
0010
0000
,  // measure 70
0100
0000
0100
0000
0001
1000
0001
0000
1001
0000
0000
0000
0110
0000
0000
0000
1010
0000
0000
0000
0101
0000
0000
0000
0100
0010
0000
0000
0010
1000
0000
0000
,  // measure 71
1000
0001
0000
0000
0001
0010
0000
0000
1100
0000
0000
0000
0110
0000
0000
0000
0011
0000
0000
0000
1001
0000
0000
0000
1000
0100
0000
0000
0100
0010
0000
0000
,  // measure 72
0010
0001
0000
0000
0001
0100
0000
0000
1010
0000
0000
0000
1001
0000
0000
0000
0101
0000
0000
0000
0110
0000
0000
0000
0010
0000
0010
0000
1000
0000
1000
0000
,  // measure 73
0001
0000
0001
0000
0010
0000
0010
0000
1100
0000
0100
0000
0110
0000
0010
0000
0011
0000
0001
0000
1001
0000
1000
0000
0100
1000
0100
1000
0010
0100
0010
0100
,  // measure 74
0001
0001
1000
1000
1001
0000
0000
0000
0101
0000
0110
0000
0000
0000
0110
0000
,  // measure 75
0101
0000
1001
0000
1010
0110
0000
0110
,  // measure 76
1010
0000
1001
0000
0011
0110
0000
0110
,  // measure 77
0011
0000
1001
0000
1100
0110
0000
0110
,  // measure 78
1100
0000
1001
0000
1010
0110
0000
0110
,  // measure 79
0101
0000
1001
0000
0011
0110
0000
0110
,  // measure 80
1100
0000
1001
0000
0101
0110
0000
0110
,  // measure 81
1010
0000
1001
0000
1100
0110
0000
0110
,  // measure 82
1100
0000
1002
0000
1000
0000
0000
0010
,  // measure 83
0000
1000
0000
0000
,  // measure 84
0003
2001
0000
0001
,  // measure 85
0000
0010
0010
0000
3010
0000
0000
0000
,  // measure 86
0100
0010
0100
0010
0100
0000
0000
0000
0000
0000
0000
0000
0011
0000
0000
0000
,  // measure 87
0000
1100
1100
1001
,  // measure 88
1001
0001
0010
1000
,  // measure 89
0010
0001
1000
0100
,  // measure 90
0010
0001
1000
0001
,  // measure 91
1000
0001
1000
0001
,  // measure 92
1000
0002
0000
0000
,  // measure 93
0000
0000
0000
0003
,  // measure 94
0000
1001
1000
0010
,  // measure 95
0001
0010
1000
0001
,  // measure 96
0010
0000
0001
0010
0001
0000
1000
0100
,  // measure 97
1000
0000
0001
1000
0001
0000
0100
0010
,  // measure 98
1000
0010
0100
0000
0010
0000
1000
0000
,  // measure 99
0001
0010
1000
0010
,  // measure 100
0001
0000
0010
0100
0010
0100
1000
0010
,  // measure 101
1000
0010
0100
0001
0100
0001
1000
0000
,  // measure 102
0000
1001
1000
0100
,  // measure 103
0001
0100
1000
0010
,  // measure 104
0100
0000
0010
1000
0010
0000
0100
0010
,  // measure 105
0100
0000
0001
0100
0001
0000
1000
0100
,  // measure 106
0010
0100
1000
0000
0010
0000
0100
0000
,  // measure 107
0010
1000
0100
0001
,  // measure 108
0100
0000
1000
0010
1000
0010
0100
0010
,  // measure 109
0100
0010
1000
0001
1000
0001
0010
0000
,  // measure 110
0000
1001
1000
0010
,  // measure 111
0001
0010
1000
0100
,  // measure 112
0010
0000
0100
1000
0100
0000
0010
0100
,  // measure 113
0010
0000
0001
0010
0001
0000
1000
0010
,  // measure 114
0100
0010
1000
0000
0001
0000
0010
0000
,  // measure 115
0001
1000
0100
0001
,  // measure 116
0100
0000
1000
0001
1000
0001
0010
0100
,  // measure 117
0010
0100
1000
0010
1000
0010
0100
0000
,  // measure 118
0000
1001
0001
0010
,  // measure 119
1000
0010
0001
1000
,  // measure 120
0100
0000
0010
0100
0010
0000
0001
0100
,  // measure 121
0001
0000
0100
0010
0100
0000
0001
0010
,  // measure 122
0100
0010
0001
0000
1000
0000
0010
0000
,  // measure 123
1000
0001
0100
1000
,  // measure 124
0100
0000
0001
1000
0001
1000
0100
0010
,  // measure 125
0100
0010
0001
0100
0001
0100
0010
0000
,  // measure 126
0000
0000
1001
0000
1000
0000
0100
0010
,  // measure 127
0001
0010
0100
0000
1000
0000
0010
0100
,  // measure 128
0001
0100
0010
0000
1000
0000
0100
1000
,  // measure 129
0100
1000
0001
0100
0001
0100
0010
1000
,  // measure 130
0001
0000
1001
0000
1000
0000
0010
1000
,  // measure 131
0001
1000
0010
0000
0100
0000
0001
0010
,  // measure 132
0100
0010
0001
0000
1000
0010
0100
0010
,  // measure 133
1000
0000
0001
0000
0100
0010
0001
0010
,  // measure 134
0100
0000
1001
0000
0001
0000
0100
0010
,  // measure 135
1000
0010
0100
0000
0001
0000
0010
0100
,  // measure 136
1000
0100
0010
0000
0100
0000
1000
0001
,  // measure 137
0100
0001
1000
0000
0100
0000
0010
0001
,  // measure 138
1000
0001
0010
0000
0100
0000
1000
0010
,  // measure 139
0100
0010
1000
0000
0100
0000
0010
0001
,  // measure 140
1000
0001
0010
0100
0010
0100
1000
0010
,  // measure 141
1000
0010
0100
0001
0010
0001
0010
0100
,  // measure 142
1000
0000
1001
0000
0001
0010
0001
0010
,  // measure 143
1000
0010
1000
0010
0001
0100
0001
0100
,  // measure 144
1000
0100
1000
0100
0001
0000
0010
0000
,  // measure 145
0100
1000
0010
1000
,  // measure 146
0001
0000
1000
0010
1000
0010
0001
0010
,  // measure 147
0001
0010
1000
0100
1000
0100
0001
0100
,  // measure 148
0001
0100
1000
0000
0001
0000
0010
0000
,  // measure 149
0100
0110
0010
0100
,  // measure 150
1000
0000
0001
0100
0001
0100
0010
1000
,  // measure 151
0010
1000
0100
0010
0100
0010
0001
0010
,  // measure 152
0100
0010
0001
0100
0001
0100
1000
0100
,  // measure 153
1000
0100
0001
0010
0001
0010
1000
0010
,  // measure 154
1000
0010
0001
0100
0010
1000
0001
0010
,  // measure 155
0001
0010
0100
1000
0001
0100
0010
1000
,  // measure 156
0001
0010
0001
1000
0001
1000
0100
0010
,  // measure 157
0100
0010
0001
0100
0001
0100
0010
1000
,  // measure 158
0100
0010
0001
0000
0000
0000
0000
0000
,  // measure 159
0000
0202
0000
0000
,  // measure 160
0000
0000
0000
0000
,  // measure 161
0000
0003
0000
0000
,  // measure 162
0000
0000
0000
0000
,  // measure 163
0000
0000
0000
0000
,  // measure 164
0000
0000
0300
0000
;

//---------------dance-single - ----------------
#NOTES:
     dance-single:
     :
     Challenge:
     20:
     1.000,1.000,0.671,0.208,0.621: // measure 1
1001
0000
0001
0100
0001
1000
0001
0100
,  // measure 2
0001
1000
0100
0001
0100
1000
1001
0001
,  // measure 3
1000
0100
1000
0001
1000
0100
1000
0001
,  // measure 4
0011
0010
0110
0100
1100
1000
1010
0010
,  // measure 5
0100
0001
0010
0001
1000
0010
1000
0001
,  // measure 6
1000
0010
0001
0010
0100
0001
1001
1000
,  // measure 7
1100
0100
0110
0010
0011
0001
0101
0100
,  // measure 8
0010
1000
0010
1000
0100
0010
0001
1000
0010
0000
0000
0000
0010
0000
0000
0000
,  // measure 9
1002
1000
0203
0010
0000
0310
1000
0100
0020
0001
0032
0100
0000
0103
0001
0010
,  // measure 10
0200
1000
2300
0010
0000
3010
0100
0001
0020
0100
0230
1000
0000
1300
0010
0100
,  // measure 11
1001
0001
0010
0100
1100
1000
0010
0100
,  // measure 12
0101
0001
1000
0100
0001
0100
1000
0001
,  // measure 13
0101
0100
0110
0010
,  // measure 14
1010
1000
1001
0001
,  // measure 15
0010
0100
1000
0100
0010
0001
0100
0001
,  // measure 16
0010
0010
0100
1000
0001
0100
0001
1000
,  // measure 17
0100
1000
0001
0000
0000
0000
1001
0000
0001
0000
0010
0000
0100
0000
0010
0000
,  // measure 18
0001
1000
0010
0000
0000
0000
1010
0000
1000
0000
0001
0000
0010
0000
0100
0000
,  // measure 19
0010
0001
0100
0000
0000
0000
0101
0000
0001
0000
1000
0000
1100
0000
0100
0000
,  // measure 20
0110
0010
0011
0001
0101
0100
0110
0010
,  // measure 21
1000
0100
0010
0000
0000
0000
0011
0000
0001
0000
1000
0000
0100
0000
0010
0000
,  // measure 22
0100
1000
0010
0000
0000
0000
0110
0000
0100
0000
0001
0000
0011
0000
0100
0000
,  // measure 23
1000
0001
0100
0000
0000
0000
0101
0000
0001
0000
0010
0000
1100
0000
1000
0000
,  // measure 24
1010
0010
0110
0100
0101
0001
1001
1000
,  // measure 25
0010
0100
0002
0000
0000
0000
0103
0001
1000
0000
0100
0000
0010
0000
0001
0000
,  // measure 26
1000
0010
0200
0000
0000
0000
0310
1000
0100
0000
0010
0000
0001
0000
1000
0000
,  // measure 27
0100
1000
0002
0000
0000
0000
0103
0001
0010
0000
0100
0000
1000
0010
1000
0000
,  // measure 28
0001
1000
0001
0000
0010
0001
0010
0000
0001
1000
0001
0000
0110
0000
0010
0000
,  // measure 29
0100
1000
0020
0000
0000
0000
0130
0001
0010
0000
0100
0000
1100
0000
1000
0000
,  // measure 30
0100
0010
0002
0000
0000
0000
1003
0100
0010
0000
0100
0000
1000
0010
1000
0000
,  // measure 31
0010
0100
0010
0000
0100
0001
0100
0000
0001
1000
0001
0000
0010
0001
0100
0010
,  // measure 32
1000
0100
0010
0001
0100
1000
0100
0001
0010
0100
1000
0010
0100
0100
0010
0010
,  // measure 33
1000
0000
0100
0000
0010
0100
0010
0000
1001
0000
0000
0000
0000
0000
0000
0000
1000
0000
0000
0000
0000
0000
0000
0000
0001
0000
0000
0000
0010
0000
0000
0000
,  // measure 34
0100
0000
1000
0000
0100
0000
0010
0001
,  // measure 35
1000
0001
0010
0000
1000
0000
0010
0100
,  // measure 36
0001
0000
0100
0000
0010
0000
1000
0001
,  // measure 37
0100
0001
1000
0000
0001
0000
0100
0000
,  // measure 38
0010
1000
0100
0000
0010
0000
0001
1000
,  // measure 39
0010
1000
0001
0010
0100
1000
0001
0100
,  // measure 40
1000
0100
0001
0010
0100
1000
0010
0001
,  // measure 41
0010
1000
0100
0000
0010
0000
0001
1000
,  // measure 42
0010
0000
1000
0000
0001
0000
0010
0100
,  // measure 43
1000
0100
0010
0000
0001
0000
0100
0000
,  // measure 44
0010
1000
0100
0000
0010
0000
0001
1000
,  // measure 45
0010
1000
0001
0000
0010
0000
0100
0010
,  // measure 46
0001
0000
0100
0000
0010
0000
1000
0010
,  // measure 47
0100
0010
1000
0100
0010
0001
1000
0010
,  // measure 48
0001
0010
1000
0001
0010
0100
0010
0001
,  // measure 49
0100
0000
1001
0000
1001
0000
1000
0010
,  // measure 50
0100
0000
0110
0000
0010
0100
0001
0000
,  // measure 51
0000
0000
1001
0000
1001
0000
0001
0010
,  // measure 52
0100
0000
0110
0000
0010
0100
1000
0000
,  // measure 53
0000
0000
1001
0000
1001
0000
1000
0100
,  // measure 54
0010
0000
0110
0000
0100
0010
0001
0000
,  // measure 55
0000
0000
1001
0000
1001
0000
0001
0100
,  // measure 56
0010
0000
0100
0010
1000
0100
0010
0001
,  // measure 57
0100
0000
0110
0000
0110
0000
0001
1000
,  // measure 58
0100
0000
1100
0000
0100
1000
0001
0000
,  // measure 59
0100
0000
0110
0000
0110
0000
0010
1000
,  // measure 60
0100
0000
1100
0000
0100
1000
0010
0000
,  // measure 61
0100
0000
0110
0000
0110
0000
0010
0100
,  // measure 62
0001
0000
0101
0000
0001
0100
0010
0000
,  // measure 63
0110
0000
0010
1000
0100
0010
0001
0100
,  // measure 64
1000
0100
0001
0010
0100
0010
0001
1000
,  // measure 65
0010
0100
0010
0010
0100
0100
0001
0001
,  // measure 66
1000
0000
0100
0000
1000
0000
0000
0000
1001
0000
0000
0001
0100
0000
0000
0100
0010
0000
0000
0010
0100
0000
0000
0000
0001
0100
0001
0000
0001
1000
0001
0000
,  // measure 67
0001
0100
0001
0000
0001
1000
0001
1000
0100
0000
0000
0100
0010
0000
0000
0010
0001
0000
0000
0001
1000
0000
0000
0000
0100
1000
0100
0000
0100
0010
0100
0000
,  // measure 68
0100
1000
0100
1000
0100
0010
0100
0000
1001
0000
0000
1000
0010
0000
0000
0010
0100
0000
0000
0100
0001
0000
0000
0000
0010
0001
0010
0000
0010
0100
0010
0000
,  // measure 69
0010
0001
0010
0000
0010
0100
0010
0100
1000
0000
0000
1000
0010
0000
0000
0010
0100
0000
0000
0100
0001
0000
0000
0000
1001
0000
1000
0000
1100
0000
0100
0000
,  // measure 70
0110
0001
0010
0001
0100
0010
0100
0010
1000
0000
0000
1000
0001
0000
0000
0001
0010
0000
0000
0010
0100
0000
0000
0000
1000
0010
1000
0000
1000
0001
1000
0000
,  // measure 71
1000
0010
1000
0010
0100
0001
0100
0001
1000
0000
0000
1000
0100
0000
0000
0100
0010
0000
0000
0010
0001
0000
0000
0000
0101
0000
0100
0000
0110
0000
0010
0000
,  // measure 72
1000
0010
1000
0010
0100
0001
0100
0001
1000
0000
0000
1000
0100
0000
0000
0100
0010
0000
0000
0010
0001
0000
0000
0000
1001
0000
1000
0000
1100
0000
0100
0000
,  // measure 73
0110
0000
0010
0000
0011
0000
0001
0000
1001
0000
1000
0000
1001
0000
0001
0000
0011
0000
0010
0000
0110
0000
0100
0000
1000
0100
0010
0100
1000
0010
0100
0001
,  // measure 74
0010
0000
0010
0000
0100
0010
0100
0000
1002
0000
0000
0000
0000
0000
0000
0000
0100
0000
0000
0000
0203
0000
0000
0000
0000
0000
0000
0000
0010
0000
0000
0000
,  // measure 75
0310
0000
1200
0000
0010
0320
0000
0001
,  // measure 76
0031
0000
2001
0000
0010
3020
0000
0100
,  // measure 77
0130
0000
0012
0000
1000
2003
0000
0100
,  // measure 78
3100
0000
0021
0000
0100
0230
0000
1000
,  // measure 79
1300
0000
1020
0000
0100
0230
0000
0001
,  // measure 80
0301
0000
2001
0000
0100
3200
0000
0010
,  // measure 81
0310
0000
1002
0000
0100
0203
0000
0010
,  // measure 82
0310
0000
1000
0001
0000
0100
0000
0001
,  // measure 83
0000
0100
0000
1000
0000
0100
0000
0001
,  // measure 84
0000
1000
0001
1000
0000
0100
0000
0010
,  // measure 85
0000
0001
0100
0001
0000
1000
0000
0001
,  // measure 86
0010
0001
1000
0001
0010
0000
0000
0000
0000
0000
0000
0000
0011
0000
0000
0000
,  // measure 87
0000
1100
0110
0011
,  // measure 88
1001
1100
1000
0010
,  // measure 89
0100
0101
0001
0010
,  // measure 90
0100
1000
0010
1000
,  // measure 91
0001
0010
0001
1000
,  // measure 92
0100
0010
0000
0010
,  // measure 93
0000
0001
1000
0010
,  // measure 94
0000
0101
0001
0010
,  // measure 95
0100
0000
1000
0010
0100
0000
0010
0100
,  // measure 96
0001
0000
1000
0100
0010
0000
0100
0010
,  // measure 97
0001
0000
0010
0100
0010
0000
0001
0100
,  // measure 98
1000
0100
0001
0000
1000
0000
0100
0000
,  // measure 99
1000
0000
0001
1000
0100
0000
0010
0001
,  // measure 100
1000
0000
0100
0010
0001
1000
0010
1000
,  // measure 101
0001
0000
0000
0100
0000
0000
1000
0000
0000
0100
0000
0000
0001
0000
0000
0010
0000
0000
0100
0000
1000
0000
0100
0000
,  // measure 102
1000
0100
1000
0100
0000
0000
0010
0000
0000
0001
0000
0000
,  // measure 103
1000
0000
0001
1000
0010
0000
0100
0001
,  // measure 104
1000
0000
0001
0010
0100
0000
0010
0100
,  // measure 105
1000
0000
0010
0100
0010
0000
1000
0100
,  // measure 106
0001
0100
1000
0000
0100
0000
1000
0000
,  // measure 107
0001
0000
0100
0001
0010
0000
0001
0010
,  // measure 108
0100
0000
1000
0010
0100
0001
1000
0100
,  // measure 109
1000
0000
0000
0010
0000
0000
0001
0000
0000
0010
0000
0000
1000
0000
0000
0100
0000
0000
0010
0000
0001
0000
0010
0000
,  // measure 110
0001
0010
0001
0010
0000
0000
0100
0000
0000
1000
0000
0000
,  // measure 111
0010
0000
1000
0001
0100
0000
0010
1000
,  // measure 112
0001
0000
1000
0100
0010
0000
0001
0010
,  // measure 113
0100
0000
0010
0100
0010
0000
0001
0100
,  // measure 114
1000
0100
0001
0000
0010
0000
0100
0000
,  // measure 115
1000
0000
0100
1000
0010
0000
0100
0001
,  // measure 116
0010
0000
0001
0010
0100
0010
0001
1000
,  // measure 117
0100
0000
0000
0001
0000
0000
0100
0000
0000
1000
0000
0000
0001
0000
0000
0100
0000
0000
0010
0000
1000
0000
0010
0000
,  // measure 118
1000
0010
1000
0010
0000
0000
1000
0000
0000
0100
0000
0000
,  // measure 119
0010
0000
0100
1000
0001
0000
0001
0010
,  // measure 120
0100
0000
0010
0001
1000
0000
1000
0010
,  // measure 121
1000
0000
0010
0100
0001
0000
1000
0010
,  // measure 122
0001
0010
1000
0000
0100
0000
0010
0000
,  // measure 123
0001
0000
0100
0001
1000
0000
1000
0100
,  // measure 124
0010
0000
0001
0100
0010
0100
0001
0010
,  // measure 125
1000
0000
0000
0010
0000
0000
0001
0000
0000
0010
0000
0000
0100
0000
0000
1000
0000
0000
0001
0000
0100
0000
0001
0000
,  // measure 126
0100
0000
0001
0000
0100
0000
0001
0000
0000
0000
0000
0000
1000
0000
0000
0000
0000
0000
0100
0000
0000
0010
0000
0000
,  // measure 127
0001
0010
0100
0000
0010
0000
0001
1000
,  // measure 128
0010
1000
0001
0000
0100
0000
0001
0100
,  // measure 129
1000
0100
0001
0010
0100
1000
0001
0100
,  // measure 130
0010
1000
0100
0000
0010
0000
0001
0100
,  // measure 131
0010
0100
0001
0000
0010
0000
0100
0010
,  // measure 132
0001
0010
0100
0000
1000
0010
0001
0010
,  // measure 133
1000
0100
0010
0001
1000
0010
0100
0010
,  // measure 134
1000
0000
1001
0000
0001
0000
0010
0100
,  // measure 135
1000
0100
0010
0000
0001
0000
1000
0010
,  // measure 136
0100
0010
1000
0000
0001
0000
1000
0010
,  // measure 137
0001
0010
1000
0100
0010
0001
1000
0010
,  // measure 138
0100
0010
1000
0000
0001
0000
0100
0001
,  // measure 139
1000
0001
0100
0000
0001
0000
1000
0100
,  // measure 140
0010
0100
1000
0010
0001
0010
1000
0100
,  // measure 141
0001
1000
0100
0010
1000
0100
1000
0001
,  // measure 142
0100
0000
0001
0010
0001
1000
0100
1000
,  // measure 143
0001
0100
1000
0100
0001
0010
1000
0010
,  // measure 144
0001
0010
0100
1000
0010
0000
1010
0000
,  // measure 145
1000
1001
0001
0011
,  // measure 146
0010
0000
0100
1000
0001
1000
0100
1000
,  // measure 147
0001
1000
0010
0001
0010
0100
0001
1000
,  // measure 148
0100
0010
0100
0000
1100
0000
1000
0000
,  // measure 149
1001
0101
0001
1001
,  // measure 150
1000
0010
1000
0001
0010
0001
1000
0100
,  // measure 151
0001
0100
1000
0001
0100
0001
1000
0010
,  // measure 152
0001
0010
0100
0001
1000
0001
1000
0100
,  // measure 153
0001
0100
1000
0100
0010
1000
0010
0001
,  // measure 154
1000
0100
0010
0001
1000
0001
0100
0001
,  // measure 155
1000
0100
0010
0001
1000
0010
1000
0001
,  // measure 156
0010
0100
0010
0100
0010
0100
1000
0010
1000
0010
0100
0001
,  // measure 157
0100
0001
0010
0100
0010
0100
1000
0100
0010
0001
0100
0010
,  // measure 158
0100
0001
1000
0100
0000
0000
0000
0000
0000
0000
0000
0000
,  // measure 159
0000
0220
0000
0000
,  // measure 160
0000
0000
0000
0000
,  // measure 161
0000
0300
0000
0000
,  // measure 162
0000
0000
0000
0000
,  // measure 163
0000
0000
0000
0000
,  // measure 164
0000
0000
0030
0000
;

//---------------dance-single - ----------------
#NOTES:
     dance-single:
     :
     Beginner:
     8:
     0.371,0.690,0.027,0.000,0.000: // measure 1
1000
0001
1000
0001
,  // measure 2
0100
0010
0100
0010
,  // measure 3
1000
0100
1000
0100
,  // measure 4
0010
0001
1000
0001
,  // measure 5
0100
0010
0100
0010
,  // measure 6
1000
0100
0010
0001
,  // measure 7
0010
0100
1000
0001
,  // measure 8
0100
0010
0100
0010
0100
0000
0000
0000
,  // measure 9
1001
0000
0000
0000
,  // measure 10
0001
0100
0010
0100
,  // measure 11
0001
0000
0001
0000
,  // measure 12
1000
0001
1000
0001
,  // measure 13
1000
0000
0010
0000
,  // measure 14
1000
0000
0010
0000
,  // measure 15
0100
0000
0001
0000
,  // measure 16
1000
0000
0000
1001
,  // measure 17
0001
1000
0001
1000
,  // measure 18
0100
1000
0100
0010
,  // measure 19
0100
0010
0100
0010
,  // measure 20
0001
0100
0010
1000
,  // measure 21
0100
1000
0100
0010
,  // measure 22
0100
0010
0100
0010
,  // measure 23
0001
0010
0001
0100
,  // measure 24
0010
1000
0001
0100
,  // measure 25
0010
0100
0010
1000
,  // measure 26
0010
1000
0010
0100
,  // measure 27
0001
0100
0001
0010
,  // measure 28
0100
1000
0001
0100
,  // measure 29
0010
0100
0010
1000
,  // measure 30
0001
1000
0001
0100
,  // measure 31
0010
0000
1000
0000
0010
0000
0100
0010
,  // measure 32
0100
0000
0001
1000
0001
0000
1000
0000
,  // measure 33
0000
0001
0000
1000
,  // measure 34
0000
0001
0000
1000
,  // measure 35
0000
0100
0000
1000
,  // measure 36
0000
0100
0000
1000
,  // measure 37
0000
0010
0000
0100
,  // measure 38
0000
0010
0000
0100
,  // measure 39
0000
0001
0000
1000
,  // measure 40
0000
0100
0000
0010
,  // measure 41
0000
0001
0000
1000
,  // measure 42
0000
0001
0000
1000
,  // measure 43
0000
0100
0000
1000
,  // measure 44
0000
0100
0000
1000
,  // measure 45
0000
0010
0000
0100
,  // measure 46
0000
0010
0000
0100
,  // measure 47
0000
0001
0000
0010
,  // measure 48
0000
0100
0000
1000
,  // measure 49
0000
0001
0000
1000
,  // measure 50
0001
0000
0000
0000
,  // measure 51
0000
1000
0000
0001
,  // measure 52
1000
0000
0000
0000
,  // measure 53
0000
0001
0000
1000
,  // measure 54
0001
0000
0000
0000
,  // measure 55
0000
1000
0000
0100
,  // measure 56
0000
0010
0000
0001
,  // measure 57
0000
1000
0000
0001
,  // measure 58
1000
0000
0000
0000
,  // measure 59
0000
0001
0000
1000
,  // measure 60
0001
0000
0000
0000
,  // measure 61
0000
1000
0000
0001
,  // measure 62
0000
1000
0000
0001
,  // measure 63
0000
0100
0000
0010
,  // measure 64
0000
1000
0000
0100
,  // measure 65
0000
0010
0000
0000
,  // measure 66
0000
0000
0001
0000
1000
0000
0100
1000
,  // measure 67
0100
0000
0010
0000
0001
0000
0100
0010
,  // measure 68
0100
0000
0001
0000
0100
0000
0010
0100
,  // measure 69
0010
0000
1000
0000
0100
0000
0010
0100
,  // measure 70
0010
0100
0010
0000
0001
0000
0100
0010
,  // measure 71
0100
0000
0010
0000
1000
0000
0100
1000
,  // measure 72
0100
0000
0010
0000
0001
0000
0100
0010
,  // measure 73
0100
0010
1000
0010
1000
0010
1000
0001
,  // measure 74
1000
0001
0010
0100
,  // measure 75
1000
0001
0010
0100
,  // measure 76
1000
0001
0010
0100
,  // measure 77
1000
0001
0010
0100
,  // measure 78
1000
0001
0100
0010
,  // measure 79
1000
0001
0100
0010
,  // measure 80
1000
0001
0100
0010
,  // measure 81
1000
0001
0100
0010
,  // measure 82
1000
0001
0000
0000
,  // measure 83
0000
0000
0000
0000
,  // measure 84
0000
0001
0000
0000
,  // measure 85
0000
0000
0000
0000
,  // measure 86
0000
1001
0000
1000
,  // measure 87
0000
0001
1000
0001
,  // measure 88
1000
0100
0000
1000
,  // measure 89
0000
0100
0000
1000
,  // measure 90
0000
0010
0000
0000
,  // measure 91
0000
0000
0000
0000
,  // measure 92
0000
0000
0000
0000
,  // measure 93
0000
0000
0000
0000
,  // measure 94
0000
0100
0000
0001
,  // measure 95
0000
0100
0000
0001
,  // measure 96
0000
1000
0000
0100
,  // measure 97
0000
1000
0000
0100
,  // measure 98
0000
0010
0000
0001
,  // measure 99
0000
0010
0000
0001
,  // measure 100
0000
0100
0000
0100
,  // measure 101
0000
0010
0000
0010
,  // measure 102
0000
1000
0000
0010
,  // measure 103
0000
1000
0000
0010
,  // measure 104
0000
1000
0000
0001
,  // measure 105
0000
1000
0000
0001
,  // measure 106
0000
0100
0000
0010
,  // measure 107
0000
0100
0000
0010
,  // measure 108
0000
1000
0000
1000
,  // measure 109
0000
0001
0000
0001
,  // measure 110
0000
0010
0000
0100
,  // measure 111
0000
0010
0000
0100
,  // measure 112
0000
1000
0000
0100
,  // measure 113
0000
1000
0000
0100
,  // measure 114
0000
0010
0000
0100
,  // measure 115
0000
0010
0000
0100
,  // measure 116
0000
0010
0000
0010
,  // measure 117
0000
0001
0000
0001
,  // measure 118
0000
0100
0000
0010
,  // measure 119
0000
0100
0000
0010
,  // measure 120
0000
1000
0000
0010
,  // measure 121
0000
1000
0000
0010
,  // measure 122
0000
1000
0000
0001
,  // measure 123
0000
1000
0000
0001
,  // measure 124
0000
0010
0000
0100
,  // measure 125
0000
1000
0000
0001
,  // measure 126
0000
0100
0000
0000
,  // measure 127
0000
0001
0000
0000
,  // measure 128
0000
1000
0000
0000
,  // measure 129
0000
0100
0000
0000
,  // measure 130
0000
0010
0000
0000
,  // measure 131
0000
0001
0000
0000
,  // measure 132
0000
1000
0000
0001
,  // measure 133
0000
1000
0000
0000
,  // measure 134
0000
0100
0000
0000
,  // measure 135
0000
1000
0000
0000
,  // measure 136
0000
0010
0000
0000
,  // measure 137
0000
0100
0000
0000
,  // measure 138
0000
0001
0000
0000
,  // measure 139
0000
1000
0000
0000
,  // measure 140
0000
0001
0000
1000
,  // measure 141
0000
0001
0000
0000
,  // measure 142
0000
1000
0000
0100
,  // measure 143
0000
1000
0000
0100
,  // measure 144
0000
0010
0000
0000
,  // measure 145
0000
0010
0000
0000
,  // measure 146
0000
0001
0000
0100
,  // measure 147
0000
0001
0000
0100
,  // measure 148
0000
0010
0000
0000
,  // measure 149
0000
0010
0000
0000
,  // measure 150
0000
1000
0000
0001
,  // measure 151
0000
1000
0000
0001
,  // measure 152
0000
1000
0000
0100
,  // measure 153
0000
1000
0000
0100
,  // measure 154
0000
0010
0000
0001
,  // measure 155
0000
0010
0000
0001
,  // measure 156
0000
0100
0010
0100
,  // measure 157
0010
0100
0010
0100
,  // measure 158
0010
0100
0000
0000
,  // measure 159
0000
1001
0000
0000
;
