#TITLE:待宵草;
#SUBTITLE:;
#ARTIST:CULTVOICE by S.S.D.PRODUCTS;
#TITLETRANSLIT:MATSUYOIGUSA;
#SUBTITLETRANSLIT:;
#ARTISTTRANSLIT:;
#CREDIT:DigiMindAxel;
#BANNER:MATSUYOIGUSA.png;
#BACKGROUND:MATSUYOIGUSA-bg.png;
#LYRICSPATH:MATSUYOIGUSA.lrc;
#CDTITLE:REFLEC BEAT.png;
#MUSIC:MATSUYOIGUSA.ogg;
#METERTYPE:DDR X;
#OFFSET:-14.192;
#SAMPLESTART:53.900;
#SAMPLELENGTH:12.000;
#SELECTABLE:YES;
#BPMS:0.000=160.000;
#STOPS:104.000=1.875
;
#BGCHANGES:;

//---------------dance-single - ----------------
#NOTES:
     dance-single:
     :
     Easy:
     5:
     0.240,0.237,0.018,0.080,0.000:
1001
0000
0001
1000
,
0100
0000
1000
0100
,
0010
0001
1000
1000
,
1000
0000
0000
0000
,
0001
0000
0100
0000
,
0010
0100
0010
0100
,
0001
1000
0001
1000
,
0001
0000
0000
0000
,
1000
0001
0010
0100
,
1000
0001
0010
0100
,
1000
0001
0010
0100
,
1000
0010
0100
0001
,
1000
0001
0010
0100
,
1000
0001
0010
0100
,
1000
0001
0010
0100
,
1000
0001
0100
0001
,
2000
0000
3100
0000
,
0010
0001
0100
0000
,
0020
0000
0130
0000
,
0001
1000
0100
0000
,
0020
0000
0031
0000
,
0100
0010
1000
0000
,
0100
0010
0001
0000
,
0010
0100
1000
0001
,
0200
0000
0000
0000
,
0000
0000
0000
0000
,
0300
0000
0000
1001
,
0001
1000
0100
1000
,
0001
0100
0010
0100
,
0000
0001
0000
1000
,
0000
0010
0000
0100
,
0001
1000
0100
1000
,
0001
0010
0100
1000
,
0000
0010
0100
0001
,
0000
1000
0000
0001
,
0010
0100
0010
0001
,
0100
0010
0000
0100
,
0010
1000
0100
0010
,
0100
1000
0000
0001
,
1000
0100
1000
0001
,
0100
0010
0100
0001
,
0000
1000
0000
0100
,
0000
0010
0000
0002
,
0000
0000
0000
0000
,
0000
0003
0000
1000
,
0001
0100
0010
1000
,
0001
0100
0010
1000
,
0001
0100
0010
1000
,
0100
0010
0100
1000
,
0001
0100
0010
1000
,
0001
0100
0010
1000
,
0001
0100
0010
1000
,
0100
0010
0100
2000
,
0000
3100
0000
0010
,
0001
0010
0000
0002
,
0000
1003
0000
0001
,
0100
0001
0000
0200
,
0000
0310
0000
1000
,
0100
1000
0000
0002
,
0000
1003
0001
0000
;

//---------------dance-single - ----------------
#NOTES:
     dance-single:
     :
     Medium:
     7:
     0.347,0.343,0.035,0.133,0.000:
1000
0000
0000
0001
1000
0100
0010
0000
,
1001
0000
0000
1000
0100
0010
0001
0000
,
0010
0000
0100
1000
0100
0000
0010
0000
,
0001
0000
0000
0000
0000
0000
0000
1000
,
0001
0000
0000
0100
0001
0000
0000
1000
,
0010
0100
0001
1000
,
0001
0010
0100
1000
,
0002
0000
0000
1000
1003
0000
0000
0000
,
0001
0000
1000
0100
0010
0000
0001
0000
,
0001
0000
1000
0100
0010
0000
0001
0000
,
0001
0000
1000
0100
0010
0000
0001
0000
,
0001
0100
0010
0000
1000
0100
1000
0000
,
0001
0000
0010
0100
1000
0000
0001
0000
,
0001
0000
0010
0100
1000
0000
0001
0000
,
0001
0000
0010
0100
1000
0000
0001
0000
,
0001
0000
0010
0100
0010
0000
0100
1000
,
0100
0000
0000
1000
0100
0000
0010
0100
,
0000
1000
0010
0100
,
0001
0000
0000
0100
0001
0000
0010
0100
,
0000
0000
0000
0000
1000
0000
0001
0100
,
0000
0000
0000
0000
0001
0000
1000
0100
,
0000
0000
0010
0000
0001
0000
0010
0100
,
0020
0000
0032
0000
,
2003
0000
3002
0000
,
0203
0000
0000
0000
,
0000
0000
0000
0000
,
0300
0001
1000
0100
1000
0000
1001
0000
,
0001
0100
0001
0000
0100
0000
0010
0000
,
1000
0100
0010
0000
0001
0000
1000
0100
,
1000
0000
0100
1000
0100
0000
1000
0100
,
1000
0000
0100
1000
0100
0000
1000
0000
,
1001
0000
0001
0100
0001
0000
1000
0000
,
0100
0000
0010
0100
1000
0000
0001
0000
,
1001
0000
1000
0000
0010
0100
0001
0100
,
0010
0000
1000
0001
0000
0000
1000
0001
,
0010
0100
1000
0000
0100
0000
0010
0000
,
0001
0000
1000
0000
0000
0000
0001
1000
,
0100
0010
0001
0000
0010
0000
0100
0000
,
1000
0000
0001
1000
0000
0000
0001
0100
,
0001
0000
1000
0100
0010
0000
0100
0000
,
1000
0100
0010
0002
,
0000
0203
0000
0320
,
0000
2030
0000
0002
,
0000
0000
0000
0000
,
0000
0000
3003
0000
0000
0000
1000
0001
,
0100
0000
0001
1000
0001
0000
1000
0001
,
0100
0000
0001
1000
0001
0000
1000
0001
,
0100
0000
0001
1000
0001
0000
0010
0100
,
1000
0000
0001
1000
0001
0000
0010
0100
,
1000
0000
0001
1000
0001
0000
0010
0100
,
1000
0000
0001
1000
0001
0000
0100
0010
,
1000
0000
0001
1000
0001
0000
0100
0000
,
0001
1000
0100
0000
0010
0000
0002
0000
,
0000
1000
1003
0000
0000
0000
0000
0001
,
0010
0001
0000
0000
1000
0000
0020
0000
,
0000
0100
0130
0000
0000
0000
0000
0001
,
1000
0001
0000
0000
0010
0000
0002
0000
,
0000
1000
1003
0000
0000
0000
0000
0001
,
0100
0001
0000
0000
1000
0000
0020
0000
,
0000
0100
0130
0000
0001
1000
0000
0000
;

//---------------dance-single - ----------------
#NOTES:
     dance-single:
     :
     Hard:
     9:
     0.480,0.449,0.071,0.310,0.058: // measure 1
1000
0000
0000
1000
0001
0010
0100
1000
,  // measure 2
0001
0000
0000
1000
0001
0010
0100
1000
,  // measure 3
0002
0000
1003
0010
0001
0000
0010
0000
,  // measure 4
2000
0000
0000
0000
3000
0000
0000
0001
,  // measure 5
0200
0000
0000
0310
2000
0000
0000
3100
,  // measure 6
0010
0000
0001
0100
0010
0000
0110
0000
,  // measure 7
2001
3200
0302
0203
,  // measure 8
2300
0000
0000
0001
3001
0000
1001
0000
,  // measure 9
1000
0001
0100
0001
1000
1000
0100
0100
,  // measure 10
0000
0010
0001
1000
0010
0010
0100
0100
,  // measure 11
0000
0001
1000
0100
0010
0010
0001
0001
,  // measure 12
1000
0100
0001
0100
1000
0001
0100
0000
,  // measure 13
0000
0001
1000
0001
0010
0010
0100
0100
,  // measure 14
0000
1000
0001
0100
0010
0010
0100
0100
,  // measure 15
0000
0001
1000
0100
0010
0010
0100
0100
,  // measure 16
1000
0001
0010
1000
0010
0001
1000
0010
,  // measure 17
1000
0000
0001
1000
0100
0000
0010
0001
,  // measure 18
1000
0002
0203
0320
,  // measure 19
1030
0100
0010
0100
1000
0000
0001
1000
,  // measure 20
0001
0000
0010
0000
0200
0000
0310
0001
,  // measure 21
1000
0000
1000
0000
0020
0000
0130
0001
,  // measure 22
0010
0000
0200
0000
2300
0000
3100
0010
,  // measure 23
0002
0000
0000
0100
0100
0000
0000
1000
,  // measure 24
1000
0000
0000
0100
0100
0000
0000
1000
,  // measure 25
2003
0000
0000
0000
,  // measure 26
0200
0000
0000
0000
,  // measure 27
3300
1000
1000
0001
0001
1000
0100
0001
,  // measure 28
0100
1000
0001
0100
0001
1000
0000
0001
,  // measure 29
0010
1000
0010
0001
0100
0010
2000
0000
,  // measure 30
3100
0010
0002
0000
0013
0100
2000
0000
,  // measure 31
3100
0010
0002
0000
1003
0001
0010
0000
,  // measure 32
1001
0000
0001
1000
0100
1000
0001
0000
,  // measure 33
0010
0000
0100
0010
0001
1000
0010
0000
,  // measure 34
1001
0000
1000
0001
0010
0100
1000
0010
,  // measure 35
0001
0010
1000
0001
0000
0000
0010
1000
,  // measure 36
0010
0001
1000
0000
0100
0010
0001
0000
,  // measure 37
1001
0000
0001
1000
0010
0000
1000
0010
,  // measure 38
0001
0010
1000
0000
0100
0010
0001
0100
,  // measure 39
0001
1000
0001
1001
0000
0000
1000
0100
,  // measure 40
0001
0100
1000
0001
0010
0100
0010
0000
,  // measure 41
0002
0203
0320
2030
,  // measure 42
0000
3002
0000
0203
,  // measure 43
0000
0320
0000
0200
,  // measure 44
0000
0000
0000
0000
,  // measure 45
0000
0000
0000
0000
0330
0000
0000
0000
0000
0000
0000
0000
0001
0000
1000
0100
,  // measure 46
1000
0000
0001
0000
0100
0000
0100
0000
0010
0000
0010
0000
0000
0000
1000
0001
,  // measure 47
1000
0000
0100
0000
0010
0000
0010
0000
0001
0000
0001
0000
0000
0000
0010
0100
,  // measure 48
0010
0001
0100
0100
0010
0010
0000
1000
,  // measure 49
0010
0000
0001
0000
0010
0000
1000
0000
0100
0000
0010
0000
0000
0000
0001
1000
,  // measure 50
0001
0000
0010
0000
0100
0000
0100
0000
1000
0000
1000
0000
0000
0000
0001
1000
,  // measure 51
0001
0000
0100
0000
0010
0000
0010
0000
1000
0000
1000
0000
0000
0000
0100
0010
,  // measure 52
0100
1000
0001
0001
0100
0100
0000
0001
,  // measure 53
1000
0000
0010
0000
0001
0000
0010
0000
1000
0000
0001
0000
0100
0001
0200
0000
,  // measure 54
0000
0001
0301
0000
0000
0000
0000
1000
,  // measure 55
0001
0000
0010
0000
0000
0000
0001
0010
0001
0000
0000
0000
0010
0001
0020
0000
,  // measure 56
0000
0100
0130
0000
0000
0000
0000
1000
,  // measure 57
0010
0000
0100
0000
0000
0000
0010
0100
0010
0000
0000
0000
1000
0001
2000
0000
,  // measure 58
0000
0100
3100
0000
0000
0000
0000
0010
,  // measure 59
0001
0000
1000
0000
0000
0000
0001
1000
0001
0000
0000
0000
0010
0100
0020
0000
,  // measure 60
0000
0001
0031
0000
0000
1001
0000
0000
;

//---------------dance-single - ----------------
#NOTES:
     dance-single:
     :
     Challenge:
     12:
     0.611,0.555,0.097,0.213,0.323: // measure 1
1001
0000
0000
0000
0000
0000
1000
0010
1000
0000
0100
0000
0001
0000
0100
0000
,  // measure 2
1000
0000
0000
0000
0000
0000
0001
0100
0001
0000
0010
0000
1000
0000
0010
0000
,  // measure 3
0001
0000
0010
0100
1000
0000
1001
0000
,  // measure 4
0102
0000
0000
0000
0000
0000
1003
0001
1000
0000
0010
0000
0010
0000
0100
0000
,  // measure 5
0001
0000
0010
0100
1000
0000
0100
0010
,  // measure 6
0001
0000
0100
0010
1000
0010
0100
0000
,  // measure 7
0102
2003
3200
0320
,  // measure 8
0032
0000
0000
0000
0000
0000
1003
0100
1000
0000
0000
0000
1000
0000
0000
0000
,  // measure 9
0001
0000
1000
0100
1000
0000
0001
1000
0001
0000
0010
0000
0100
0000
1000
0000
,  // measure 10
0000
0000
0001
0100
0001
0000
1000
0001
1000
0000
0100
0000
0010
0000
0001
0000
,  // measure 11
0000
0000
0100
0001
0100
0000
0010
0100
0010
0000
1000
0000
0100
0000
0010
0000
,  // measure 12
0000
0000
0001
0000
0100
0000
0010
1000
0010
0000
1000
0001
1000
0000
0001
0000
,  // measure 13
0000
0000
0010
0001
0010
0000
0100
0010
0100
0000
1000
0000
0001
0000
0100
0000
,  // measure 14
0000
0000
0010
0100
0010
0000
1000
0010
1000
0000
0001
0000
0010
0000
0100
0000
,  // measure 15
0000
0000
1000
0001
1000
0000
0001
0010
0001
0000
1000
0000
0010
0000
0100
0000
,  // measure 16
0000
0000
0010
0000
1000
0000
0001
0010
0001
0000
0010
0000
0100
0000
1000
0000
,  // measure 17
0001
1000
0001
0000
0000
0000
0010
0100
1000
0000
0001
0000
0100
0000
1000
0000
,  // measure 18
0100
0102
2003
3200
,  // measure 19
1300
0001
1000
0000
0000
0000
0100
0010
0001
0000
1000
0000
0010
0000
0001
0000
,  // measure 20
0010
0000
1000
0010
1000
0001
0010
0100
,  // measure 21
1000
0001
1000
0000
0000
0000
0010
0100
0001
0000
1000
0000
0100
0000
0010
0000
,  // measure 22
0001
1000
0001
0000
0000
0000
0100
0010
1000
0000
0001
0000
0100
0000
0010
0000
,  // measure 23
1000
0001
1000
0000
0000
0000
0010
0100
0002
0000
0000
0000
1003
0000
0001
0010
,  // measure 24
0200
0000
0000
0000
0310
0000
0001
0100
0020
0000
0000
0000
1030
0000
0001
0010
,  // measure 25
0200
0000
0000
0000
,  // measure 26
2000
0000
0000
0000
,  // measure 27
3300
0000
1000
0001
0100
0000
0010
0100
0010
0000
0100
0000
0001
1000
0001
0000
,  // measure 28
1000
0000
1000
0000
0001
0000
0010
0000
1000
0000
0010
0000
0001
1000
0010
0000
,  // measure 29
1000
0000
0001
0000
0010
0100
1000
0000
0100
0000
0010
0000
0002
0000
0000
0000
,  // measure 30
1003
0000
0001
0100
0020
0000
0000
0000
1030
0000
0001
0010
0200
0000
0000
0000
,  // measure 31
0310
0000
0001
1000
0020
0000
0000
0000
0130
0000
0010
0000
1000
0001
1000
0000
,  // measure 32
1001
0000
0001
0100
1000
0100
0001
1000
,  // measure 33
0001
0000
0000
0000
1000
0000
0100
0000
0001
0000
0100
0000
1000
0001
1000
0000
,  // measure 34
1001
0000
0001
0010
1000
0010
0001
1000
,  // measure 35
0010
0000
0100
0001
0010
0000
0200
0000
0000
0000
0000
0000
1300
0001
1000
0000
,  // measure 36
0001
0000
0001
0000
1000
0000
0100
0000
0001
0000
0100
0000
1000
0010
0100
0000
,  // measure 37
0010
0000
1000
0000
0001
0000
0010
0100
0010
0000
0000
0000
0001
1000
0001
0000
,  // measure 38
1000
0000
1000
0000
0100
0010
0001
0000
1000
0000
0010
0000
0100
0010
0100
0000
,  // measure 39
0001
0000
0010
0000
0100
0000
1001
0000
0000
0000
0000
0000
1000
0001
1000
0000
,  // measure 40
0001
0000
0001
0000
0100
0010
1000
0000
0001
0000
0100
0000
1000
0000
0100
0000
,  // measure 41
0101
0000
0100
0010
1010
0000
2000
0000
,  // measure 42
0000
3200
0000
0320
,  // measure 43
0000
0032
0000
2000
,  // measure 44
0000
0000
0000
0000
,  // measure 45
3003
0000
0000
0000
1000
0000
1000
0000
0001
1000
0001
0000
1000
0000
0010
0100
,  // measure 46
0010
0000
1000
0001
0010
0000
0100
0000
0010
0000
0001
0000
0000
0000
1000
0100
,  // measure 47
1000
0000
0001
0100
0010
0000
1000
0000
0001
0000
0010
0000
0000
0000
0100
1000
,  // measure 48
0100
0000
0010
0001
1000
0000
0010
0000
0100
0000
0001
0000
0000
0000
1000
0010
,  // measure 49
1000
0000
0010
0100
0010
0000
0100
0001
0100
0000
0001
0000
0000
0000
0010
0100
,  // measure 50
0010
0000
0001
0100
0010
0000
1000
0000
0001
0000
0010
0000
0000
0000
0100
0010
,  // measure 51
0100
0000
1000
0001
0100
0000
0010
0000
1000
0000
0100
0000
0000
0000
0010
0001
,  // measure 52
0010
0000
0100
0010
0001
0000
1000
0000
0010
0000
0100
0000
0000
0000
0001
0000
,  // measure 53
0010
0000
0100
0010
0001
0000
1000
0000
0010
0000
1000
0000
0001
1000
0001
0000
,  // measure 54
1000
0100
0010
0001
1000
1000
0000
0001
,  // measure 55
0001
0000
0010
0000
0100
0000
1000
0000
0001
0000
0100
0000
0001
1000
0001
0000
,  // measure 56
0010
0100
1000
0001
0100
0100
0000
0001
,  // measure 57
0001
0000
1000
0000
0010
0000
0100
0001
0010
0000
0100
0000
1000
0001
1000
0000
,  // measure 58
0010
0100
0001
1000
0100
0100
0000
0010
,  // measure 59
0010
0000
0100
0000
1000
0000
0010
0000
0100
0000
0100
0000
0001
1000
0001
0000
,  // measure 60
1000
0100
0010
0001
1000
1001
0000
0000
;

//---------------dance-single - ----------------
#NOTES:
     dance-single:
     :
     Beginner:
     1:
     0.073,0.104,0.009,0.000,0.000:
0001
0000
0000
0000
,
0001
0000
0000
0000
,
1000
0000
0000
0000
,
1000
0000
0000
0000
,
0100
0000
0000
0000
,
0100
0000
0000
0000
,
0010
0000
0000
0000
,
0010
0000
0000
0000
,
0001
0000
0000
0000
,
0100
0000
0000
0000
,
0010
0000
0000
0000
,
1000
0000
0001
0000
,
1000
0000
0000
0000
,
0100
0000
0000
0000
,
0010
0000
0000
0000
,
0001
0000
1000
0000
,
0100
0000
0000
0000
,
0100
0000
0000
0000
,
0010
0000
0000
0000
,
0010
0000
0000
0000
,
0001
0000
0000
0000
,
0001
0000
0000
0000
,
0100
0000
0000
0000
,
0100
0000
0000
0000
,
0010
0000
0000
0000
,
0000
0000
0000
0000
,
0000
0000
0000
1001
,
0000
0000
0000
1000
,
0000
0000
0000
0100
,
0000
0000
0000
1000
,
0000
0000
0000
0001
,
0000
0000
0000
0100
,
0000
0000
0000
0001
,
0000
0000
0000
1000
,
0000
0000
0000
0100
,
0000
0100
0000
0100
,
0000
0000
0000
0010
,
0000
0010
0000
0010
,
0000
0000
0000
0001
,
0000
0001
0000
0001
,
0000
0000
0000
1000
,
0000
0000
0000
0000
,
0000
0000
0000
0000
,
0000
0000
0000
0000
,
0000
0000
0000
0010
,
0000
0000
0000
1000
,
0000
0000
0000
0001
,
0000
0000
0000
0010
,
0000
0000
0000
0100
,
0000
0000
0000
0010
,
0000
0000
0000
0100
,
0000
0000
0000
1000
,
0000
0000
0000
0001
,
0000
0000
0000
0000
,
0000
0000
0000
0001
,
0000
0000
0000
0000
,
0000
0000
0000
1000
,
0000
0000
0000
0000
,
0000
0000
0000
1000
;
