#TITLE:MAN, IT'S SO LOUD IN HERE;
#SUBTITLE:;
#ARTIST:they might be giants;
#TITLETRANSLIT:;
#SUBTITLETRANSLIT:;
#ARTISTTRANSLIT:;
#CREDIT:DigiMindAxel;
#BANNER:MAN, IT'S SO LOUD IN HERE.png;
#BACKGROUND:MAN, IT'S SO LOUD IN HERE-bg.png;
#LYRICSPATH:MAN, IT'S SO LOUD IN HERE.lrc;
#CDTITLE:DigiMindAxel original simfile.png;
#MUSIC:MAN, IT'S SO LOUD IN HERE.ogg;
#METERTYPE:DDR X;
#OFFSET:-7.555;
#SAMPLESTART:37.387;
#SAMPLELENGTH:12.000;
#SELECTABLE:YES;
#BPMS:0.000=144.900;
#STOPS:;
#BGCHANGES:;

//---------------dance-single - ----------------
#NOTES:
     dance-single:
     :
     Easy:
     4:
     0.211,0.216,0.051,0.122,0.000:
2000
0000
0100
0000
,
3100
0000
0010
0000
,
0002
0000
0100
0000
,
0103
0000
0010
0000
,
1000
0000
0001
0000
,
1000
0000
0010
0000
,
1000
0000
0010
0000
,
0100
0000
0001
0000
,
0100
0000
0001
0000
,
2000
0000
0001
0000
,
3002
0000
0100
0000
,
0203
0000
0010
0000
,
0320
0000
1000
0000
,
2030
0000
0001
0000
,
3002
0000
0010
0000
,
0023
0000
0100
0000
,
0130
0000
0100
0000
,
1001
0000
0000
0000
,
1001
0000
0010
0000
,
0100
0000
1000
0000
,
0001
1000
0001
0000
,
0010
0000
0100
0000
,
0010
0001
0010
0000
,
0100
0010
0100
0000
,
1000
0100
1000
0000
,
0001
0000
0100
0000
,
0010
1000
0010
0000
,
1000
0001
1000
0000
,
0100
1000
0100
0000
,
0010
0100
0010
0000
,
0001
0000
0100
0000
,
0010
0000
1000
0000
,
0001
1000
0001
0000
,
1000
0001
0010
0000
,
0100
1000
0010
0000
,
0100
0010
0100
0000
,
0001
1000
0001
0000
,
0010
0100
1000
0000
,
0001
0010
0100
0000
,
1000
0001
1000
0000
,
0020
0000
1000
0000
,
1000
0000
1000
0000
,
1030
0001
0010
0000
,
0100
1000
0010
0000
,
0200
0000
0001
0000
,
0001
0000
0001
0000
,
0301
1000
0100
0000
,
0010
0001
0100
0000
,
0020
0000
0100
0000
,
0100
0000
0100
0000
,
0130
0001
0010
0000
,
0001
0010
0100
0000
,
1001
0000
0110
0000
,
1001
0000
0000
0000
;

//---------------dance-single - ----------------
#NOTES:
     dance-single:
     :
     Medium:
     7:
     0.367,0.406,0.051,0.092,0.000:
1000
0001
1000
0001
,
0100
0010
0100
0010
,
1000
0100
1000
0100
,
0010
0001
0010
0001
,
0100
0010
0100
0001
,
1000
0100
1000
0010
,
1000
0100
1000
0010
,
0100
0001
0010
0100
,
0010
0001
0010
0100
,
1000
0001
1000
0000
0100
0000
0010
0000
,
0100
1000
0100
0000
0010
0000
0001
0000
,
0100
0010
0100
0000
0001
0000
1000
0000
,
0010
1000
0010
0000
1000
0000
0001
0000
,
0010
0001
0010
0000
0100
0000
1000
0000
,
0010
0100
0010
0000
0100
0010
0100
0000
,
0001
1000
0001
0000
1000
0100
1000
0000
,
0001
1000
0001
0000
0010
0001
0010
0000
,
1001
1001
0110
0110
,
0100
1000
0100
0000
0010
0100
0010
0000
,
0001
0010
0001
0000
0100
0010
0100
0000
,
0001
1000
0001
0000
1000
0100
1000
0000
,
0010
0100
0010
0000
1000
0100
1000
0000
,
0001
1000
0002
0000
0000
0000
0100
0000
,
0100
0000
0000
0100
0000
0000
0100
0000
,
0103
0001
0010
0100
,
1000
0001
1000
0000
0001
1000
0001
0000
,
0100
0001
0100
0000
0010
0100
0010
0000
,
1000
0010
1000
0000
0001
1000
0001
0000
,
0010
0001
0010
0000
0100
0010
0100
0000
,
1000
0100
1000
0000
0001
1000
0001
0000
,
1000
0001
2000
0000
0000
0000
0100
0100
,
0000
0000
0100
0100
0000
0000
0100
0000
,
3100
0000
0000
1000
0000
0010
0100
0000
,
0001
0000
0000
0001
0000
0100
0010
0000
,
1000
0100
1000
0000
0001
0100
0001
0000
,
0100
0010
0100
0000
0001
1000
0001
0000
,
1000
0100
1000
0000
0001
0010
0001
0000
,
0100
0010
0100
0000
0001
0010
0001
0000
,
1000
0001
2000
0000
0000
0000
0100
0000
,
0100
0000
0000
0100
0000
0000
3100
0000
,
0010
0002
0000
0100
,
0100
0000
0000
0100
0000
0000
0100
0000
,
0103
0020
0000
0100
,
0100
0000
0000
0100
0000
0000
0100
0000
,
0130
0002
0000
1000
,
1000
0000
0000
1000
0000
0000
1000
0000
,
1003
0020
0000
1000
,
1000
0000
0000
1000
0000
0000
1000
0000
,
1030
0002
0000
0010
,
0010
0000
0000
0010
0000
0000
0010
0000
,
0013
0200
0000
0010
,
0010
0000
0000
0010
0000
0000
0010
0000
,
0310
1000
0100
0000
0010
0001
0100
0000
,
1001
0000
0000
0000
;

//---------------dance-single - ----------------
#NOTES:
     dance-single:
     :
     Hard:
     10:
     0.504,0.487,0.163,0.194,0.082: // measure 1
1000
0001
1000
0000
0100
0000
0010
0000
,  // measure 2
0001
0100
0010
0000
0100
0000
0001
0000
,  // measure 3
1000
0100
1000
0000
0100
0000
0010
0000
,  // measure 4
0100
1000
0010
0000
1000
0000
0001
0000
,  // measure 5
0010
0001
0010
0000
0100
0000
1000
0000
,  // measure 6
0010
1000
0000
0001
0000
0001
0000
0010
,  // measure 7
0100
1000
0000
0010
0000
0010
0000
1000
,  // measure 8
0001
0010
0000
0100
0000
0100
0000
1000
,  // measure 9
0001
0100
0000
0001
0000
0001
0000
1000
,  // measure 10
0100
0010
0100
0000
1000
0010
0100
0000
,  // measure 11
0001
0100
0001
0000
0010
0100
1000
0000
,  // measure 12
0001
1000
0001
0000
0010
0001
0100
0000
,  // measure 13
0010
0100
0010
0000
1000
0001
0010
0000
,  // measure 14
0100
0010
0100
0000
1000
0010
0100
0000
,  // measure 15
0001
1000
0000
0100
0000
0100
0000
0010
,  // measure 16
0001
0100
0000
0010
0000
0010
0000
1000
,  // measure 17
0001
0010
0000
0100
0000
0100
0000
1000
,  // measure 18
0010
0100
0000
0010
0100
0000
0010
0100
0010
0000
0010
0000
1000
0001
1000
0001
,  // measure 19
1000
0100
0010
0100
1000
0001
1000
0001
,  // measure 20
0100
0001
0010
0000
0001
1000
0010
1000
,  // measure 21
0001
0000
1002
0000
0000
0013
0100
1000
,  // measure 22
0001
0100
0001
0000
0010
0000
1000
0000
,  // measure 23
0100
0000
1002
0000
0000
0000
0103
0001
,  // measure 24
0010
0100
1000
0002
0000
0000
0103
0001
,  // measure 25
0010
0000
0100
0000
2000
0000
0000
0001
0000
0000
0001
0000
0000
0000
3001
0000
,  // measure 26
0000
0000
0010
0000
0200
0000
0000
0010
0000
0000
0010
0000
0000
0000
0310
0000
,  // measure 27
1000
0001
0100
0001
0010
0000
0001
0010
,  // measure 28
0100
0010
0001
0100
0010
1000
0100
0020
,  // measure 29
0000
0000
0100
0230
0000
0000
1300
0001
,  // measure 30
1000
0010
0100
0010
1000
0000
0010
0000
,  // measure 31
0100
0000
0210
0000
0000
0000
0301
1000
,  // measure 32
0100
0010
0001
2000
0000
0000
3010
0000
,  // measure 33
1002
0000
0000
1003
0010
0100
0101
0000
,  // measure 34
1001
0000
0000
0000
0001
0000
0010
0000
0100
0000
1000
0000
0010
0000
0100
0010
,  // measure 35
0100
0001
0010
0100
0010
0001
0100
0010
,  // measure 36
1000
0100
0010
0000
0100
1000
0100
1000
,  // measure 37
0010
0100
0002
0000
0000
1003
0010
1000
,  // measure 38
0001
0010
0100
0000
1000
0000
0010
0000
,  // measure 39
0001
0000
2100
0000
0000
0000
3001
1000
,  // measure 40
0100
0001
0100
2000
0000
0000
3010
0000
,  // measure 41
0101
0000
1002
0000
0000
0000
0013
0100
,  // measure 42
1000
0000
0100
0000
0010
0000
0001
0000
0000
0000
0001
0000
0100
0000
0010
0100
,  // measure 43
0010
0000
0021
0000
0000
0000
0031
1000
,  // measure 44
0010
0001
0010
1000
0000
1000
0100
0010
,  // measure 45
0100
0000
1020
0000
0000
0000
0130
0001
,  // measure 46
0010
1000
0010
0001
0000
0001
1000
0000
,  // measure 47
1100
0000
0120
0000
0000
0000
0031
1000
,  // measure 48
0100
0001
0100
1000
0000
1000
0010
0000
,  // measure 49
0110
0000
0102
0000
0000
0000
1003
0001
,  // measure 50
0010
0000
1000
0000
0010
0000
0001
0000
0000
0000
0001
0000
1000
0000
0010
0100
,  // measure 51
0010
0000
0120
0000
0000
0000
1030
0001
,  // measure 52
0100
1000
0100
0001
0000
0001
1000
0010
,  // measure 53
0100
0010
0100
0010
0100
0000
0001
0100
0001
0100
0001
0000
1000
0001
1000
0001
,  // measure 54
1000
0000
0000
0000
;

//---------------dance-double - ----------------
#NOTES:
     dance-double:
     :
     Easy:
     5:
     0.222,0.216,0.082,0.235,0.000:
20000000
00000000
00010000
00000000
,
30010000
00000000
01000000
00000000
,
00002000
00000000
00100000
00000000
,
00103000
00000000
00001000
00000000
,
00010000
00000000
00000100
00000000
,
00000010
00000000
00000100
00000000
,
00000010
00000000
00000001
00000000
,
00001000
00000000
00000001
00000000
,
00001000
00000000
00000010
00000000
,
00020000
00000000
00001000
00000000
,
00230000
00000000
00010000
00000000
,
00320000
00000000
10000000
00000000
,
20030000
00000000
01000000
00000000
,
32000000
00000000
00100000
00000000
,
03200000
00000000
00001000
00000000
,
00302000
00000000
00010000
00000000
,
00013000
00000000
00001000
00000000
,
00011000
00000000
00000000
00000000
,
00000110
00000000
00000010
00000100
,
00000010
00000000
00001000
00000001
,
00002000
00000000
00003002
00000000
,
00020003
00000000
00031000
00000000
,
00000000
01200000
00000000
00000000
,
10300000
00010000
10000000
00000000
,
01000000
00100000
01000000
00000000
,
00100000
00000000
00010000
00000000
,
00001000
00010000
00001000
00000000
,
00010000
00000010
00010000
00000000
,
00000020
00000000
00000230
00000000
,
00000320
00000000
00000130
00000000
,
00000000
00001002
00000000
00000000
,
00001003
00000000
00000100
00000000
,
00010000
00001000
00010000
00000000
,
00001000
00100000
01000000
00000000
,
10000000
00010000
10000000
00000000
,
00010000
01000000
00010000
00000000
,
01000000
00100000
02000000
00000000
,
03020000
00000000
10030000
00000000
,
00000000
10002000
00000000
00000000
,
00013000
00001000
00010000
00000000
,
00000020
00000000
00000100
00000000
,
00000100
00000000
00000100
00000000
,
00000130
00000001
00001000
00000000
,
00000100
00010000
00001000
00000000
,
00200000
00000000
01000000
00000000
,
01000000
00000000
01000000
00000000
,
01300000
10000000
00010000
00000000
,
01000000
00001000
00010000
00000000
,
00000020
00000000
00000100
00000000
,
00000100
00000000
00000100
00000000
,
00000130
00000001
00000010
00000000
,
00000100
00010000
00001000
00000000
,
00011000
00000000
01100000
00000000
,
10010000
00000000
00000000
00000000
;

//---------------dance-double - ----------------
#NOTES:
     dance-double:
     :
     Medium:
     7:
     0.344,0.352,0.041,0.122,0.000:
10000000
01000000
10000000
01000000
,
10000000
00010000
10000000
00010000
,
01000000
00001000
01000000
00001000
,
00010000
00000100
00010000
00000100
,
00001000
00000001
00001000
00000001
,
00000010
00000010
00000100
00000100
,
00000010
00000010
00000100
00000100
,
00010000
00001000
00010000
00001000
,
00010000
00001000
00010000
00001000
,
01000000
00100000
01000000
00000000
00010000
00000000
10000000
00000000
,
00001000
01000000
00001000
00000000
00010000
00000000
00000100
00000000
,
00000010
00000001
00000010
00000000
00000001
00000000
00001000
00000000
,
00000010
00001000
00000010
00000000
00001000
00000000
00010000
00000000
,
01000000
00100000
01000000
00000000
00010000
00000000
10000000
00000000
,
01000000
10000000
01000000
00000000
10000000
00010000
10000000
00000000
,
01000000
10000000
01000000
00000000
00100000
01000000
00100000
00000000
,
00001000
01000000
00001000
00000000
00100000
01000000
00100000
00000000
,
01001000
00000000
00001000
00000000
00001000
00001000
00001000
00000000
,
00010000
00001000
00010000
00000000
00000100
00000010
00000100
00000000
,
00010000
00001000
00010000
00000000
00000010
00000100
00000010
00000000
,
00001000
00000000
00000002
00000000
00000000
00001000
00000000
00000000
,
00000000
00001003
00000001
00000100
,
00000010
00012000
00000000
00010000
,
00010000
00000000
00000000
00010000
00000000
00000000
00010000
00000000
,
00013000
00100000
01000000
10000000
,
01000000
00100000
01000000
00000000
00100000
01000000
00100000
00000000
,
00010000
00100000
00010000
00000000
10000000
00010000
10000000
00000000
,
01000000
10000000
01000000
00000000
00100000
01000000
00100000
00000000
,
00001000
00000000
00010000
00002000
00000000
00000000
00010000
00000000
,
00000000
00013000
00000010
00000100
,
00000001
00000000
00002001
00000000
00000000
00000000
00000100
00000100
,
00000000
00000000
00000100
00000100
00000000
00000000
00000100
00000000
,
00003100
00000000
00000000
00010000
00000000
00001000
01000000
00000000
,
01000000
00000000
00000000
00100000
00000000
00100000
10000000
00000000
,
01000000
00100000
01000000
00000000
00100000
00010000
00100000
00000000
,
00001000
00010000
00001000
00000000
00010000
00000010
00010000
00000000
,
00000010
00000000
00000200
00000000
00000000
00000010
00000000
00000000
,
00000000
00000000
00000310
00000000
00000000
00001000
00000100
00000000
,
00010000
02001000
00000000
00100000
,
00100000
00000000
00000000
00100000
00000000
00000000
03100000
00000000
,
10000000
00020000
00000000
00100000
,
00100000
00000000
00000000
00100000
00000000
00000000
00100000
00000000
,
00130000
00002000
00000000
00010000
,
00010000
00000000
00000000
00010000
00000000
00000000
00010000
00000000
,
00013000
00000020
00000000
00000100
,
00000100
00000000
00000000
00000100
00000000
00000000
00000100
00000000
,
00000130
00000002
00000000
00000010
,
00000010
00000000
00000000
00000010
00000000
00000000
00000010
00000000
,
00000013
00000200
00000000
00000010
,
00000010
00000000
00000000
00000010
00000000
00000000
00000010
00000000
,
00000310
00020000
00000000
00000010
,
00000010
00000000
00000000
00000010
00000000
00000000
00000010
00000000
,
00030010
00000100
00000010
00000000
00010000
00001000
00100000
01000000
,
00100000
00000000
00000000
00000000
;

//---------------dance-double - ----------------
#NOTES:
     dance-double:
     :
     Hard:
     10:
     0.474,0.487,0.153,0.337,0.071:
10200000
00000000
00000000
01000000
,
01300000
00010000
00100000
00001000
,
00020000
00000000
00001000
00001000
,
00031000
00010000
00000100
00000010
,
00000001
00001000
00000001
00000000
00000100
00000000
00000001
00000000
,
00000100
00000010
00000000
00010000
00000000
00010000
00000000
00001000
,
00100000
01000000
00000000
10000000
00000000
10000000
00000000
01000000
,
00100000
00001000
00000000
00010000
00000000
00010000
00000000
00000100
,
00000010
00000001
00000000
00000100
00000000
00000100
00000000
00000010
,
00010000
00000100
00010000
00000000
00001000
01000000
00100000
00000000
,
20000000
00000000
00010000
00000000
30010000
10000000
01000000
00000000
,
00100000
01000000
00100000
00000000
00001000
00100000
00001000
00000000
,
00010000
00000100
00000010
00000000
00000001
00000200
00000000
00000010
,
00000000
00000000
00000000
00000010
00000000
00000000
00000310
00000000
,
00010000
00001000
00000000
00100000
00000000
00100000
00000000
01000000
,
10000000
00010000
00000000
01000000
00000000
01000000
00000000
00001000
,
00010000
00000010
00000000
00000100
00000000
00000100
00000000
00000001
,
00000010
00000100
00000000
00000010
00000100
00000000
00000010
00000100
00000010
00000000
00000010
00000000
00000001
00001000
00000001
00001000
,
00000001
00000010
00000001
00000010
00000100
00010000
00001000
00100000
,
01000000
00100000
00010000
00000000
10000000
01000000
00100000
00001000
,
00010000
00000000
00002000
00000000
00000000
00013000
00000100
00000010
,
00000001
00001000
00000001
00000000
00000010
00000000
00000100
00000000
,
00010000
00000000
00012000
00000000
00000000
00000000
00103000
01000000
,
10000000
01000000
00100000
00002000
00000000
00000000
00013000
00000010
,
00000100
00000010
00010000
00000000
00000100
00000000
00000001
00000000
,
00000100
00010000
00001000
00100000
,
01000000
10000000
01000000
10000000
00100000
01000000
00010000
00001000
,
00000010
00000100
00000010
00000100
00000001
00000000
00001000
00000200
,
00000000
00000000
00010000
00020300
00000000
00000000
00031000
01000000
,
00001000
00100000
01000000
10000000
,
00001000
00000000
00021000
00000000
00000000
00000000
00030100
00000010
,
00000001
00000010
00000100
00020000
00000000
00000000
00031000
00000000
,
01200000
00000000
00000000
01300000
10000000
00001000
00101000
00000000
,
00000110
00000000
00000000
00000000
00000100
00000000
00000010
00000000
00000001
00000000
00000100
00000000
00000010
00000000
00010000
00001000
,
00010000
00001000
00010000
00001000
01000000
00100000
10000000
01000000
,
00100000
01000000
10000000
00000000
00001000
00010000
00100000
01000000
,
10000000
00001000
00020000
00000000
00000000
00031000
00000100
00000010
,
00000100
00001000
00000010
00000000
00000100
00000000
00000001
00000000
,
00000010
00000000
00021000
00000000
00000000
00000000
00031000
01000000
,
00100000
01000000
00001000
02000000
00000000
00000000
03100000
00000000
,
10000000
00000000
01002000
00000000
00000000
00000000
00013000
00000100
,
00000020
00000000
00000000
00000000
00000000
00000000
00000032
00000000
00000000
00000000
00000000
00000000
00001003
00000000
00000001
00000100
,
00000001
00000000
00020100
00000000
00000000
00000000
00031000
00100000
,
02000000
00000000
00000000
23000000
00000000
00000000
30010000
10000000
,
00010000
00000000
00102000
00000000
00000000
00000000
00013000
00000100
,
00000020
00000000
00000000
00000230
00000000
00000000
00010300
00000000
,
00011000
00000000
02001000
00000000
00000000
00000000
03100000
01000000
,
00020000
00000000
00000000
02030000
00000000
00000000
03100000
00000000
,
01001000
00000000
00012000
00000000
00000000
00000000
00013000
00000001
,
00000020
00000000
00000000
00000000
00000000
00000000
00000230
00000000
00000000
00000000
00000000
00000000
00010300
00000000
00001000
00010000
,
00001000
00000000
02100000
00000000
00000000
00000000
03100000
10000000
,
02000000
00000000
00000000
03200000
00000000
00000000
00301000
00010000
,
00000010
00010000
00000010
00010000
00000010
00000000
00000100
00000010
00000100
00000010
00000100
00000000
00010000
00001000
00010000
00001000
,
00010000
00000000
00000000
00000000
;

//---------------dance-single - ----------------
#NOTES:
     dance-single:
     :
     Beginner:
     1:
     0.077,0.108,0.020,0.000,0.000:
1000
0000
0000
0000
,
0000
0000
0000
0000
,
0100
0000
0000
0000
,
0000
0000
0000
0000
,
0010
0000
0000
0000
,
0100
0000
0000
0000
,
1000
0000
0000
0000
,
0100
0000
0000
0000
,
0000
0000
0000
0000
,
1000
0000
0000
0000
,
0001
0000
0000
0000
,
0100
0000
0000
0000
,
0010
0000
0000
0000
,
0100
0000
0000
0000
,
0001
0000
0000
0000
,
0001
0000
0000
0000
,
1000
0000
0000
0000
,
0000
0000
0000
0000
,
1001
0000
0000
0000
,
0010
0000
0000
0000
,
0100
0000
0000
0000
,
1000
0000
0000
0000
,
0001
1000
0000
0000
,
1000
0000
0000
0000
,
1000
0000
0000
0000
,
0000
0000
0000
0000
,
0010
0000
0000
0000
,
0100
0000
0000
0000
,
0001
0000
0000
0000
,
0100
0000
0000
0000
,
0010
1000
0000
0000
,
1000
0000
0000
0000
,
1000
0000
0000
0000
,
0000
0000
0000
0000
,
0010
0000
0000
0000
,
0100
0000
0000
0000
,
0001
0000
0000
0000
,
0100
0000
0000
0000
,
0010
1000
0000
0000
,
1000
0000
0000
0000
,
1000
0000
0000
0000
,
0001
0000
0000
0000
,
0001
0000
0000
0000
,
0100
0000
0000
0000
,
0100
0000
0000
0000
,
0010
0000
0000
0000
,
0010
0000
0000
0000
,
1000
0000
0000
0000
,
1000
0000
0000
0000
,
0001
0000
0000
0000
,
0001
0000
0000
0000
,
0010
0000
0000
0000
,
1001
0000
0000
0000
,
1000
0000
0000
0000
;
