#TITLE:Lover Reef;
#SUBTITLE:;
#ARTIST:D-Lux, Geoffrey Taucer, Jillian Aversa, Shonen Samurai, zircon;
#TITLETRANSLIT:;
#SUBTITLETRANSLIT:;
#ARTISTTRANSLIT:;
#CREDIT:DigiMindAxel;
#BANNER:Lover Reef.png;
#BACKGROUND:Lover Reef-bg.png;
#LYRICSPATH:Lover Reef.lrc;
#CDTITLE:DigiMindAxel original simfile.png;
#MUSIC:Lover Reef.ogg;
#METERTYPE:DDR X;
#OFFSET:-8.056;
#SAMPLESTART:55.600;
#SAMPLELENGTH:12.000;
#SELECTABLE:YES;
#BPMS:0.000=120.000;
#STOPS:;
#BGCHANGES:;

//---------------dance-single - ----------------
#NOTES:
     dance-single:
     :
     Easy:
     3:
     0.199,0.225,0.053,0.243,0.000:
2000
0000
0000
0000
,
3002
0000
0203
0000
,
0302
0000
0000
0000
,
2003
0000
3200
0000
,
2300
0000
0000
0000
,
3020
0000
0230
0000
,
0320
0000
0000
0000
,
0230
0000
0302
0000
,
2003
0000
0000
3001
,
0200
0000
0000
0310
,
2000
0000
0000
3100
,
0020
0000
0000
0130
,
1001
0001
1000
0000
,
0100
0010
0001
0000
,
0100
0010
0100
0000
,
0001
0010
0100
0000
,
1000
0001
0100
0000
,
0001
0010
0100
0000
,
0010
0001
0010
0000
,
0001
1000
0010
0000
,
0100
0010
0100
0000
,
0001
1000
0100
0000
,
0010
0100
0010
0000
,
0001
0100
0010
1000
,
1002
0000
0000
0103
,
0010
1000
0010
0000
,
1000
0001
0010
0100
,
1000
1000
0001
0001
,
0200
0000
0310
0000
,
2000
0000
3100
0000
,
0010
0001
0100
0000
,
0001
0010
0100
0000
,
1001
0000
0100
0010
,
1000
1000
0001
0001
,
1001
0000
0010
0100
,
1000
1000
0001
0000
,
0100
0001
1000
0100
,
0020
0000
0000
0030
,
0001
0100
0010
1000
,
0200
0000
0000
0300
,
2002
0000
0000
0000
,
0000
0000
0000
0000
,
0000
0000
3003
0000
;

//---------------dance-single - ----------------
#NOTES:
     dance-single:
     :
     Medium:
     6:
     0.258,0.270,0.053,0.190,0.000: // measure 1
1000
0000
1000
0000
,  // measure 2
0001
0000
0001
0000
,  // measure 3
0010
0000
0010
0000
,  // measure 4
0100
0000
0100
0000
,  // measure 5
2000
0000
0000
0000
,  // measure 6
3020
0000
0230
0000
,  // measure 7
0320
0000
0000
0000
,  // measure 8
2030
0000
3002
0000
,  // measure 9
0013
0000
0000
0010
0000
0000
0100
0000
,  // measure 10
1000
0000
0000
1000
0000
0000
0010
0000
,  // measure 11
0100
0000
0000
0100
0000
0000
0001
0000
,  // measure 12
0010
0000
0000
0010
0000
0000
0100
0000
,  // measure 13
1000
0001
0000
1000
0100
0000
0010
0000
,  // measure 14
0002
0000
0000
0100
0000
0000
0103
0000
,  // measure 15
0010
0100
0000
0001
0100
0000
0010
0000
,  // measure 16
2000
0000
0000
0100
0000
0000
3100
0000
,  // measure 17
0020
0000
0000
0001
0000
0000
0031
0100
,  // measure 18
0010
0000
0000
1000
0000
0000
0010
0000
,  // measure 19
0200
0000
0000
0001
0000
0000
0301
0010
,  // measure 20
0100
0000
0000
1000
0000
0010
0100
0000
,  // measure 21
0002
0000
0000
0010
0000
0000
0013
0000
,  // measure 22
0100
0000
1000
0010
0000
0100
0010
0000
,  // measure 23
2000
0000
0000
0001
0000
0000
3001
0000
,  // measure 24
0100
0000
1010
0000
1000
0100
0010
0000
,  // measure 25
1002
0000
0000
0100
0000
0000
0103
0000
,  // measure 26
0010
1000
0010
0100
0000
0000
0001
1000
,  // measure 27
0002
0103
0020
0130
,  // measure 28
0002
1000
0100
1003
,  // measure 29
0001
0000
0100
0010
0000
1000
0100
0000
,  // measure 30
0010
0001
0100
0010
0000
0000
1000
0000
,  // measure 31
0100
0010
0001
1000
0000
0000
0001
0000
,  // measure 32
0010
0100
1000
0001
0000
0000
1000
0000
,  // measure 33
0100
1000
0000
0100
0010
0000
0001
0100
,  // measure 34
0001
0000
0000
1000
0000
0000
1100
0000
,  // measure 35
0010
0001
0000
0010
0100
0000
1000
0010
,  // measure 36
0100
0000
0000
0001
0000
0000
0101
0000
,  // measure 37
0100
0010
0000
1000
0100
0000
0010
0001
,  // measure 38
0100
0000
0000
0100
0000
0000
0100
0000
,  // measure 39
0001
0010
0100
0000
1000
0010
0100
0000
,  // measure 40
0001
0000
0000
0001
0000
0100
0001
0000
,  // measure 41
2002
0000
0000
0000
,  // measure 42
0000
0000
0000
0000
,  // measure 43
0000
0000
3003
0000
;

//---------------dance-single - ----------------
#NOTES:
     dance-single:
     :
     Hard:
     9:
     0.449,0.427,0.011,0.148,0.360:
1000
0000
0001
1000
0001
0000
0000
0000
1000
0000
1000
0000
0000
0000
0000
0000
,
0010
0000
0100
0010
0100
0000
0000
0000
0010
0000
0010
0000
0000
0000
0100
0000
,
0001
0000
1000
0001
1000
0000
0000
0000
0001
0000
0001
0000
0000
0000
0000
0000
,
0010
0000
0100
0010
0100
0000
0000
0000
0010
0000
0010
0000
0000
0000
0001
0000
,
0200
0000
0000
0000
0001
0000
0000
0001
0000
0001
0000
0000
0001
0000
0000
0000
,
0320
0100
0230
1000
,
2300
0000
0000
0000
0010
0000
0000
0010
0000
0010
0000
0000
0010
0000
0000
0000
,
3002
0010
0023
0100
,
0130
0000
0000
1000
0000
0000
0010
0000
0000
0010
0100
0010
0100
0000
0000
0000
,
0001
0000
0000
1000
0000
0000
0001
0000
0000
0001
0100
0001
0100
0000
0000
0000
,
0010
0000
0000
1000
0000
0000
0100
0000
0000
0100
0010
0100
0010
0000
0000
0000
,
0001
0000
0000
0100
0000
0000
0001
0000
0000
0001
1000
0001
1000
0000
0001
0000
,
1000
0000
0010
1000
0000
0000
0001
0000
0010
0000
1000
0000
0010
0000
0001
0000
,
0100
0000
0000
0010
0000
0000
1000
0000
0000
0001
0000
0000
0010
0001
0000
0000
,
0100
0000
0010
1000
0000
0000
0001
0000
0100
0000
1000
0000
0100
0000
0001
0000
,
0010
0000
0000
0100
0000
0000
0010
0000
0000
0000
0001
0000
0100
0010
0000
0000
,
1000
0000
0010
1000
0000
0000
0001
0000
0010
0000
1000
0000
0010
0000
0001
0000
,
1000
0000
0000
0100
0000
0000
0010
0000
0000
0001
0000
0000
1000
0010
0000
0000
,
0100
0000
0001
0010
0000
0000
0001
0000
0100
0000
1000
0000
0100
0000
0001
0000
,
0010
0000
0100
0010
0000
0000
0001
0000
0000
0000
0100
0000
0010
1000
0000
0000
,
0100
0000
0010
0001
0000
0000
1000
0000
0010
0000
0001
0000
0010
0000
1000
0000
,
0001
0000
1000
0100
0000
0000
0010
0000
0001
0100
0000
0000
0100
0010
0000
0000
,
1000
0000
0001
0100
0000
0000
0001
0000
0010
0000
1000
0000
0010
0000
0001
0000
,
1000
0000
0010
1000
0000
0000
0100
0000
0010
0001
0000
0000
0001
1000
0001
1000
,
0010
0010
0100
0001
0000
0001
1000
0010
,
0001
0010
0100
0001
0000
1000
0010
0100
,
0001
0000
1000
0000
0100
0000
0001
0000
1000
0000
0000
0010
0000
0000
0001
0000
,
2000
0000
0000
0010
0000
0000
3010
0000
0200
0000
0000
0000
0301
0000
1000
0100
,
1000
0010
0100
0001
0000
0001
1000
0100
,
0010
0000
0100
1000
0000
0100
2000
0000
0000
0000
0000
0000
3001
0000
1000
0000
,
0010
0000
0100
0001
0000
0100
0002
0000
0000
0000
0000
0000
1003
0000
0000
0000
,
0001
0000
0100
0010
0000
0100
0010
0000
1000
0010
0000
0000
0100
0000
0001
0010
,
0001
0000
0100
0010
0000
0000
0100
0000
0001
0000
0010
0000
1000
0000
0010
0000
,
0001
0000
0100
0010
0000
0000
0100
0000
0001
0010
0000
0000
0001
1000
0000
0000
,
0100
0000
0010
0001
0000
0000
0100
0000
0001
0000
0010
0000
1000
0000
0010
0000
,
0001
0000
0100
0010
0000
0000
0100
0000
0000
0000
0001
0000
0010
0100
0000
0000
,
1000
0000
0010
0100
0000
0000
0010
0000
1000
0000
0100
0000
0001
0000
0100
0000
,
2000
0000
0000
0010
0000
0000
0010
0000
0000
0010
0000
0000
3010
0100
0000
0000
,
0001
0000
0010
0001
0000
0000
0100
0000
0001
0000
0010
0000
1000
0000
0010
0000
,
0002
0000
0000
0100
0000
0000
0103
0000
0000
0000
0100
0000
0010
1000
0000
0000
,
2002
0000
0000
0000
,
0000
0000
0000
0000
,
0000
0000
3003
0000
;

//---------------dance-single - ----------------
#NOTES:
     dance-single:
     :
     Beginner:
     1:
     0.071,0.106,0.021,0.000,0.000:
0000
0000
0000
0000
,
0000
0000
0000
0000
,
0000
0000
0000
0000
,
0000
0000
0000
0000
,
1000
0000
0000
0000
,
0010
0000
0100
0000
,
0010
0000
0000
0000
,
1000
0000
0001
0000
,
1000
0000
0000
0000
,
0100
0000
0000
0000
,
0010
0000
0000
0000
,
0001
0000
0000
0000
,
1000
0000
0010
0000
,
0100
0000
0000
0000
,
0010
0000
0100
0000
,
0001
0000
0000
0000
,
1000
0000
0100
0000
,
0010
0000
0000
0000
,
0100
0000
0010
0000
,
0001
0000
0000
0000
,
1000
0000
0001
0000
,
0100
0000
0000
0000
,
0001
0000
1000
0000
,
0100
0000
0000
0000
,
1001
0000
0000
0000
,
0001
0000
0000
0000
,
0010
0000
0000
0000
,
0100
0000
0000
0000
,
1000
0000
0000
0000
,
0010
0000
0000
0000
,
0100
0000
0000
0000
,
0010
0000
0000
0000
,
1001
0000
0000
0000
,
0001
0000
0000
0000
,
0010
0000
0000
0000
,
0100
0000
0000
0000
,
1000
0000
0000
0000
,
1000
0000
0000
0000
,
0001
0000
0000
0000
,
0001
0000
0000
0000
,
0100
0000
0000
0000
;
