#TITLE:Love♡sicK;
#SUBTITLE:;
#ARTIST:8#Prince(八王子P);
#TITLETRANSLIT:;
#SUBTITLETRANSLIT:;
#ARTISTTRANSLIT:8#Prince(HACHIOJI P);
#CREDIT:DigiMindAxel;
#BANNER:Love sicK.png;
#BACKGROUND:Love sicK-bg.png;
#LYRICSPATH:Love sicK.lrc;
#CDTITLE:SOUND VOLTEX.png;
#MUSIC:Love sicK.ogg;
#METERTYPE:DDR X;
#OFFSET:-10.120;
#SAMPLESTART:75.555;
#SAMPLELENGTH:12.000;
#SELECTABLE:YES;
#BPMS:0.000=132.000;
#STOPS:;
#BGCHANGES:;

//---------------dance-single - ----------------
#NOTES:
     dance-single:
     :
     Easy:
     4:
     0.203,0.243,0.064,0.200,0.000:
1000
1000
1000
0000
,
0100
0100
0100
0000
,
0010
0010
0010
0000
,
0001
1000
0001
0000
,
2002
0000
0000
0000
,
3003
0000
0000
0000
,
2000
0000
0000
0000
,
3020
0000
0000
0030
,
2002
0000
0000
0000
,
3003
0000
0000
0000
,
0002
0000
2003
0000
,
3001
0000
0000
0000
,
1000
0001
1000
0000
,
0010
1000
0010
1000
,
0001
0010
0001
0000
,
0010
0100
0010
0100
,
1000
0010
1000
0000
,
0001
1000
0001
1000
,
0001
0010
0001
0000
,
1001
0000
0000
0000
,
2000
0000
3020
0000
,
0230
0000
0302
0000
,
2003
0000
3020
0000
,
0230
0000
0302
0000
,
1003
0100
0010
0001
,
1000
0100
0010
0001
,
1000
1000
0001
0001
,
2002
0000
0000
3003
,
1001
0000
0000
0000
,
0000
0000
0000
0000
,
0000
0000
0000
0000
,
0000
0000
0000
0000
,
0001
0000
0100
0000
,
0010
0000
1000
0000
,
0001
0100
0010
1000
,
0002
0000
0000
0000
,
1003
0100
1000
0100
,
1000
0001
1000
0000
,
0010
0100
0010
0100
,
0001
0010
0001
0000
,
0010
0001
0010
0001
,
0100
0010
0100
0000
,
0010
1000
0010
1000
,
0002
0000
0000
0003
,
1000
0100
1000
0100
,
1000
0001
1000
0000
,
0100
0010
0100
0010
,
0001
0100
0001
0000
,
0100
0010
0100
0010
,
1000
0100
1000
0000
,
0100
0000
0000
0100
0000
0000
0100
0000
,
0110
0000
0000
0000
,
2002
0000
0000
0000
,
0000
0000
3003
0000
;

//---------------dance-single - ----------------
#NOTES:
     dance-single:
     :
     Medium:
     7:
     0.326,0.438,0.427,0.109,0.000:
1001
0001
0001
0001
,
0101
0100
0100
0100
,
0110
0010
1010
1000
,
1001
1001
1001
0000
,
0220
0000
0000
0000
,
0330
0000
0000
0010
,
0100
1000
1000
1000
,
0100
0010
0001
0001
,
2002
0000
0000
3003
,
1001
0000
0000
1000
,
1000
0010
0100
0001
,
1001
0000
0000
0000
,
1000
0000
0100
0000
0010
0100
1000
0000
,
0100
0000
0010
0000
0001
0010
0100
0000
,
0010
0000
0001
0000
0100
0010
1000
0000
,
0010
0000
0100
0000
0010
1000
0100
0000
,
0010
0000
0001
0000
0010
0001
0100
0000
,
0010
0000
1000
0000
0100
0010
0001
0000
,
0010
0000
0000
0011
0000
0000
0010
0001
,
1000
0000
0000
0000
,
0100
0000
0000
1100
0000
0000
1000
0000
,
0010
0000
0000
0110
0000
0000
0000
0000
,
0100
0000
0000
0101
0000
0000
0001
0000
,
1000
0000
0000
1100
0000
0000
0000
0000
,
0100
0010
0100
0010
,
0001
0100
0001
0100
,
0010
0010
1000
1000
,
2002
0000
0000
3003
,
1001
0000
0000
0001
,
0100
0010
0000
0100
,
0100
0001
1000
0100
,
0010
0010
0100
1000
,
0001
1000
0001
0000
0100
0001
0100
0000
,
0001
1000
0001
0000
1000
0100
1000
0000
,
0100
0010
0001
1000
,
2002
0000
0000
3003
,
0001
0100
0001
0000
1000
0001
1000
0000
,
0100
1000
0100
0000
0010
0001
0010
0000
,
0100
0010
0100
0000
1000
0100
1000
0000
,
0001
1000
0001
1000
0100
0000
0000
0000
,
0010
0001
0010
0000
0100
0010
0100
0000
,
1000
0010
0100
0000
0010
0100
0010
0000
,
1000
0000
0001
0000
0010
0100
1000
0000
,
2002
0000
0000
3003
,
0101
0101
0101
0101
,
1001
1001
1001
1001
,
1100
1100
1100
1100
,
0011
0110
1100
0110
,
0011
0011
0011
0011
,
1001
1001
1001
1001
,
1010
0000
0000
1010
0000
0000
0010
1000
,
0001
0000
0000
0000
,
0202
0000
0000
0000
,
0000
0000
0303
0000
;

//---------------dance-single - ----------------
#NOTES:
     dance-single:
     :
     Hard:
     9:
     0.435,0.413,0.145,0.200,0.055: // measure 1
1000
0000
0000
1000
0000
0000
1000
0000
0000
0000
0100
0000
0100
0000
0100
0000
,  // measure 2
0010
0000
0001
0000
0010
0000
0100
1000
,  // measure 3
0010
0000
0000
0010
0000
0000
0010
0000
0100
0000
0000
0100
0000
0000
0100
0000
,  // measure 4
0001
0000
0000
0010
0000
0000
0100
0000
1000
0000
1000
0000
0001
0000
0001
0000
,  // measure 5
0201
0000
0000
0320
,  // measure 6
0230
0000
0320
0000
,  // measure 7
2030
0000
0000
3002
,  // measure 8
0023
0000
0230
0000
,  // measure 9
1300
1000
0001
0001
,  // measure 10
0011
0010
0100
0100
,  // measure 11
1001
1000
1001
0001
,  // measure 12
0220
0000
0000
0330
,  // measure 13
0100
1000
0001
1000
0100
1000
0001
0100
,  // measure 14
0001
1000
0100
0010
0100
1000
0001
0000
,  // measure 15
0010
0001
0100
0001
0010
0001
0100
0001
,  // measure 16
1000
0100
0010
0001
1000
0010
1000
0000
,  // measure 17
0001
0010
0001
1000
0001
0010
0001
1000
,  // measure 18
0001
0100
0010
0100
0001
0100
0010
0000
,  // measure 19
1001
0000
0000
1000
0000
0000
1001
0000
0000
0001
0000
0000
1000
0000
0010
0000
,  // measure 20
0100
0000
0000
0002
,  // measure 21
2003
0000
0100
3100
0000
0010
0010
0010
,  // measure 22
0002
0000
0000
0000
0100
0000
0103
0000
0010
0000
0000
0010
0000
0000
0010
0000
,  // measure 23
2000
0000
0001
3001
0000
0010
0010
0010
,  // measure 24
0200
0000
1000
1300
0001
0000
1001
0000
,  // measure 25
0001
1000
0100
1000
0001
1000
1000
1000
,  // measure 26
0010
0000
0100
0000
0001
0000
0100
0000
0010
0000
0000
0010
0000
0000
0010
0000
,  // measure 27
1000
0100
0001
0100
1000
0100
0001
0100
,  // measure 28
2000
0000
0000
3000
,  // measure 29
2001
0000
0000
0000
0000
3100
1000
0000
,  // measure 30
0010
0000
0000
0010
0000
0100
0001
0000
,  // measure 31
0010
0000
0100
0000
0100
0000
1000
0001
,  // measure 32
1000
0000
0001
0000
0100
0010
0100
0000
,  // measure 33
0001
1000
0001
1000
0100
1000
0100
1000
,  // measure 34
0010
0100
0010
0100
0001
1000
0001
1000
,  // measure 35
0100
0010
0100
0010
0001
0100
0001
0100
,  // measure 36
0220
0000
0000
0330
,  // measure 37
0010
1000
0100
1000
0010
1000
0100
1000
,  // measure 38
0001
0010
1000
0010
0001
0100
0001
1000
,  // measure 39
0100
0010
0100
0010
0001
0100
0010
1000
,  // measure 40
0100
0010
0100
0010
0001
0100
0010
1000
,  // measure 41
0001
0010
0001
1000
0001
0010
0001
1000
,  // measure 42
0001
0010
1000
0010
0001
1000
0010
1000
,  // measure 43
0001
0010
0100
0010
0100
1000
0010
0100
,  // measure 44
0002
0000
0000
0003
,  // measure 45
0010
0001
1000
0001
0010
0100
0100
0100
,  // measure 46
1000
0000
0010
0000
0100
0000
0010
0000
1000
0000
0000
1000
0000
0000
1000
0000
,  // measure 47
0001
0010
0100
0010
0001
0100
0100
0100
,  // measure 48
0010
1000
0001
1000
0010
0000
1001
0000
,  // measure 49
0001
1000
0100
1000
0001
0100
0100
0100
,  // measure 50
0010
0000
1000
0000
0100
0000
0010
0000
0001
0000
0000
0001
0000
0000
0001
0000
,  // measure 51
1001
0000
0000
1000
0000
0000
1010
0000
0000
0010
0000
0000
0110
0000
0100
0000
,  // measure 52
0101
0000
0000
0001
,  // measure 53
2002
0000
0000
0000
,  // measure 54
0000
0000
3003
0000
;

//---------------dance-single - ----------------
#NOTES:
     dance-single:
     :
     Challenge:
     13:
     0.605,0.632,0.445,0.127,0.450: // measure 1
1100
0000
0000
0100
0000
0000
0100
0000
0000
0000
0010
0000
0010
0000
0010
0000
,  // measure 2
1001
0000
0000
0000
0010
0000
0000
0000
0100
0000
0000
0000
1000
0001
1000
0001
,  // measure 3
1000
0000
0000
1000
0000
0000
1000
0000
0110
0000
0000
0010
0000
0000
0010
0000
,  // measure 4
1001
0000
0000
1001
0000
0000
1001
0000
0100
1000
0100
0000
0010
0001
0010
0001
,  // measure 5
2000
0000
0000
0000
0000
3001
0100
0001
,  // measure 6
0100
0000
0000
0010
0000
0000
0100
0000
0000
0000
0001
0000
0010
0000
0100
0000
,  // measure 7
1000
0000
0000
0000
0001
0000
0100
0000
0001
0000
0000
1000
0000
0000
0100
1000
,  // measure 8
0100
0000
0000
0000
0010
0000
0001
0000
1000
0000
0000
0010
0000
0000
1000
0000
,  // measure 9
0001
0100
0001
0100
1000
0100
1000
0100
,  // measure 10
0001
0010
0001
0010
1000
0010
1000
0010
,  // measure 11
0001
0010
0100
1000
0001
0100
0010
1000
,  // measure 12
2002
0000
0000
3003
,  // measure 13
2100
0000
0000
0000
0001
0000
0000
0000
0100
0000
0000
0000
3001
0100
0001
0000
,  // measure 14
0000
0000
1100
0000
0000
1100
0000
0000
0000
0011
0000
0000
0011
0000
0001
0000
,  // measure 15
1000
0000
1010
0000
0000
1010
0000
0000
0000
0101
0000
0000
0101
0000
0001
0000
,  // measure 16
1000
0000
0010
0000
0001
0000
0010
0000
1000
0000
0100
0000
0010
0001
0010
0001
,  // measure 17
2000
0000
0000
0000
0001
0000
0000
0000
0100
0000
0000
0000
3001
0100
0001
0000
,  // measure 18
0000
0000
1100
0000
0000
1100
0000
0000
0000
0101
0000
0000
0101
0000
0001
0000
,  // measure 19
1001
0000
0000
1100
0000
0000
0011
0000
0000
1001
0000
0000
1000
0001
0100
0001
,  // measure 20
1000
0000
0000
0000
0000
0000
0002
0003
,  // measure 21
1001
0000
0000
1000
0010
0000
0100
0000
0000
0000
0110
0000
0110
0000
0110
0000
,  // measure 22
1001
0000
0000
0001
0010
0000
0100
0000
0110
0000
0000
0110
0000
0000
0110
0000
,  // measure 23
1001
0000
0000
1000
0100
0000
0010
0000
0000
0000
0110
0000
0110
0000
0110
0000
,  // measure 24
1001
0000
0000
0001
0100
0000
0010
0000
0100
0010
0100
0010
2000
0000
0000
0000
,  // measure 25
3001
0000
1000
0000
0100
0000
1000
0001
0100
0000
0110
0000
0110
0000
0110
0000
,  // measure 26
0010
0000
1000
0000
0100
0000
0010
0001
1000
0010
1000
0010
0100
0001
0100
0001
,  // measure 27
1000
0000
1001
0000
0001
0000
1001
0000
1000
0000
1001
0000
0001
0010
0100
1000
,  // measure 28
0002
0000
1000
1003
,  // measure 29
1020
0000
0000
0000
0000
0130
0001
0010
,  // measure 30
0100
0000
0000
1000
0000
0000
0100
0000
0000
0000
1000
0000
0100
0000
0010
0000
,  // measure 31
0001
0000
0000
0000
0010
0000
0001
0000
1000
0000
0000
0010
0000
0000
1000
0010
,  // measure 32
1000
0000
0000
0000
0100
0000
0010
0000
0001
0000
0000
1000
0000
0000
0001
0000
,  // measure 33
1000
0100
1000
0100
0001
0100
0001
0100
,  // measure 34
1000
0010
1000
0010
0001
0010
0001
0010
,  // measure 35
1000
0001
1000
0001
1000
0001
1000
0001
0100
0010
0100
0010
0100
0010
0100
0010
,  // measure 36
0200
0000
0000
0310
,  // measure 37
1000
0000
0001
0100
0001
0000
1000
0100
1000
0000
0001
0010
0100
0000
0010
0000
,  // measure 38
0001
0000
1000
0010
1000
0000
0010
0000
0100
0000
0001
0000
0010
0000
0100
0000
,  // measure 39
1000
0000
0001
0010
0001
0000
1000
0010
1000
0000
0001
0100
0010
0000
0100
0000
,  // measure 40
0001
0000
0010
0100
0010
0000
0001
0000
1000
0000
0010
0000
0100
0010
0100
0010
,  // measure 41
0100
0000
0001
1000
0001
0000
1000
0100
1000
0000
0010
0100
0001
0000
0010
0000
,  // measure 42
0100
0000
1000
0010
1000
0000
0001
0000
0010
0000
0100
0000
1000
0000
0010
0000
,  // measure 43
1000
0000
0001
0010
0001
0000
1000
0001
1000
0000
0100
0010
0001
0000
0010
0000
,  // measure 44
0200
0000
0000
0310
,  // measure 45
0001
0000
1000
0100
0010
0100
1000
0000
0001
0000
0100
0001
0010
0001
0100
0000
,  // measure 46
0001
0000
0010
0100
1000
0100
0010
0000
0001
0000
0100
0010
0000
1000
0100
0000
,  // measure 47
0010
0000
0001
1000
0010
1000
0001
0000
0010
0000
0100
1000
0001
1000
0100
0000
,  // measure 48
0010
0000
0001
0100
0010
0100
0001
0000
1000
0000
0100
0000
0010
0100
0010
0100
,  // measure 49
0010
0000
0001
1000
0100
1000
0001
0000
1000
0000
0100
0010
0001
0010
0100
0000
,  // measure 50
1000
0000
0001
1000
0100
1000
0001
0000
0100
0000
0010
1000
0000
0100
0010
0000
,  // measure 51
0011
0000
0000
0110
0000
0000
1100
0000
0000
0110
0000
0000
0010
0001
1000
0001
,  // measure 52
0010
0000
0000
0000
0000
0000
0200
0300
,  // measure 53
2002
0000
0000
0000
,  // measure 54
0000
0000
3003
0000
;

//---------------dance-single - ----------------
#NOTES:
     dance-single:
     :
     Beginner:
     1:
     0.071,0.118,0.045,0.000,0.000:
1000
0000
0000
0000
,
0001
0000
0000
0000
,
1000
0000
1000
0000
,
1001
0000
0000
0000
,
0001
0000
0000
0000
,
0000
0000
0000
0000
,
0100
0000
0000
0000
,
0000
0000
0000
0000
,
0010
0000
0000
0000
,
1000
0000
0000
0000
,
0001
0000
0001
0000
,
1001
0000
0000
0000
,
1000
0000
0000
0000
,
0100
0000
0000
0000
,
1000
0000
0000
0000
,
0100
0000
0000
0000
,
0010
0000
0000
0000
,
0001
0000
0000
0000
,
0010
0000
0000
0000
,
1001
0000
0000
0000
,
0001
0000
0000
0000
,
0100
0000
0000
0000
,
0010
0000
0000
0000
,
0100
0000
0000
0000
,
0001
0000
0000
0000
,
1000
0000
0000
0000
,
0100
0000
0000
0000
,
0010
0000
0000
0000
,
1001
0000
0000
0000
,
0000
0000
0000
0000
,
0000
0000
0000
0000
,
0000
0000
0000
0000
,
1000
0000
0000
0000
,
0100
0000
0000
0000
,
0010
0000
0000
0000
,
0001
0000
0000
0000
,
1000
0000
0000
0000
,
0010
0000
0000
0000
,
1000
0000
0000
0000
,
0001
0000
0000
0000
,
0010
0000
0000
0000
,
0001
0000
0000
0000
,
1000
0000
0000
0000
,
0001
0000
0000
0000
,
1000
0000
0000
0000
,
0010
0000
0000
0000
,
0100
0000
0000
0000
,
0001
0000
0000
0000
,
1000
0000
0000
0000
,
0100
0000
0000
0000
,
1000
0000
0000
0000
,
1000
0000
0000
0000
,
1001
0000
0000
0000
;
