#TITLE:Love Blood;
#SUBTITLE:;
#ARTIST:ETIA. feat.Jenga;
#TITLETRANSLIT:;
#SUBTITLETRANSLIT:;
#ARTISTTRANSLIT:;
#CREDIT:DigiMindAxel;
#BANNER:Love Blood.png;
#BACKGROUND:Love Blood-bg.png;
#LYRICSPATH:Love Blood.lrc;
#CDTITLE:DigiMindAxel original simfile.png;
#MUSIC:Love Blood.ogg;
#METERTYPE:DDR X;
#OFFSET:-0.187;
#SAMPLESTART:49.316;
#SAMPLELENGTH:12.000;
#SELECTABLE:YES;
#BPMS:0.000=116.000;
#STOPS:;
#BGCHANGES:-4.000=Love Blood.avi=1.000=1=1=0,
99999=-nosongbg-=1.000=0=0=0 // don't automatically add -songbackground-
;

//---------------dance-single - ----------------
#NOTES:
     dance-single:
     :
     Easy:
     3:
     0.171,0.229,0.031,0.073,0.000:
0000
0000
0000
0000
,
0000
0000
0000
0000
,
0000
0000
0000
0000
,
0000
0000
0000
0000
,
1001
1000
0001
1000
,
0001
1000
0001
1000
,
0100
0010
0100
0010
,
0200
0000
1000
0000
,
1300
0000
0000
0000
,
0010
0000
0000
0000
,
0100
0000
0000
0000
,
0001
0000
0000
0000
,
1000
0000
0001
0000
,
1000
0000
0100
0000
,
0010
0000
0100
0000
,
0010
0000
0000
0000
,
0001
1000
0001
0000
,
1000
0001
1000
0000
,
0100
1000
0100
0000
,
0010
0001
0010
0000
,
0100
0010
0100
0000
,
1000
0100
1000
0000
,
0001
1000
0001
0000
,
2002
0000
0000
3003
,
0001
0010
0100
0010
,
0001
0010
0100
0000
,
1000
0100
0010
0100
,
1000
0100
0010
0000
,
0001
0100
0010
0100
,
0001
0100
0010
0000
,
1000
0010
0100
0010
,
1000
0010
0100
0000
,
0001
1000
0100
0010
,
0001
1000
0100
0000
,
0010
0100
1000
0001
,
0010
0100
1000
0000
,
0010
0100
0001
1000
,
0010
0100
0001
0000
,
0100
0010
1000
0001
,
0200
0000
0000
0300
,
1002
0000
0000
0000
,
2003
0000
0000
0000
,
3020
0000
0000
0000
,
0000
0000
0000
0000
,
0130
0000
0000
0000
;

//---------------dance-single - ----------------
#NOTES:
     dance-single:
     :
     Medium:
     7:
     0.302,0.367,0.125,0.156,0.005:
0000
0000
0000
0000
,
0000
0000
0000
0000
,
0000
0000
0000
0000
,
0000
0000
0000
0000
,
1001
0000
1000
0000
0100
0010
0001
0000
,
0110
0000
0100
0000
0010
1000
0100
0000
,
0011
0000
0001
0000
0010
0100
1000
0000
,
1100
1100
0011
0011
,
2001
0000
0000
0000
,
3020
0000
0000
0000
,
0230
0000
0000
0000
,
0302
0000
0000
0000
,
1003
0100
0011
0000
,
0001
0010
1100
0000
,
0010
0001
0110
0000
,
0100
0000
1000
0000
0100
0000
0010
0010
,
0200
1000
0000
1300
,
0020
0100
0000
0130
,
0002
0010
0000
0013
,
0200
0010
0000
0310
,
0002
0100
0000
0103
,
0020
0100
0000
0130
,
0002
1000
0000
1003
,
1001
0000
0001
0000
1000
0000
0000
0010
0000
0000
0000
0000
0000
0000
0000
0000
,
0100
0010
0100
0010
0100
0010
0100
0000
,
0001
1000
0001
1000
0001
1000
0001
0000
,
0010
0001
0010
0001
0010
0001
0010
0000
,
0100
0010
0100
0010
0100
0010
0100
0000
,
1000
0100
1000
0100
1000
0100
1000
0000
,
0001
1000
0001
1000
0001
1000
0001
0000
,
0100
0001
0100
0001
0100
0001
0100
0000
,
0010
0100
0010
0100
0010
0100
0010
0000
,
1000
0010
1000
0010
1000
0001
1000
0000
,
0001
0010
0001
0010
0001
1000
0001
0000
,
0100
0010
0100
0010
0100
0001
0100
0000
,
0010
0100
0010
0100
0010
1000
0010
0000
,
1000
0001
1000
0001
1000
0100
1000
0000
,
0001
1000
0001
1000
0001
0010
0001
0000
,
0100
0010
0100
0010
1000
0100
0010
0001
,
2000
0000
0000
0010
0000
0000
0000
0000
,
3020
0000
0000
0100
0000
0000
0000
0000
,
0230
0000
0000
0001
0000
0000
0000
0000
,
0302
0000
0000
0000
,
0000
0000
0000
0000
,
1003
0000
0000
0000
;

//---------------dance-single - ----------------
#NOTES:
     dance-single:
     :
     Hard:
     10:
     0.420,0.539,0.188,0.250,0.214: // measure 1
0000
0000
0000
0000
,  // measure 2
0000
0000
0000
0000
,  // measure 3
0000
0000
0000
0000
,  // measure 4
0000
0000
0000
0000
,  // measure 5
1001
0000
1000
0000
0001
0000
0010
0000
0100
0000
0010
0000
0001
0100
0000
0000
,  // measure 6
0100
0000
0010
0000
0100
0000
0001
0000
1000
0000
0100
0000
0010
0100
0000
0000
,  // measure 7
0100
0000
1000
0000
0010
0000
0100
0000
0001
0000
1000
0000
0100
0010
0000
0000
,  // measure 8
0010
0000
0001
0000
0010
0000
0001
0000
1000
0000
0100
0000
0010
0001
1000
0000
,  // measure 9
2001
0000
3000
0000
,  // measure 10
2000
0000
3000
0000
,  // measure 11
0002
0000
0003
0000
,  // measure 12
0002
0000
0003
0000
,  // measure 13
1001
0000
1000
0000
1100
0000
0100
0010
,  // measure 14
0001
1000
0000
0000
1010
0000
0010
0100
,  // measure 15
0001
0000
0000
0000
1000
0000
0000
0000
1100
0000
0000
0010
0000
0001
0000
1000
,  // measure 16
0010
0000
0000
0000
0010
0000
0000
0000
0010
0000
0000
0000
0010
0100
0010
0100
,  // measure 17
0020
0000
0100
0000
0000
0100
0130
0000
,  // measure 18
0002
0000
1000
0000
0000
1000
1003
0000
,  // measure 19
0020
0000
0100
0000
0230
0001
0301
0000
,  // measure 20
2000
0000
0000
0000
0010
0000
0000
0010
0000
0000
0010
0000
3010
0000
0000
0000
,  // measure 21
0200
0000
0010
0000
0000
0010
0310
0000
,  // measure 22
2000
0000
0100
0000
0000
0100
3100
0000
,  // measure 23
0020
0000
0000
0000
0100
0000
0000
0100
0000
0000
0100
0000
0130
0000
0000
0000
,  // measure 24
1000
0001
1000
0000
0001
0000
0001
1000
0000
0000
0000
0000
0000
0000
0000
0000
,  // measure 25
0010
0100
0010
0000
1000
0000
0110
0000
0001
0000
0010
0000
0100
0000
1000
0000
,  // measure 26
0001
0100
0001
0000
1000
0000
0110
0000
0001
0000
0100
0000
0010
0000
1000
0000
,  // measure 27
0001
0100
0010
0000
0100
0000
1001
0000
0100
0000
0010
0000
0001
0000
0000
0000
,  // measure 28
1000
0100
0010
0000
0100
0000
1001
0000
0010
0000
0100
0000
1000
0000
0000
0000
,  // measure 29
0010
0100
0001
0000
1000
0100
1000
0000
0010
0000
0000
0010
0000
0000
0010
0000
,  // measure 30
0100
0001
0010
0000
0001
1000
0001
0000
0010
0000
0000
0010
0000
0000
0010
0000
,  // measure 31
0100
1000
0010
0000
0100
0010
0100
0000
0001
0000
0000
0001
0000
0000
0001
0000
,  // measure 32
1000
0100
0010
0000
0100
1000
0100
0000
0010
0000
0000
0010
0000
0000
0010
0000
,  // measure 33
1001
0000
0001
0000
1000
0000
0100
0010
0002
0000
0000
0000
0103
0000
0010
0000
,  // measure 34
1000
0000
0000
0100
0000
0000
0010
0000
0000
0000
0001
0000
0000
1000
0000
0000
,  // measure 35
0010
0000
0000
0000
0100
0001
0010
0100
2000
0000
0000
0000
3010
0000
0000
0000
,  // measure 36
0100
0000
0000
0001
0000
0000
0010
0000
0100
0000
0000
1000
0000
0000
0010
0000
,  // measure 37
0100
0000
0001
0000
1000
0100
1000
0000
0110
0000
0001
0000
0100
0000
0001
0000
,  // measure 38
1001
0000
0010
0000
0100
1000
0100
0000
0011
0000
0100
0000
1000
0000
0110
0000
,  // measure 39
0001
0000
0100
0000
0010
0000
0100
0001
1000
0000
0100
0000
0001
0000
0100
0000
,  // measure 40
1100
0000
1001
0000
,  // measure 41
0021
0000
0000
0000
0000
0000
0130
0000
0000
0000
0000
0000
0000
0000
1000
0010
,  // measure 42
2000
0000
0000
0000
0000
0000
3001
0000
0000
0000
0000
0000
0000
0000
1000
0010
,  // measure 43
0200
0302
0203
2300
,  // measure 44
3200
0000
0302
0000
0023
0000
0130
1000
,  // measure 45
0002
0000
0000
0000
,  // measure 46
0003
0000
0000
0000
;

//---------------dance-single - ----------------
#NOTES:
     dance-single:
     :
     Challenge:
     12:
     0.531,0.586,0.313,0.094,0.438: // measure 1
0000
0000
0000
0000
,  // measure 2
0000
0000
0000
0000
,  // measure 3
0000
0000
0000
0000
,  // measure 4
0000
0000
0000
0000
,  // measure 5
0011
0000
0001
0000
0100
0010
0000
0010
1000
0000
0100
0000
0010
0100
0000
0000
,  // measure 6
1000
0000
0010
0000
1000
0001
0000
0001
0010
0000
0100
0000
1000
0010
0000
0000
,  // measure 7
0100
0000
0010
0000
1000
0100
0000
0100
0010
0000
0001
0000
0100
0010
1000
0000
,  // measure 8
0001
0010
0001
1000
0010
1000
0001
0000
,  // measure 9
1001
0010
0100
1000
0000
0000
0000
0000
,  // measure 10
0001
0010
0100
1000
0000
0000
0000
0000
,  // measure 11
0001
0000
0100
0000
0010
0000
1000
0000
0001
0000
0000
0001
0000
0000
0000
0000
,  // measure 12
0001
0000
0100
0000
0010
0000
1000
0000
0100
0000
0000
0100
0000
0000
0100
0000
,  // measure 13
1001
0000
0000
0001
0100
0000
0010
0000
1001
0000
0000
0000
1000
0000
0100
0000
,  // measure 14
1000
0110
0001
0100
1001
0000
1000
0001
,  // measure 15
0110
0000
0000
1000
0010
0000
0100
0000
1001
0000
0000
1000
0000
0001
0010
0100
,  // measure 16
1000
0000
0001
0000
0010
0000
0001
0000
1000
0000
0001
0000
1000
0010
0100
0001
,  // measure 17
1000
0000
1100
0000
0010
0001
1000
0010
,  // measure 18
0100
0000
0101
0000
0001
1000
0100
0010
,  // measure 19
0100
0000
1100
0000
0010
0001
1000
0100
,  // measure 20
0010
0000
0000
0000
0011
0000
0000
0001
0000
0000
0100
0000
0110
0000
0000
0000
,  // measure 21
0010
0000
1001
0000
1000
0001
0010
0100
,  // measure 22
1000
0000
1010
0000
0010
0100
0001
0100
,  // measure 23
0010
0000
0000
0000
0110
0000
0000
0100
0000
0000
0010
0000
1010
0000
1000
0000
,  // measure 24
0100
0010
0001
0000
0010
0000
0010
0001
0000
0000
0000
0000
0000
0000
0000
0000
,  // measure 25
1000
0001
1000
0000
0100
1000
0100
0000
0010
0000
0001
0100
0000
0001
0100
0000
,  // measure 26
0001
1000
0001
0000
1000
0010
1000
0000
0100
0000
0010
0001
0000
0010
0001
0000
,  // measure 27
0100
0010
0100
0000
0001
1000
0001
0000
0010
0000
0100
0010
0000
0100
0010
0000
,  // measure 28
0001
0100
0001
0000
1000
0001
1000
0000
0100
0000
0010
0100
0000
0010
0100
0000
,  // measure 29
1000
0100
0010
0000
0010
0100
1000
0000
0001
0000
0100
0010
0000
0010
1000
0000
,  // measure 30
0001
0100
0010
0000
0010
0100
0001
0000
1000
0000
0100
1000
0000
1000
0010
0000
,  // measure 31
0100
0001
0010
0000
0010
0001
0100
0000
0010
0000
1000
0100
0000
0100
0010
0000
,  // measure 32
0001
1000
0010
0000
0010
1000
0001
0000
0010
0000
0100
0010
0000
0010
0001
0000
,  // measure 33
1001
0000
0000
0000
0000
0000
0000
0000
0000
0000
0000
0000
1000
0000
0000
0001
0000
0000
0010
0000
0000
0100
0000
0000
2000
0000
0000
0000
0000
0000
0000
0000
0000
0000
0000
0000
3010
0000
0000
0000
0000
0000
0100
0000
0001
0000
0100
0000
,  // measure 34
0001
0000
0000
1001
0000
0000
1100
0000
0000
0000
0011
0000
0001
1000
0000
1000
,  // measure 35
0010
0000
0000
0000
0100
0001
0010
0100
2000
0000
0000
0000
3010
0000
0000
0000
,  // measure 36
0101
0000
0000
0101
0000
0000
0110
0000
1010
0000
0000
1010
0000
0000
0110
0000
,  // measure 37
0100
0010
0100
0000
0001
1000
0100
0000
1002
0000
0000
0100
0000
0000
1003
0000
,  // measure 38
0001
0100
0001
0000
1000
0100
0010
0000
1002
0000
0000
0100
0000
0000
1003
0000
,  // measure 39
0001
0000
0000
0010
0000
0000
0100
0000
0000
0000
0000
0000
1000
0000
0000
0010
0000
0000
0100
0000
0000
0001
0000
0000
1000
0000
0001
0000
1000
0000
0001
0000
1000
0000
0100
0000
1000
0000
0100
0000
0010
0000
0001
0000
0010
0000
0001
0000
,  // measure 40
0020
0000
0200
0330
,  // measure 41
2100
0000
0000
0000
0000
0000
3001
0000
0000
0000
0000
0000
0000
0000
1000
0010
,  // measure 42
0200
0000
0000
0000
0000
0000
0310
0000
0000
0000
0000
0000
0000
0000
0100
0001
,  // measure 43
1000
0100
0001
0100
1000
0100
0001
0100
,  // measure 44
1000
0010
0001
0010
1000
0010
0001
0010
,  // measure 45
2000
0000
0000
0000
,  // measure 46
3000
0000
0000
0000
;

//---------------dance-single - ----------------
#NOTES:
     dance-single:
     :
     Beginner:
     1:
     0.083,0.115,0.063,0.000,0.000:
0000
0000
0000
0000
,
0000
0000
0000
0000
,
0000
0000
0000
0000
,
0000
0000
0000
0000
,
1001
0000
0000
0000
,
0001
0000
0000
0000
,
1000
0000
0000
0000
,
0010
0000
0000
0000
,
0110
0000
0000
0000
,
0000
0000
0000
0000
,
0000
0000
0000
0000
,
0000
0000
0000
0000
,
1001
0000
0000
0000
,
1000
0000
0000
0000
,
0100
0000
0000
0000
,
1000
0000
0000
0000
,
1001
0000
0000
0000
,
0001
0000
0000
0000
,
0010
0000
0100
0000
,
1000
0000
0000
0000
,
0001
0000
0000
0000
,
0100
0000
0000
0000
,
0010
0000
0000
0000
,
1001
0000
0000
0000
,
0001
0000
0010
0000
,
0001
0000
0010
0000
,
0001
0000
1000
0000
,
0001
0000
0000
0000
,
1000
0000
0100
0000
,
1000
0000
0100
0000
,
1000
0000
0001
0000
,
1000
0000
0000
0000
,
0010
0000
0100
0000
,
0010
0000
0100
0000
,
0010
0000
1000
0000
,
0010
0000
0000
0000
,
0100
0000
0010
0000
,
0100
0000
0010
0000
,
0100
0000
0001
0000
,
1001
0000
0000
0000
,
1000
0000
0000
0000
,
0100
0000
0000
0000
,
0010
0000
0000
0000
,
0000
0000
0000
0000
,
0001
0000
0000
0000
;
