#TITLE:Lionheart;
#SUBTITLE:;
#ARTIST:Masayoshi Minoshima;
#TITLETRANSLIT:;
#SUBTITLETRANSLIT:;
#ARTISTTRANSLIT:;
#CREDIT:DigiMindAxel;
#BANNER:Lionheart.png;
#BACKGROUND:Lionheart-bg.png;
#LYRICSPATH:Lionheart.lrc;
#CDTITLE:maimai.png;
#MUSIC:Lionheart.ogg;
#METERTYPE:DDR X;
#OFFSET:-0.054;
#SAMPLESTART:50.875;
#SAMPLELENGTH:12.000;
#SELECTABLE:YES;
#BPMS:0.000=132.000;
#STOPS:;
#BGCHANGES:0.000=Lionheart.avi=1.000=1=1=0,
99999=-nosongbg-=1.000=0=0=0 // don't automatically add -songbackground-
;

//---------------dance-single - ----------------
#NOTES:
     dance-single:
     :
     Easy:
     3:
     0.217,0.272,0.134,0.024,0.000: // measure 1
0000
0000
0000
0000
,  // measure 2
0000
0000
0000
0000
,  // measure 3
0000
0000
0000
0000
,  // measure 4
0000
0000
0000
0000
,  // measure 5
0001
0000
0000
0000
,  // measure 6
0001
0000
0000
0000
,  // measure 7
0001
0000
0000
0000
,  // measure 8
0001
0000
0000
0000
,  // measure 9
1001
0000
1000
0000
,  // measure 10
0001
0000
1000
0000
,  // measure 11
0001
0001
0001
0001
,  // measure 12
1001
0000
0000
0000
,  // measure 13
0010
0100
0010
0000
,  // measure 14
0010
0100
0010
0000
,  // measure 15
1000
0001
1000
0000
,  // measure 16
1000
0001
1000
0000
,  // measure 17
0001
0100
0001
0000
,  // measure 18
0001
0100
0001
0000
,  // measure 19
0010
0100
0010
0000
,  // measure 20
0010
0100
0010
0000
,  // measure 21
0001
0001
0001
0000
,  // measure 22
1000
1000
1000
0000
,  // measure 23
0001
0001
0001
0000
,  // measure 24
0010
0010
0010
0000
,  // measure 25
0100
0100
0100
0000
,  // measure 26
1000
1000
1000
0000
,  // measure 27
0010
0010
0010
0000
,  // measure 28
0100
0100
0100
0100
,  // measure 29
0110
0010
0100
0000
,  // measure 30
0110
0100
0010
0000
,  // measure 31
0110
0010
0100
0000
,  // measure 32
0110
0100
0010
0000
,  // measure 33
1001
1000
0001
0000
,  // measure 34
1001
0001
1000
0000
,  // measure 35
1001
1000
0001
0000
,  // measure 36
1001
0001
1000
0000
,  // measure 37
0100
1000
0010
0000
,  // measure 38
0100
0001
0010
0000
,  // measure 39
0001
1000
0001
0000
,  // measure 40
1000
0001
1000
0000
,  // measure 41
0100
0010
0001
0000
,  // measure 42
0010
0100
1000
0000
,  // measure 43
0010
0100
0010
0000
,  // measure 44
0100
0010
0100
0010
,  // measure 45
0220
0000
0000
0330
;

//---------------dance-single - ----------------
#NOTES:
     dance-single:
     :
     Medium:
     6:
     0.412,0.408,0.304,0.049,0.000:
0000
0000
0000
0000
,
0000
0000
0000
0000
,
0000
0000
0000
0000
,
0000
0000
0000
0000
,
1000
1000
1000
0000
,
0001
0001
0001
0000
,
1000
1000
1000
0000
,
0001
0001
0001
0000
,
1000
0001
1000
0001
,
1000
0001
1000
0001
,
0100
0010
0100
0010
0100
0010
0100
0010
,
0200
0000
0020
0330
,
1001
0100
1100
0100
,
1001
0010
0011
0000
,
1001
0100
0101
0100
,
1001
0010
1010
0000
,
1001
1000
1100
0100
,
0110
0010
0011
0000
,
1001
0001
0011
0010
,
0110
0100
1100
0000
,
1001
0000
1000
0000
1000
0001
0100
0000
,
1001
0000
0001
0000
0001
1000
0100
0000
,
0011
0000
0010
0000
0010
0001
0100
0000
,
0110
0000
0010
0000
0010
0100
1000
0000
,
1001
0000
1000
0000
1000
0010
0100
0000
,
0101
0000
0001
0000
0001
0010
0100
0000
,
1001
0000
1000
0000
1000
0100
0010
0000
,
0100
0010
0100
0010
0100
0010
0100
0000
,
0110
0000
0010
0100
0010
0100
0000
0000
,
0001
1000
0100
1000
0100
1000
0000
0000
,
0100
0010
0100
0010
0001
0010
0000
0001
,
1000
0001
1000
0001
1000
0010
0000
0000
,
0100
0001
0100
0001
0100
0010
0000
1000
,
0100
1000
0100
1000
0100
0010
0000
0001
,
1000
0001
1000
0001
1000
0010
0000
0100
,
0001
0100
0001
0100
0001
0010
0100
0000
,
1000
0001
1000
0001
1000
0100
0000
0010
,
0001
0010
0001
0010
0001
0100
0000
0010
,
1000
0010
1000
0010
1000
0100
0000
1000
,
0001
1000
0001
1000
0010
0100
0000
0010
,
0100
0010
0100
0010
1000
0100
0000
0010
,
0001
0010
0001
1000
0010
1000
0000
0100
,
0010
0100
0010
0001
1000
0100
0000
0010
,
0001
0100
0010
1000
0100
0000
0100
0000
,
0220
0000
0000
0330
;

//---------------dance-single - ----------------
#NOTES:
     dance-single:
     :
     Hard:
     10:
     0.513,0.517,0.511,0.061,0.103:
0000
0000
0000
0000
,
0000
0000
0000
0000
,
0000
0000
0000
0000
,
0000
0000
0000
0000
,
1000
1000
1000
1000
,
0001
0001
0001
0001
,
1000
1000
1000
1000
,
0001
0001
0001
0001
,
1000
0001
1000
0001
1000
0001
1000
0001
,
1000
0100
0010
0100
0010
0100
0010
0001
,
1000
0100
0010
0001
1000
0010
0100
0001
,
2000
0000
3002
0000
0203
0001
0301
0000
,
1001
1100
0011
1100
,
1001
0000
0110
0000
1001
0100
0100
0000
,
0101
1010
0101
1010
,
1001
0000
0110
0000
1001
0100
0100
0000
,
1001
1100
0011
1100
,
1001
0000
0110
0000
1001
0100
0100
0000
,
1001
1100
1001
0011
,
1001
0000
0000
0000
1010
0000
0000
0000
0101
0000
0000
0000
0001
1000
0001
1000
,
0001
0000
0000
0000
0101
0000
0000
0000
0100
0000
0010
0100
0000
0000
0001
0000
,
1001
0000
0000
0000
1100
0000
0000
0000
0100
0000
1000
0001
0000
0000
0000
0000
,
0101
0000
0000
0000
0110
0000
0000
0000
0100
0000
0001
1000
0000
0000
0100
0000
,
0110
0000
0000
0000
0011
0000
0000
0000
0001
0000
0100
0010
0000
0000
0000
0000
,
1010
0000
0000
0000
1001
0000
0000
0000
1000
0000
0001
0010
0000
0000
0001
0000
,
1001
0000
0000
0000
1100
0000
0000
0000
0100
0000
1000
0001
0000
0000
0000
0000
,
0011
0000
0000
0000
0110
0000
0000
0000
0100
0000
1000
0001
0000
0000
1000
0000
,
0001
0010
0100
1000
0001
0100
0010
1000
,
0001
0100
1000
0100
0001
1000
0000
1000
,
0001
0010
1000
0010
0001
1000
0000
1000
,
0001
0010
0100
1000
0001
0100
0000
0100
,
0001
0100
0010
1000
0001
0010
0000
0010
,
0100
0010
0001
1000
0010
0100
0000
0100
,
0001
0100
1000
0100
0001
0010
0000
0010
,
0001
0010
1000
0010
0001
0100
0000
0100
,
0001
0010
0100
0010
0001
1000
0100
0100
,
1000
0000
0010
0000
0100
0000
0001
0000
0100
0000
0000
1000
0000
0000
0100
0000
,
0001
0000
0010
0000
0100
0000
1000
0000
0010
0000
0000
0001
0000
0000
0010
0000
,
1000
0000
0001
0000
0010
0000
0100
0000
0010
0000
0000
0001
0000
0000
1000
0000
,
0010
0000
0100
0000
0010
0000
1000
0000
0010
0000
0000
0100
0000
0000
0001
0000
,
1000
0000
0100
0000
0010
0000
0010
0000
0100
0000
1000
0001
0000
0000
0001
0000
,
1000
0000
0010
0000
0010
0000
0100
0000
0010
0000
1000
0001
0000
0000
0001
0000
,
0010
0000
0100
0000
1000
0000
1000
0000
0010
0000
0100
0001
0000
0000
0001
0000
,
1000
0000
0010
0000
0100
0000
0001
0000
0100
0000
0010
1000
0000
0000
1000
0000
,
2200
0000
0000
3300
;

//---------------dance-single - ----------------
#NOTES:
     dance-single:
     :
     Challenge:
     12:
     0.610,0.681,0.256,0.049,0.377:
0000
0000
0000
0000
,
0000
0000
0000
0000
,
0000
0000
0000
0000
,
0000
0000
0000
0000
,
1000
0000
0000
0000
1000
0000
0000
0000
1000
0000
0000
1000
0000
0000
0100
1000
,
0100
0000
0000
0000
0100
0000
0000
0000
0100
0000
0000
0100
0000
0000
0010
0100
,
0010
0000
0000
0000
0010
0000
0000
0000
0010
0000
0000
0010
0000
0000
0001
0010
,
0001
0000
0000
0000
0001
0000
0000
0000
0001
0000
0000
0001
0000
0000
1000
0010
,
1000
0000
0100
0000
0010
0000
0001
0000
1000
0000
0100
0000
0010
0000
0001
1000
,
0001
0000
0100
0000
0010
0000
1000
0000
0001
0000
0100
0000
0010
0000
1000
0001
,
1000
0100
1000
0000
0001
0010
0001
0000
1000
0010
1000
0000
0001
0100
0001
0100
,
0020
0000
0230
0000
0320
1000
1030
0000
,
0001
0000
0010
0000
0100
0000
0010
0000
0001
0000
1000
0010
0000
0000
0010
0000
,
1000
0100
0001
0100
0010
0001
1001
0000
,
1000
0000
0010
0000
0100
0000
1000
0000
0100
0000
0010
1000
0000
0000
1000
0000
,
0001
0000
0100
0000
1000
0000
0100
0010
1000
0000
0001
0000
0101
0000
0100
0010
,
0100
0000
0001
0000
0010
0000
0100
0000
0010
0000
0001
1000
0000
0000
1000
0000
,
0001
0100
1000
0100
0010
1000
1001
0000
,
0001
0000
0100
0000
0010
0000
0100
0000
0001
0000
1000
0100
0000
0000
0100
0000
,
1000
0000
0001
0000
0100
0000
1000
0000
0100
0000
0001
0000
1000
0001
1000
0001
,
1000
0000
0010
0000
0110
0000
0000
0000
0100
0000
0001
1000
0000
0000
1000
0001
,
0010
0000
0100
0000
0110
0000
0000
0000
0010
0000
0100
1000
0001
0000
0000
0000
,
0010
0000
0100
0000
1100
0000
0000
0000
0100
0000
1000
0001
0000
0000
0001
0010
,
0100
0000
1000
0000
1100
0000
0000
0000
0100
0000
1000
0001
0100
0000
0010
0100
,
0010
0000
1000
0000
1001
0000
0000
0000
0001
0000
1000
0100
0000
0000
0100
1000
,
0001
0000
1000
0000
1001
0000
0000
0000
0001
0000
1000
0100
0010
0000
0000
0000
,
0001
0000
1000
0000
1010
0000
0000
0000
0010
0000
1000
0001
0000
0000
0001
0000
,
1000
0100
1000
0100
1000
0100
1000
0100
1000
0001
1000
0001
1000
0001
1000
0001
,
1000
0000
0100
0000
0001
0000
0100
0000
1100
0000
0000
0011
0000
0000
0001
0000
,
1000
0000
0100
0000
0001
0000
0100
0000
1100
0000
0000
0011
0000
0000
0001
0000
,
1000
0000
0010
0000
0001
0000
0010
0000
1010
0000
0000
0101
0000
0000
0001
0000
,
1000
0000
0010
0000
0001
0000
0010
0000
1010
0000
0000
0101
0000
0000
0001
1000
,
0001
0000
0100
0000
1000
0000
0100
0000
0101
0000
0001
1000
0000
0000
1000
0000
,
0001
0000
0010
0000
1000
0000
0010
0000
0011
0000
0001
1000
0000
0000
1000
0000
,
0001
0000
0100
0000
1000
0000
0100
0000
0101
0000
0001
0100
0000
0000
0100
0000
,
0001
0000
0010
0000
1000
0000
0010
0000
0001
0000
0001
0000
1000
0010
1000
0010
,
0100
0000
0001
0000
0100
0000
1000
0000
0100
0000
0010
1000
0000
0000
0001
0000
,
1000
0000
0001
0000
0010
0000
1000
0000
0010
0000
0100
1000
0000
0000
0001
0000
,
1000
0000
0010
0000
0001
0000
0010
0000
0100
0000
0001
1000
0000
0000
0001
0000
,
1000
0000
0100
0000
0001
0000
0100
0000
0010
0000
0001
1000
0000
0000
0001
0100
,
0001
0000
0100
0000
1000
0000
0001
0000
0010
0000
1000
0001
0000
0000
0001
0000
,
1000
0000
0100
0000
0001
0000
1000
0000
0010
0000
0001
1000
0000
0000
1000
0000
,
0001
0000
0100
0000
1000
0000
0001
0000
0010
0000
1000
0001
0000
0000
0001
0000
,
1000
0000
0100
0000
0001
0000
1000
0000
0010
0000
0001
1000
0000
0000
1000
0001
,
0200
0000
0000
0300
;

//---------------dance-single - ----------------
#NOTES:
     dance-single:
     :
     Beginner:
     1:
     0.076,0.107,0.037,0.000,0.000:
0000
0000
0000
0000
,
0000
0000
0000
0000
,
0000
0000
0000
0000
,
0000
0000
0000
0000
,
0001
0000
0000
0000
,
0001
0000
0000
0000
,
0001
0000
0000
0000
,
0001
0000
0000
0000
,
1000
0000
0000
0000
,
0100
0000
0000
0000
,
0010
0000
0000
0000
,
0001
0000
0000
0000
,
1001
0000
0000
0000
,
1000
0000
0000
0000
,
0010
0000
0000
0000
,
0100
0000
0000
0000
,
0010
0000
0000
0000
,
1000
0000
0000
0000
,
0001
0000
0000
0000
,
0010
0000
0000
0000
,
0100
0000
0000
0000
,
0100
0000
0000
0000
,
0010
0000
0000
0000
,
0010
0000
0000
0000
,
0001
0000
0000
0000
,
0001
0000
0000
0000
,
1000
0000
0000
0000
,
1000
0000
0000
0000
,
0110
0000
0000
0000
,
0010
0000
0000
0000
,
0100
0000
0000
0000
,
0010
0000
0000
0000
,
1000
0000
0000
0000
,
0001
0000
0000
0000
,
1000
0000
0000
0000
,
0001
0000
0000
0000
,
0010
0000
0000
0000
,
0100
0000
0000
0000
,
0010
0000
0000
0000
,
0001
0000
0000
0000
,
1000
0000
0000
0000
,
0010
0000
0000
0000
,
0100
0000
0000
0000
,
0010
0000
0000
0000
,
1001
0000
0000
0000
;
