#TITLE:Link;
#SUBTITLE:;
#ARTIST:Clean Tears feat. Youna;
#TITLETRANSLIT:;
#SUBTITLETRANSLIT:;
#ARTISTTRANSLIT:;
#CREDIT:DigiMindAxel;
#BANNER:Link.png;
#BACKGROUND:Link-bg.png;
#LYRICSPATH:Link.lrc;
#CDTITLE:maimai.png;
#MUSIC:Link.ogg;
#METERTYPE:DDR X;
#OFFSET:-0.091;
#SAMPLESTART:20.075;
#SAMPLELENGTH:12.000;
#SELECTABLE:YES;
#BPMS:0.000=132.000;
#STOPS:;
#BGCHANGES:0.250=Link.avi=1.000=1=1=0,
99999=-nosongbg-=1.000=0=0=0 // don't automatically add -songbackground-
;

//---------------dance-single - ----------------
#NOTES:
     dance-single:
     :
     Easy:
     3:
     0.235,0.268,0.073,0.280,0.000: // measure 1
0000
0000
0000
0000
,  // measure 2
0000
0000
0000
0000
,  // measure 3
0000
0000
0000
0000
,  // measure 4
0000
0000
0000
0000
,  // measure 5
0000
0000
0000
0000
,  // measure 6
0002
0000
0000
0003
,  // measure 7
2000
0000
0000
3000
,  // measure 8
0002
0000
0000
0003
,  // measure 9
2000
0000
0000
3000
,  // measure 10
2002
0000
0000
0000
,  // measure 11
0000
0000
0000
3003
,  // measure 12
0010
0100
0010
0100
,  // measure 13
0001
0000
0010
0000
,  // measure 14
0100
1000
0100
0000
,  // measure 15
1000
0001
1000
0001
,  // measure 16
0010
0100
0010
0100
,  // measure 17
1000
0000
0010
0000
,  // measure 18
0100
0001
0100
0000
,  // measure 19
0001
1000
0001
0010
,  // measure 20
0002
0000
0203
0000
,  // measure 21
0320
0000
2030
0000
,  // measure 22
3200
0000
0320
0000
,  // measure 23
0032
0000
0000
0000
,  // measure 24
1003
0100
1000
0100
,  // measure 25
1000
0001
1000
0001
,  // measure 26
0100
0001
0100
0001
,  // measure 27
0100
0010
0100
0010
,  // measure 28
1000
0100
1000
0100
,  // measure 29
0010
0100
0010
0100
,  // measure 30
0010
0001
0010
0001
,  // measure 31
1000
0001
1000
0001
,  // measure 32
2002
0000
0000
3003
,  // measure 33
0220
0000
0000
0330
,  // measure 34
0010
0100
0010
0100
,  // measure 35
0001
1000
0001
0000
,  // measure 36
0010
0001
0010
0001
,  // measure 37
1000
0010
1000
0010
,  // measure 38
0220
0000
0000
0330
,  // measure 39
0220
0000
0000
0330
,  // measure 40
0001
0010
0100
1000
,  // measure 41
0001
0010
0100
1000
,  // measure 42
0100
0010
0001
1000
,  // measure 43
0100
0010
0001
1000
,  // measure 44
2002
0000
0000
0000
,  // measure 45
3003
0000
0000
0000
;

//---------------dance-single - ----------------
#NOTES:
     dance-single:
     :
     Medium:
     6:
     0.377,0.402,0.170,0.450,0.000:
0000
0000
0000
0000
,
0000
0000
0000
0000
,
0000
0000
0000
0000
,
0000
0000
0000
0000
,
0000
0000
0000
0000
,
2000
3200
2300
3001
,
0002
0203
0302
0103
,
0200
0320
0230
0301
,
0002
2003
3002
1003
,
2002
0000
0000
0000
,
0000
0000
3003
1001
,
0002
0000
0203
0000
0302
0000
1003
0100
,
1000
0000
0010
0100
0010
0000
1000
0100
,
0010
0000
0010
0100
1000
0000
0010
0100
,
0010
0100
0010
0100
0001
0000
1000
0000
,
0002
0000
0023
0000
0032
0000
1003
0010
,
1000
0000
0010
0100
0010
0000
1000
0010
,
0100
0000
0100
0010
1000
0000
0100
0010
,
0100
0010
0100
0010
0001
0000
1000
0000
,
1200
0000
0320
0000
,
0032
0000
0000
0103
0000
0000
0000
0000
,
0210
0000
0000
0310
0000
1000
0001
0000
,
2000
0000
3100
0000
,
1001
0000
0001
0100
0001
0000
2000
0000
,
3100
0010
0100
1000
0100
0000
0010
0000
,
0001
0000
1000
0100
1000
0000
0001
0100
,
0002
1003
0010
0100
,
1001
0000
1000
0100
1000
0000
0002
0000
,
0103
0010
0100
0001
0100
0000
0010
0000
,
1000
0000
0100
1000
0100
0000
1000
0010
,
2000
3001
1001
1000
,
1200
0000
1300
0001
,
0020
0000
0031
1000
,
1001
0000
0010
0001
0010
0000
0001
1000
,
0020
1000
1030
0001
,
1001
0000
0010
1000
0010
0000
1000
0001
,
0020
0100
0130
1000
,
1100
0000
0000
1100
0000
0000
0000
0000
,
0220
0000
0330
0000
,
1000
0010
0100
0000
0100
0000
0001
0000
,
1000
0100
0010
0000
0010
0000
0001
0000
,
1000
0010
0100
0000
0100
0000
0001
0000
,
1000
0100
0010
0000
0010
0000
0001
0000
,
2002
0000
0000
0000
,
3003
0000
0000
0000
;

//---------------dance-single - ----------------
#NOTES:
     dance-single:
     :
     Hard:
     9:
     0.482,0.482,0.243,0.584,0.164:
0000
0000
0000
0000
,
0000
0000
0000
0000
,
0000
0000
0000
0000
,
0000
0000
0000
0000
,
0000
0000
0000
0000
,
2000
0000
0000
3002
0000
0000
0203
0000
0000
0302
0000
0000
0003
0000
0000
0000
,
0020
0000
0000
0230
0000
0000
2300
0000
0000
3002
0000
0000
0003
0000
0000
0000
,
0020
0000
0000
0032
0000
0000
2003
0000
0000
3020
0000
0000
0030
0000
0000
0000
,
2000
0000
0000
3200
0000
0000
0320
0000
0000
0230
0000
0000
1300
0000
0000
0000
,
0220
0000
0000
0000
,
0000
0000
0330
0110
,
0001
0000
0000
0001
0010
0000
0000
0010
0100
0000
0000
0000
1000
0000
0010
0000
,
0100
0000
1000
0000
0100
0000
0010
0000
1000
0000
0001
0000
1000
0000
0001
0200
,
0000
0000
0300
0000
0001
0000
1000
0200
0000
0000
0300
0000
1000
0000
0001
0000
,
1000
0100
0001
0100
1000
0010
0100
0000
,
0001
0000
0000
0001
0100
0000
0000
0100
0010
0000
0000
0000
1000
0000
0100
0000
,
0010
0000
1000
0000
0010
0000
0100
0000
1000
0000
0000
0000
0001
0000
0100
0020
,
0000
0000
0030
0000
1000
0000
0100
0020
0000
0000
0030
0000
0001
0000
1000
0000
,
0001
0100
1000
0100
0001
0010
0100
0000
,
2000
0000
0010
0000
0000
0010
0000
0000
3020
0000
0000
0100
0000
0000
0130
0000
,
0002
0000
0010
0000
0000
0010
0000
0000
0023
0000
0000
0100
0000
0000
0130
0000
,
2000
0000
0010
0000
0000
0010
0000
0000
3020
0000
0000
0100
0000
0000
0130
0000
,
0220
0000
0330
1001
,
1100
0000
0000
0100
0000
0000
1100
0000
0000
0000
2002
0000
0000
0000
3003
0000
,
0001
1000
0100
0001
0100
1000
0001
0000
,
0010
0000
0010
0001
0100
0010
1000
0100
,
0020
0000
0001
0031
0000
1000
0001
0100
,
0101
0000
0000
0100
0000
0000
0101
0000
0000
0000
2002
0000
0000
0000
3003
0000
,
1000
0001
0010
1000
0010
0001
1000
0000
,
0100
0000
0100
1000
0010
0100
0001
0010
,
0002
0000
0100
0103
0000
0001
1000
0100
,
2200
0300
3001
0000
,
0002
0000
1003
0010
,
0110
0000
0000
0000
0001
0000
1000
0010
0000
0000
1000
0000
0001
0000
0010
0000
,
0100
0001
0100
1000
0001
0000
0100
0001
,
1001
0000
0000
1000
0000
0000
1001
0000
0000
0000
0220
0000
0000
0000
0330
0000
,
0100
0010
0001
0010
0100
0000
1000
0001
,
0202
0000
0300
2000
0000
0000
3003
0000
,
0101
0000
0000
0101
0000
0000
0202
0000
0000
0000
0000
0000
0303
0000
0000
0000
,
0001
1000
0100
0010
0100
1000
0001
0100
,
0001
0010
0100
0001
0100
1000
0001
0000
,
1000
0001
0100
0010
0100
0001
1000
0010
,
0100
1000
0100
0001
1000
0100
0010
0001
,
0220
0000
0000
0000
,
0330
0000
0000
0000
;

//---------------dance-single - ----------------
#NOTES:
     dance-single:
     :
     Challenge:
     11:
     0.581,0.589,0.669,0.292,0.426:
0000
0000
0000
0000
,
0000
0000
0000
0000
,
0000
0000
0000
0000
,
0000
0000
0000
0000
,
0000
0000
0000
0000
,
0011
0000
0000
1001
0000
0000
0011
0000
0000
1001
0000
0000
1000
0000
0100
0000
,
1100
0000
0000
1001
0000
0000
1100
0000
0000
1001
0000
0000
0001
0000
0000
0000
,
0101
0000
0000
0110
0000
0000
0101
0000
0000
0110
0000
0000
0100
0000
1000
0000
,
1100
0000
0000
0110
0000
0000
1100
0000
0000
0110
0000
0000
1100
0000
0000
0000
,
2002
0000
0000
0000
,
0000
0000
0000
0000
3000
1000
1003
0000
,
1001
0000
0000
0001
1000
0000
0000
1000
0100
0000
0000
0000
0100
0000
1000
0000
,
0001
0000
0100
0000
0001
0000
1000
0001
1000
0000
0100
0000
0010
0000
0100
1000
,
0200
0000
0000
0000
1300
0000
0001
0100
0002
0000
0000
0000
1003
0000
0100
0000
,
0010
0000
0001
0000
0100
0000
1000
0000
0100
0000
0001
0000
1000
0000
0100
1000
,
0100
0000
0000
0100
1000
0000
0000
1000
0001
0000
0000
0000
0001
0000
0100
0000
,
0001
0000
1000
0000
0100
0000
1000
0001
1000
0000
0100
0000
0010
0000
0001
0100
,
0002
0000
0000
0000
1003
0000
0100
1000
0200
0000
0000
0000
1300
0000
0001
0000
,
0010
0100
1000
0001
0100
0001
1000
0100
,
1100
0000
1000
0000
0000
1001
0000
0000
0001
0000
0000
0011
0000
0000
0010
0000
,
0000
0000
0110
0000
0000
0100
0000
0000
1100
0000
0000
1000
0000
0000
1001
0000
,
0000
0000
2000
0000
0000
0010
0000
0000
0010
0000
0000
0010
0000
0000
3010
0000
,
0200
0000
0000
0000
0000
0000
0001
0000
0000
0000
0000
0000
0000
0000
0000
0001
0000
0000
0000
0000
0000
0000
0000
0000
0301
0000
0000
0000
1000
0000
0000
0000
0100
0000
0000
0000
1000
0000
0000
0000
0000
0000
0000
0000
0000
0000
0000
0000
,
1001
0000
0000
1100
0000
0000
1001
0000
0000
0000
0001
1000
0200
0000
0000
0000
,
1300
0000
0000
1100
0000
0000
1001
0000
0000
0000
1000
0001
0200
0000
0000
0000
,
0301
0000
0000
0101
0000
0000
1001
0000
0000
0000
0100
0000
0000
0100
0000
0000
,
0110
0000
0000
1010
0000
0000
0101
0000
0000
0000
0010
0100
0010
0000
1000
0001
,
1000
0000
0000
1100
0000
0000
1001
0000
0000
0000
1000
0001
0020
0000
0000
0000
,
0031
0000
0000
0011
0000
0000
1001
0000
0000
0000
0001
1000
0020
0000
0000
0000
,
1030
0000
0000
1010
0000
0000
1001
0000
0000
0000
0010
0000
0000
0010
0000
0000
,
0110
0000
0000
0101
0000
0000
1010
0000
1000
0000
0001
0010
0001
0010
0100
1000
,
0200
0000
0000
0010
0000
0000
0310
0000
2002
0000
0000
0000
3003
0000
0000
0000
,
0002
0000
0000
0100
0000
0000
0103
0000
1001
0000
0000
0000
1100
0000
0000
0000
,
1001
0000
0000
0000
1000
0000
0001
0100
0001
0000
1000
0000
0100
0000
0001
0000
,
0100
0000
1000
0000
0001
0000
0010
0001
0010
0000
0001
1000
0001
0000
1000
0000
,
1100
0000
0000
0011
0000
0000
1001
0000
0000
0000
1000
0001
0200
0000
0000
0000
,
0301
0000
1000
0000
0010
0000
0001
0000
0010
0000
1000
0000
0001
0000
0100
0010
,
0200
0000
0000
0020
0000
0000
0330
0000
,
1001
0000
0000
0000
0000
0000
0000
0000
0000
1001
0000
0000
0000
0000
0000
0000
0000
0000
1001
0000
0000
0000
0000
0000
1000
0000
0000
0000
0100
0000
0000
0000
0010
0000
0000
0000
0002
0000
0000
0000
0000
0000
0000
0000
0000
0000
0000
0000
,
1003
0000
0100
0000
1000
0001
0000
0001
0100
0000
0010
1000
0020
0000
0000
0000
,
0130
0000
0001
0000
1000
0100
0000
0100
0010
0000
0100
1000
0200
0000
0000
0000
,
0310
0000
0001
0000
1000
0001
0000
0001
0100
0000
0010
1000
0010
0000
0100
0000
,
0001
0000
1000
0000
0100
1000
0000
1000
0001
0000
0100
0001
0100
0000
0001
0000
,
2002
0000
0000
0000
,
3003
0000
0000
0000
;

//---------------dance-single - ----------------
#NOTES:
     dance-single:
     :
     Beginner:
     1:
     0.111,0.157,0.122,0.000,0.000:
0000
0000
0000
0000
,
0000
0000
0000
0000
,
0000
0000
0000
0000
,
0000
0000
0000
0000
,
0000
0000
0000
0000
,
1000
0000
0000
0000
,
0100
0000
0000
0000
,
0010
0000
0000
0000
,
0001
0000
0000
0000
,
1001
0000
0000
0000
,
0000
0000
0000
0000
,
0100
0000
1000
0000
,
0100
0000
0000
0000
,
0010
0000
0001
0000
,
0010
0000
0000
0000
,
0001
0000
1000
0000
,
0001
0000
0000
0000
,
1000
0000
0001
0000
,
1000
0000
0000
0000
,
0110
0000
0000
0000
,
0010
0000
0000
0000
,
0100
0000
0000
0000
,
0010
0000
0000
0000
,
1001
0000
0000
0000
,
1000
0000
0001
0000
,
0100
0000
0001
0000
,
1000
0000
0000
0000
,
1001
0000
0000
0000
,
0001
0000
1000
0000
,
0010
0000
1000
0000
,
0001
0000
0000
0000
,
1001
0000
0000
0000
,
1000
0000
0000
0000
,
1001
0000
0001
0000
,
1000
0000
0100
0000
,
1001
0000
1000
0000
,
0001
0000
0100
0000
,
1001
0000
0000
0000
,
0110
0000
0000
0000
,
0010
0000
0010
0000
,
0100
0000
0100
0000
,
0010
0000
0010
0000
,
0100
0000
0100
0000
,
1001
0000
0000
0000
;
