#TITLE:LOVE B.B.B;
#SUBTITLE:;
#ARTIST:SWAN K feat. Asuka M;
#TITLETRANSLIT:;
#SUBTITLETRANSLIT:;
#ARTISTTRANSLIT:;
#CREDIT:DigiMindAxel;
#BANNER:LOVE B.B.B.png;
#BACKGROUND:LOVE B.B.B-bg.png;
#LYRICSPATH:;
#CDTITLE:beatmania IIDX.png;
#METERTYPE:DDR X;
#MUSIC:LOVE B.B.B.ogg;
#OFFSET:-11.824;
#SAMPLESTART:33.962;
#SAMPLELENGTH:12.000;
#SELECTABLE:YES;
#BPMS:0.000=173.000;
#STOPS:;
#BGCHANGES:;

//---------------dance-single - ----------------
#NOTES:
     dance-single:
     :
     Easy:
     5:
     0.223,0.312,0.102,0.153,0.000:
0001
0000
0100
0000
,
0001
0000
1000
0000
,
0001
0000
0100
0000
,
0001
0000
1000
0000
,
0100
0000
1000
0000
,
0001
0000
1000
0000
,
0020
0000
0000
0000
,
0000
0030
0000
0000
,
1001
0000
0000
1000
,
0000
0000
0001
0000
,
0010
0000
0000
0100
,
0000
0000
1000
0000
,
0001
0000
0000
0100
,
0000
0000
0001
0000
,
1000
0000
0000
0010
,
0000
0000
1000
0000
,
1001
0000
0001
0000
,
1000
0001
1000
0000
,
1001
0000
0001
0000
,
1000
0001
1000
0000
,
1001
0000
1000
0000
,
0001
1000
0001
0000
,
0020
0000
0200
0000
,
0000
0000
0000
0330
,
0100
1000
0100
0000
,
1000
0001
0100
0000
,
0001
0000
0010
0000
,
0100
0000
1000
0000
,
0001
0100
0001
0000
,
1000
0100
1000
0000
,
0002
0000
2003
0000
,
3010
0100
0001
0100
,
0010
0000
0010
1000
,
0001
0000
0001
0010
,
0100
0000
0100
0000
,
0100
1000
0010
0100
,
0002
0000
2003
0000
,
3200
0000
0320
0000
,
0032
0000
0203
0000
,
0320
0000
0230
0000
,
0301
0000
0001
1000
,
0001
0000
1000
0000
,
0010
0000
0010
0100
,
0010
0000
0100
0000
,
0001
0000
0001
1000
,
0001
0000
1000
0000
,
0100
0000
0100
1000
,
0100
0000
0010
0000
,
1001
0000
0000
0000
,
0001
0000
0000
0000
,
1000
0000
0000
0000
,
0001
0000
0000
0000
,
0100
0000
0000
0000
,
0010
0000
0000
0000
,
2000
0000
0000
0000
,
0000
0000
0000
3000
,
1001
0000
0001
0000
,
1000
0100
0010
0000
,
1001
0000
1000
0000
,
0010
0100
0001
0000
,
1001
0000
0001
0000
,
0100
0010
1000
0000
,
0001
0010
0001
0010
,
0100
1000
0100
1000
,
1001
0000
0001
0000
,
0100
0010
1000
0000
,
1001
0000
1000
0000
,
0010
0100
0001
0000
,
1001
0000
0001
0000
,
0010
0100
1000
0000
,
0002
0000
0203
0000
,
0010
0000
0310
0000
,
2002
0000
0000
0000
,
0000
0000
3003
0000
;

//---------------dance-single - ----------------
#NOTES:
     dance-single:
     :
     Medium:
     8:
     0.365,0.500,0.263,0.212,0.000:
1000
0000
0010
0000
,
0100
0000
0110
0000
,
1001
0000
0100
0000
,
0011
0000
0001
0000
,
0110
0000
0010
0000
,
0100
0000
0101
0000
,
2002
0000
0000
0000
,
0000
0000
0000
3003
,
1001
0000
0000
1000
0000
0000
1010
0000
,
0000
0100
0000
0000
0101
0000
0000
0000
,
0001
0000
0000
1000
0000
0000
1100
0000
,
0000
0010
0000
0000
0110
0000
0000
0000
,
0001
0000
0000
1000
0000
0000
1100
0000
,
0000
0010
0000
0000
0011
0000
0000
0000
,
0001
0000
0000
1000
0000
0000
1100
0000
,
0000
0100
0000
0000
0110
0000
0000
0000
,
1001
0000
0001
0000
0001
0000
0000
0100
,
0000
0100
0000
0010
1000
0000
1000
0000
,
0100
0000
0010
0000
0010
0000
0000
0001
,
0000
0001
0000
0100
0010
0000
1000
0000
,
0001
0000
0010
0000
0010
0000
0000
0100
,
0000
0100
0000
1000
0001
0000
0001
0000
,
2000
0000
0200
0000
,
0000
0000
0000
3300
,
1001
0001
0100
0010
,
1000
0100
0010
0000
0001
0010
0100
0000
,
1000
0000
0000
0100
1000
0000
0000
0000
,
0000
0020
0000
0000
0230
0000
0000
0301
,
0000
1000
0000
0000
0010
0000
0000
0100
,
0000
0001
0000
0000
0010
0000
0000
0100
,
1000
0000
0000
0010
0100
0000
0000
0000
,
0002
0203
2300
3200
,
0301
1000
0000
0100
1000
0000
1001
0000
,
0001
1000
0000
0100
1000
0000
1001
0000
,
0001
1000
0000
0100
1000
0000
1001
0000
,
0100
0010
0001
1000
,
0020
0230
0302
0023
,
2030
3020
0032
2003
,
3000
0001
0000
0000
0100
0000
0000
0000
,
0010
0000
1000
0000
,
0100
0000
0010
0000
0001
1000
0100
0000
,
1000
0100
0001
0100
,
1000
0000
0010
0000
0100
0001
0010
0000
,
0001
0010
1000
0010
,
0001
0000
0100
0000
0010
1000
0100
0000
,
1000
0100
0001
0100
,
1000
0000
0001
0000
0100
0010
1000
0000
,
0010
0000
0100
0000
0001
1000
0100
0000
,
1001
0000
1000
0000
,
0000
0100
0000
0000
0010
0000
0000
0000
,
0001
0000
1001
0000
,
0001
0000
0000
0100
0000
0000
0010
0000
,
1000
0000
1001
0000
,
1000
0000
1001
0000
,
0200
0000
0000
0000
,
0000
0000
0000
0310
,
1001
0000
0001
0100
0001
0000
0000
1000
,
0000
1000
0000
0010
0100
0000
0001
0000
,
1001
0000
1000
0100
1000
0000
0000
0001
,
0000
0001
0000
0010
0100
0000
0100
0000
,
1001
0000
1000
0010
1000
0000
0000
0001
,
0000
0001
0000
0100
0010
0000
0010
0000
,
2000
0000
0100
3200
0000
0000
1300
0000
,
0020
0000
0001
0032
0000
0000
0013
0000
,
1001
0000
1000
0010
1000
0000
0000
0100
,
0000
0100
0000
0010
0001
0000
0100
0000
,
0110
0000
0010
1000
0010
0000
0000
1000
,
0000
1000
0000
0001
0010
0000
0100
0000
,
1100
0000
1000
0001
1000
0000
0000
0010
,
0000
0010
0000
0100
0001
0000
0010
0000
,
0100
1000
0010
0000
0100
0001
0010
0000
,
0100
0000
1000
0000
0001
0100
0010
0000
,
0220
0000
0000
0000
,
0000
0000
0330
0000
;

//---------------dance-single - ----------------
#NOTES:
     dance-single:
     :
     Hard:
     11:
     0.498,0.531,0.221,0.399,0.115:
1200
0000
1000
0000
,
1000
0000
2300
0000
,
3020
0000
0100
0000
,
0230
0000
0001
0000
,
0302
0000
1000
0000
,
1000
0000
2003
0000
,
3020
0032
0023
2030
,
3002
0000
0000
1003
,
1001
0000
0001
0100
0000
0001
2000
0000
,
0000
3100
0000
0000
0010
0001
0100
0000
,
0010
0000
1000
0001
0000
0010
0002
0000
,
0000
1003
0000
0000
0001
0100
0010
0000
,
0100
0000
0001
1000
0000
0100
2000
0000
,
0000
3001
0000
0000
1000
0100
0010
0000
,
0001
0000
1000
0100
0000
0010
0200
0000
,
0000
1300
0000
0000
0001
0100
0010
0000
,
1001
0000
1000
0010
1000
0000
0001
1000
,
0000
0100
0000
0010
0100
1000
0001
0000
,
1001
0000
1000
0100
1000
0000
0010
0100
,
0000
0001
0000
1000
0010
0100
0001
0000
,
1001
0000
1000
0010
1000
0000
0001
1000
,
0000
0100
0000
0010
0100
1000
0010
0000
,
0201
0000
0020
0000
,
0000
0000
0000
0330
,
0100
1000
0100
1000
0001
0100
0001
0100
,
0002
0023
2030
3020
,
0032
0000
0000
1000
2003
0000
0000
0000
,
3000
0000
0001
0000
0000
0100
0000
0000
0010
0000
0000
1000
0000
0000
0001
0000
,
0000
0000
1000
0000
0000
0010
0000
0000
0001
0000
0000
0010
0000
0000
1000
0000
,
0000
0000
0001
0000
0000
0010
0000
0000
1000
0000
0000
0010
0000
0000
0001
0000
,
0200
0000
0000
0010
0310
0000
0000
0000
,
1000
0100
1000
0100
0001
0100
1000
0000
,
0001
0001
0010
0100
0100
0010
0001
0000
,
1000
1000
0010
0100
0100
0010
1000
0000
,
0100
0100
0010
0001
0001
0100
0010
0000
,
1000
1000
0001
0001
0010
0010
0100
0100
,
2000
3020
0032
0023
,
2030
3200
0320
0032
,
0003
0000
0100
0000
0000
0010
0000
0000
1000
0000
0000
0001
0000
0000
0010
0000
,
0100
0000
0000
1000
0000
0000
0010
0000
0100
0000
0000
0001
0000
0000
1000
0000
,
0200
0000
1000
0000
1300
0000
0000
0000
0010
0000
0000
0100
0000
0000
0001
0000
,
0000
0000
0010
0000
0000
0100
0000
0000
1000
0000
0000
0001
0000
0000
0100
0000
,
0002
0000
1000
0000
1003
0000
0000
0000
0001
0000
0000
0100
0000
0000
0010
0000
,
0000
0000
1000
0000
0000
0100
0000
0000
0001
0000
0000
0100
0000
0000
1000
0000
,
0200
0000
0010
0000
0310
0000
0000
0000
0001
0000
0000
1000
0000
0000
0100
0000
,
0000
0000
1000
0000
0000
0010
0000
0000
0001
0000
0000
0010
0000
0000
1000
0000
,
0200
0000
0010
0000
0310
0000
0000
0000
0001
0000
0000
1000
0000
0000
0100
0000
,
0000
0000
0010
0000
0000
0100
0000
0000
1000
0000
0000
0001
0000
0000
0100
0000
,
0101
0000
1001
0000
,
0000
0000
1010
0000
0000
0010
0000
0000
0110
0000
0000
0010
0000
0000
1010
0000
,
0000
0000
1001
0000
,
0001
0010
0100
1000
0001
0010
0100
1000
,
0001
0000
0000
0000
0000
0000
0000
0000
1001
0000
0000
1000
0000
0000
1001
0000
,
0000
0000
0011
0000
0000
0010
0000
0000
0110
0000
0000
0010
0000
0000
0011
0000
,
0200
2300
3020
0230
,
0302
0000
0000
1003
,
1001
0000
1000
1000
0010
0000
1000
0001
,
0000
0100
0000
1000
0100
0001
0010
0000
,
1001
0000
1000
1000
0100
0000
1000
0001
,
0000
0010
0000
1000
0010
0001
0100
0000
,
1001
0000
0001
0001
0100
0000
0001
0100
,
0000
1000
0000
0100
0001
0010
0100
0000
,
1020
0000
0100
0200
0000
0000
0330
0000
,
0201
0000
0010
0020
0000
0000
0330
0000
,
1001
0000
0001
1000
0100
0000
0001
0100
,
0000
1000
0000
0001
0010
0100
0010
0000
,
1001
0000
1000
0001
0010
0000
1000
0010
,
0000
0001
0000
0010
0100
1000
0001
0000
,
1001
0000
1000
0001
0100
0000
1000
0100
,
0000
0001
0000
1000
0010
0100
0001
0000
,
1000
0100
0001
0100
1000
0000
1000
0000
,
0001
0010
1000
0010
0001
0000
0001
0000
,
2002
0000
0000
0000
,
0000
0000
3003
0000
;

//---------------dance-single - ----------------
#NOTES:
     dance-single:
     :
     Challenge:
     14:
     0.733,0.749,0.569,0.476,0.472: // measure 1
1000
0100
1000
0000
0001
0000
0100
0000
,  // measure 2
1000
0100
1000
0000
0100
0000
0001
0000
,  // measure 3
0010
0100
0010
0000
0001
0000
1000
0000
,  // measure 4
0010
0100
0010
0000
1000
0000
0001
0000
,  // measure 5
1000
0100
1000
0000
0001
0000
0010
0000
,  // measure 6
1000
0010
1000
0000
0010
0000
0001
0000
,  // measure 7
0100
0001
0100
0001
0100
0010
0100
0010
1000
0100
1000
0100
,  // measure 8
2000
0000
0000
3001
,  // measure 9
1002
0000
0010
0013
0000
0100
0110
0000
,  // measure 10
1000
1100
0000
0000
0100
0010
0001
0000
,  // measure 11
2001
0000
0010
3010
0000
0100
0110
0000
,  // measure 12
0001
0101
0000
0000
0100
0010
1000
0000
,  // measure 13
1002
0000
0010
0013
0000
0100
0110
0000
,  // measure 14
1000
1100
0000
0000
0100
1000
0001
0000
,  // measure 15
0201
0000
0010
0310
0000
1000
1100
0000
,  // measure 16
0010
0110
0000
0000
0001
0100
0010
0000
,  // measure 17
1001
1000
0100
0010
0001
0000
0200
0001
,  // measure 18
0000
0301
0000
1000
0100
0001
0100
0000
,  // measure 19
1001
1000
0100
0010
0001
0000
0200
0010
,  // measure 20
0000
0310
0000
1000
0100
0001
0100
0000
,  // measure 21
1001
1000
0010
0100
0001
0000
0020
0100
,  // measure 22
0000
0130
0000
1000
0010
0001
0010
0000
,  // measure 23
2002
0003
0200
3300
,  // measure 24
1000
0001
1000
0001
1000
0001
1000
0001
1000
0001
1000
0001
1000
0000
0000
0000
,  // measure 25
0001
1000
0100
0010
0001
1000
0100
0010
,  // measure 26
0001
0000
1000
0010
1000
0000
0010
0100
0010
0000
0100
0001
0100
0000
0001
0000
,  // measure 27
2000
0000
0000
0000
3001
0000
1000
0100
0020
0000
0000
0000
0130
0000
0000
0000
,  // measure 28
1000
0000
0001
0000
0100
0001
0000
0100
0001
0000
1000
0100
0000
1000
0100
0000
,  // measure 29
0010
0000
0001
0100
0000
0001
0000
0000
0100
0010
0000
0100
0000
0000
1001
0000
,  // measure 30
0000
0000
0001
1000
0000
0001
0000
0000
1000
0100
0000
1000
0000
0000
0001
0000
,  // measure 31
0200
0000
0302
1000
2003
0000
3100
0000
,  // measure 32
0010
0001
0010
0000
0001
1000
0001
0000
1000
0010
1000
0000
0001
1000
0001
0000
,  // measure 33
0100
0020
0000
0000
0130
0000
1000
0200
0000
0000
1300
0000
0001
1000
0001
0000
,  // measure 34
0100
0002
0000
0000
0103
0000
0010
0200
0000
0000
0310
0000
1000
0001
1000
0000
,  // measure 35
0100
2000
0000
0000
3100
0000
0010
0200
0000
0000
0310
0000
0001
1000
0001
0000
,  // measure 36
0010
0001
0010
0000
0001
1000
0001
0000
1000
0100
1000
0000
0001
1000
0001
0000
,  // measure 37
0010
0001
0010
0001
0100
0010
1000
0010
0100
0001
1000
0100
,  // measure 38
0010
0100
1000
0001
0010
1000
0010
0001
1000
0100
0010
0001
,  // measure 39
0000
0000
2000
0000
0000
3020
0000
0000
0032
0000
0000
0023
0000
0000
1030
0000
,  // measure 40
0002
0000
0000
0203
0000
0000
1300
0000
0200
0000
0000
0302
0000
0000
1003
0000
,  // measure 41
0001
0000
0100
0000
0110
0000
0000
0000
1010
0000
0000
0110
0000
0000
0101
0000
,  // measure 42
0000
0000
1001
0000
0000
0011
0000
0000
1001
0000
0000
1100
0000
0000
1001
0000
,  // measure 43
0001
0000
0010
0000
0110
0000
0000
0000
1100
0000
0000
1001
0000
0000
0011
0000
,  // measure 44
0000
0000
1001
0000
0000
1010
0000
0000
0110
0000
0000
0101
0000
0000
1001
0000
,  // measure 45
1000
0000
0010
0000
0110
0000
0000
0000
0101
0000
0000
0110
0000
0000
1010
0000
,  // measure 46
0000
0000
1001
0000
0000
0011
0000
0000
0110
0000
0000
1100
0000
0000
1001
0000
,  // measure 47
1000
0000
0100
0000
0110
0000
0000
0000
0011
0000
0000
1001
0000
0000
1100
0000
,  // measure 48
0000
0000
1001
0000
0000
0101
0000
0000
0110
0000
0000
1010
0000
0000
1001
0000
,  // measure 49
0011
0000
0010
0000
0010
0000
0000
0000
0001
0000
0000
0100
0000
0000
0010
0000
,  // measure 50
0000
0000
2000
0000
0000
3020
0000
0000
0032
0000
0000
0023
0000
0000
2030
0000
,  // measure 51
0000
3000
0010
0000
0010
0000
0000
0000
0100
0000
0000
0001
0000
0000
1000
0000
,  // measure 52
0000
0000
0002
0000
0000
0203
0000
0000
2300
0000
0000
3200
0000
0000
0302
0000
,  // measure 53
0000
0003
0010
0000
0010
0000
0000
0000
0100
0000
0000
0010
0000
0000
0001
0000
,  // measure 54
0000
0000
2000
0000
0000
3200
0000
0000
0302
0000
0000
0203
0000
0000
1300
0000
,  // measure 55
0001
0100
0001
0100
0001
0010
1000
0010
0001
0010
0100
1000
,  // measure 56
0200
0000
0000
0310
,  // measure 57
2001
0000
3100
0100
1100
0000
0020
0100
,  // measure 58
0000
0130
0000
0001
0010
1000
0010
0000
,  // measure 59
1002
0000
0010
0013
0011
0000
0200
0010
,  // measure 60
0000
0310
0000
1000
0100
0001
0100
0000
,  // measure 61
2001
0000
0010
3010
0110
0000
0002
0100
,  // measure 62
0000
0103
0000
0001
0010
1000
0010
0000
,  // measure 63
0001
1000
0001
0000
0010
0000
0100
0000
1000
0000
0010
0000
0001
0000
0010
0000
,  // measure 64
1000
0001
1000
0000
0100
0000
0010
0000
0001
0000
0100
0000
1000
0000
0100
0000
,  // measure 65
0102
0000
1003
1000
1001
0000
0001
0100
,  // measure 66
1000
0000
0100
0000
0001
0000
1000
0100
1000
0100
1000
0000
0001
0000
0000
0000
,  // measure 67
0201
0000
0310
0010
0110
0000
1000
0100
,  // measure 68
0001
0000
0100
0000
1000
0000
0001
0100
0001
0100
0001
0000
1000
0000
0000
0000
,  // measure 69
1200
0000
0310
0010
0110
0000
0001
0100
,  // measure 70
1000
0000
0100
0000
0001
0000
1000
0010
1000
0010
1000
0000
0001
0000
0000
0000
,  // measure 71
1000
0000
0010
0000
1000
0001
0000
0000
0010
0000
0100
1000
0000
0100
1000
0000
,  // measure 72
0001
0000
0100
0001
0000
0100
0001
0000
1000
0100
0000
1000
0100
0000
0010
0000
,  // measure 73
2002
0000
0000
0000
,  // measure 74
0000
0000
3003
0000
;

//---------------dance-single - ----------------
#NOTES:
     dance-single:
     :
     Beginner:
     1:
     0.076,0.153,0.068,0.000,0.000:
0001
0000
0000
0000
,
0000
0000
0000
0000
,
1000
0000
0000
0000
,
0000
0000
0000
0000
,
0001
0000
0000
0000
,
0000
0000
0000
0000
,
0010
0000
0000
0000
,
0000
0000
0000
0000
,
1001
0000
0000
0000
,
0000
0000
0000
0000
,
1000
0000
0000
0000
,
0000
0000
0000
0000
,
0010
0000
0000
0000
,
0000
0000
0000
0000
,
1000
0000
0000
0000
,
0000
0000
0000
0000
,
1001
0000
0000
0000
,
0000
0000
0000
0000
,
0001
0000
0000
0000
,
0000
0000
0000
0000
,
0010
0000
0000
0000
,
0000
0000
0000
0000
,
0100
0000
0000
0000
,
0000
0000
0000
0000
,
1001
0000
0000
0000
,
1000
0000
0001
0000
,
1000
0000
0000
0000
,
0100
0000
0000
0000
,
0010
0000
0000
0000
,
0001
0000
0000
0000
,
0100
0000
0000
0000
,
0000
0000
0000
0000
,
1001
0000
0000
0000
,
0001
0000
0000
0000
,
1000
0000
0000
0000
,
0001
0000
0000
0000
,
0100
0000
0000
0000
,
0010
0000
0000
0000
,
1000
0000
0000
0000
,
0000
0000
0000
0000
,
1001
0000
0000
0000
,
0001
0000
0000
0000
,
1000
0000
0000
0000
,
0001
0000
0000
0000
,
1000
0000
0000
0000
,
0100
0000
0000
0000
,
1000
0000
0000
0000
,
0100
0000
0000
0000
,
1001
0000
0000
0000
,
0000
0000
0000
0000
,
1000
0000
0000
0000
,
0000
0000
0000
0000
,
0001
0000
0000
0000
,
0000
0000
0000
0000
,
1000
0000
0000
0000
,
0000
0000
0000
0000
,
1001
0000
0000
0000
,
0001
0000
0000
0000
,
1000
0000
0000
0000
,
0001
0000
0000
0000
,
1000
0000
0000
0000
,
0100
0000
0000
0000
,
1000
0000
0000
0000
,
1000
0000
0000
0000
,
0001
0000
0000
0000
,
0100
0000
0000
0000
,
0001
0000
0000
0000
,
1000
0000
0000
0000
,
0001
0000
0000
0000
,
0100
0000
0000
0000
,
0001
0000
0000
0000
,
0000
0000
0000
0000
,
1001
0000
0000
0000
;
