#TITLE:LINN 1999;
#SUBTITLE:;
#ARTIST:dj nagureo;
#TITLETRANSLIT:;
#SUBTITLETRANSLIT:;
#ARTISTTRANSLIT:;
#CREDIT:DigiMindAxel;
#BANNER:LINN 1999.png;
#BACKGROUND:LINN 1999-bg.png;
#LYRICSPATH:;
#CDTITLE:beatmania.png;
#MUSIC:LINN 1999.ogg;
#METERTYPE:DDR X;
#OFFSET:-4.026;
#SAMPLESTART:4.045;
#SAMPLELENGTH:12.000;
#SELECTABLE:YES;
#BPMS:0.000=136.000;
#STOPS:;
#BGCHANGES:;

//---------------dance-single - ----------------
#NOTES:
     dance-single:
     :
     Easy:
     4:
     0.218,0.234,0.041,0.082,0.000:
0001
0100
0001
0000
,
1000
0100
1000
0000
,
0010
0100
0010
0000
,
2000
0000
3002
0000
,
1003
0100
0010
0000
,
0100
1000
0010
0000
,
0100
0001
0010
0000
,
1001
0000
0000
0000
,
0010
0100
0010
0000
,
0100
0001
0100
0000
,
0010
1000
0001
0000
,
0100
0001
0010
0000
,
0100
1000
0100
0000
,
0010
0001
0010
0000
,
0100
0010
0100
0000
,
1000
0100
1000
0000
,
0001
0010
0100
0000
,
0010
0100
1000
0000
,
0002
0000
0000
0000
,
2000
0000
0000
3003
,
1000
0100
0010
0000
,
0100
0010
0001
0000
,
2000
0000
0000
0000
,
0002
0000
0000
3003
,
1001
0000
0000
0000
,
0100
0000
0000
0000
,
1001
0000
0000
0000
,
0100
0000
0000
0000
,
0010
0100
0010
0100
,
0001
1000
0001
1000
,
0100
1000
0100
1000
,
0010
0100
0001
0010
,
0001
1000
0001
1000
,
0001
0100
0001
0100
,
0010
1000
0010
1000
,
0100
0010
0100
0010
,
0001
0000
1000
0000
,
0001
0000
1000
0100
;

//---------------dance-single - ----------------
#NOTES:
     dance-single:
     :
     Medium:
     7:
     0.375,0.364,0.055,0.316,0.000:
0001
0000
0100
0000
0010
1000
0010
0000
,
1000
0000
0100
0000
0010
0001
0010
0000
,
0001
0000
1000
0000
0010
0100
0010
0000
,
2000
0000
3002
1003
,
0002
0103
0020
0130
,
0002
0103
0020
0130
,
0002
0103
0020
0130
,
1001
1000
0001
1000
,
0200
0010
0000
0010
,
0000
0010
0000
0310
,
0001
1000
0001
0100
,
0010
1000
0100
0010
,
0002
0100
0000
0100
,
0000
0100
0000
0103
,
0010
1000
0100
0010
,
0001
1000
0010
0100
,
0001
1000
0001
1000
0001
1000
0000
0010
,
0000
0100
0010
0100
0010
0100
0000
0001
,
2000
0000
0000
0000
,
3200
0000
0000
0320
0000
0000
0032
0000
,
1003
0001
1000
0001
1000
0001
0000
0100
,
0000
0010
0100
0010
0100
0010
0000
1000
,
0002
0000
0000
0000
,
0023
0000
0000
0230
0000
0000
2300
0000
,
3001
1000
0110
0001
,
1000
0001
0110
1000
,
0001
1000
0110
0001
,
2000
0000
0000
3000
,
0010
0100
0010
0000
1000
0100
1000
0000
,
0010
0100
0010
0000
1000
0100
1000
0000
,
0001
0010
0001
0000
0100
0010
0100
0000
,
0001
0010
0001
0000
1000
0010
1000
0000
,
0010
0100
0010
0000
1000
0010
1000
0000
,
0001
0100
0001
0000
0010
0100
0010
0000
,
0001
0100
0001
0000
1000
0100
1000
0000
,
0010
0100
0010
0000
0001
0010
0100
0000
,
2000
3010
0200
0310
,
2000
0000
3010
0000
0200
0000
0310
0010
;

//---------------dance-single - ----------------
#NOTES:
     dance-single:
     :
     Hard:
     9:
     0.481,0.443,0.082,0.179,0.007:
1000
0100
1000
0100
0010
0001
0100
0000
,
0001
0100
0001
0100
0010
1000
0100
0000
,
0010
0001
0010
0001
0100
0010
1000
0000
,
0001
2000
0000
3100
0010
0100
1000
1000
,
0001
0100
0010
0000
0100
0010
0100
0000
,
0010
1000
0100
0000
1000
0001
1000
0000
,
0001
0100
0010
0000
0100
0010
0100
0000
,
1001
1100
0011
1100
,
1002
0100
0010
0100
,
1000
0100
0010
1003
,
0001
0010
0100
0000
0010
0001
1000
0000
,
0010
1000
0100
0000
1000
0100
0010
0000
,
0002
0100
1000
0100
,
0000
1000
0000
1000
0000
1000
0000
1003
,
0010
0100
0001
0000
0010
0100
1000
0000
,
0100
1000
0010
0000
0100
0010
0100
0001
,
1000
0100
0001
0100
1000
0001
0000
0200
,
0000
0301
0010
1000
0010
0001
0000
1000
,
0020
0100
0001
0130
,
0002
0000
1000
1000
0000
1000
1003
0000
,
0001
1000
0100
0001
0100
1000
0000
0002
,
0000
1003
0010
0001
0010
1000
0000
0010
,
0200
0001
0010
0301
,
1000
0001
0001
1000
1000
0010
0100
0001
,
2000
0000
0100
0000
3100
0010
0010
0000
,
0002
0000
0100
0000
0103
0010
0010
0000
,
2000
0000
0010
0000
3010
0100
0100
0000
,
0002
0000
1000
0000
0000
1000
1003
0000
,
0001
0100
0001
1000
0100
1000
0010
0100
,
0010
1000
0100
0010
0001
1000
1000
0000
,
0010
0100
0001
0010
0001
0100
0010
0100
,
0001
0010
0100
1000
0010
0100
0110
0000
,
0001
0100
1000
0100
0001
1000
0010
0100
,
0001
0010
1000
0010
0001
0000
1000
0000
,
0001
0100
1000
0100
0001
0010
0100
1000
,
0001
0010
1000
0010
0001
0100
0010
0000
,
2000
0100
0010
0001
,
0010
0000
0000
0000
0100
0000
0000
0000
0010
0000
0000
0000
3001
0000
0001
1000
;

//---------------dance-single - ----------------
#NOTES:
     dance-single:
     :
     Challenge:
     11:
     0.607,0.574,0.137,0.179,0.144: // measure 1
0001
0100
1000
0100
0001
1000
1000
0001
,  // measure 2
1000
0100
0001
0100
1000
0001
0001
1000
,  // measure 3
0001
0010
1000
0010
0001
1000
1000
0001
,  // measure 4
0100
0000
0020
0000
0000
0000
1030
0000
0010
0000
0100
0000
0001
1000
0001
0000
,  // measure 5
1000
1000
0100
0100
1000
1000
0001
0001
,  // measure 6
1000
0100
1000
0100
0001
0100
0001
0100
,  // measure 7
1000
1000
0010
0010
0100
0100
0001
0001
,  // measure 8
1000
0000
0010
0100
0010
0000
1000
0010
1000
0010
1000
0010
1000
0000
0001
1000
,  // measure 9
0001
0010
0100
1000
0010
0100
0110
0000
,  // measure 10
1000
0100
0010
0001
0100
0010
0110
0000
,  // measure 11
1000
0100
0002
0000
0103
1000
0002
0000
,  // measure 12
1003
0000
0010
0000
0002
0000
0000
0000
0013
0000
1000
0001
1000
0001
1000
0000
,  // measure 13
0001
0100
0010
1000
0100
0010
0110
0000
,  // measure 14
0000
0011
0000
0110
0000
0011
0000
1001
,  // measure 15
1000
0010
0002
0000
0013
1000
0002
0000
,  // measure 16
1003
0000
0010
0100
0010
0000
1000
0001
1000
0001
1000
0010
1000
0000
0001
0100
,  // measure 17
0001
0100
1000
0100
0010
1000
0000
0100
,  // measure 18
0010
0001
0100
1000
0100
0010
0000
1000
,  // measure 19
0002
0010
1000
0013
,  // measure 20
0001
0000
1000
0000
0100
0000
0010
0000
0100
0000
1000
0001
1000
0000
0000
0000
,  // measure 21
0001
0010
1000
0010
0100
1000
0000
0001
,  // measure 22
1000
0100
0001
0100
0010
0001
0000
1000
,  // measure 23
0002
1000
0100
1003
,  // measure 24
0001
0000
1000
0010
1000
0000
0001
1000
0001
1000
0001
0010
0001
0000
1000
0100
,  // measure 25
1000
0000
1001
0000
0002
0010
0013
0000
,  // measure 26
0001
0000
1001
0000
2000
0010
3010
0000
,  // measure 27
1000
0000
1001
0000
0002
0100
0103
0000
,  // measure 28
0002
0000
1003
0000
0200
1000
1300
0000
,  // measure 29
0001
0010
1000
0010
0001
0100
0010
0100
,  // measure 30
0001
0010
1000
0010
0001
0100
0010
1000
,  // measure 31
0100
0010
0100
1000
0001
1000
0100
0010
,  // measure 32
0100
0000
1000
0000
0001
0000
1000
0000
0010
0000
0100
0000
0001
1000
0001
0000
,  // measure 33
1000
0100
0001
1000
0010
0001
1000
0010
,  // measure 34
1000
0100
0001
1000
0010
0001
1000
0000
,  // measure 35
0001
0100
1000
0001
0010
1000
0001
0010
,  // measure 36
0001
0100
1000
0001
0010
1000
0001
0100
,  // measure 37
0001
0001
0010
0010
0100
0100
1000
1000
,  // measure 38
0001
0000
0001
0000
0100
0000
0100
0000
0010
0000
0010
0000
1000
0000
1000
0001
;

//---------------dance-single - ----------------
#NOTES:
     dance-single:
     :
     Beginner:
     1:
     0.069,0.078,0.000,0.000,0.000:
1000
0000
0000
0000
,
1000
0000
0000
0000
,
1000
0000
0000
0000
,
1000
0000
0000
0000
,
0010
0000
0000
0000
,
0100
0000
0000
0000
,
0010
0000
0000
0000
,
0100
0000
0000
0000
,
0001
0000
0000
0000
,
0000
0000
0000
0000
,
1000
0000
0000
0000
,
0001
0000
0000
0000
,
1000
0000
0000
0000
,
0000
0000
0000
0000
,
0100
0000
0000
0000
,
0010
0000
0000
0000
,
0001
0000
0000
0000
,
1000
0000
0000
0000
,
0001
0000
0000
0000
,
0001
0000
0000
0000
,
1000
0000
0000
0000
,
0001
0000
0000
0000
,
1000
0000
0000
0000
,
1000
0000
0000
0000
,
0010
0000
0000
0000
,
0010
0000
0000
0000
,
0010
0000
0000
0000
,
0000
0000
0000
0000
,
1000
0000
0000
0000
,
0001
0000
0000
0000
,
1000
0000
0000
0000
,
0001
0000
0000
0000
,
0010
0000
0000
0000
,
0100
0000
0000
0000
,
1000
0000
0000
0000
,
0001
0000
0000
0000
,
1000
0000
0000
0000
,
0000
0000
0000
1000
;
