#TITLE:ラピストリアの約束;
#SUBTITLE:;
#ARTIST:positive MAD-crew;
#TITLETRANSLIT:LAPISTORIA NO YAKUSOKU;
#SUBTITLETRANSLIT:;
#ARTISTTRANSLIT:;
#CREDIT:DigiMindAxel;
#BANNER:LAPISTORIA NO YAKUSOKU.png;
#BACKGROUND:LAPISTORIA NO YAKUSOKU-bg.png;
#LYRICSPATH:LAPISTORIA NO YAKUSOKU.lrc;
#CDTITLE:pop'n music.png;
#MUSIC:LAPISTORIA NO YAKUSOKU.ogg;
#METERTYPE:DDR X;
#OFFSET:-10.077;
#SAMPLESTART:55.850;
#SAMPLELENGTH:12.000;
#SELECTABLE:YES;
#BPMS:0.000=186.000,240.000=93.000,252.000=186.000;
#STOPS:;
#BGCHANGES:;

//---------------dance-single - ----------------
#NOTES:
     dance-single:
     :
     Easy:
     6:
     0.269,0.332,0.117,0.215,0.000:
2000
0000
0010
0000
,
3020
0000
0100
0000
,
0230
0000
0001
0000
,
0301
1000
0001
0000
,
1000
0000
0100
0000
,
0010
0000
0001
0010
,
0200
0000
0010
0000
,
0310
0000
0000
0000
,
0001
0000
0100
0000
,
0010
0000
1000
0010
,
0200
0000
0010
0000
,
0310
0000
0000
0000
,
1000
0000
0001
0000
,
0010
0100
1000
0000
,
0002
0000
0100
0000
,
0103
0000
0010
1000
,
0002
0000
1000
0000
,
1003
0100
0010
0000
,
0002
0000
0100
0000
,
0203
0000
0010
0000
,
0320
0000
0000
0000
,
0000
1030
0100
0010
,
0002
0000
0000
0000
,
2003
0000
0000
0000
,
3002
0000
0000
0000
,
0000
0000
0203
0000
,
0320
0000
0030
0000
,
1000
0000
0001
0000
,
0010
0000
0100
1000
,
0100
0000
0010
0100
,
0010
0000
0001
0100
,
0001
0000
1000
0001
,
1000
0100
1000
0001
,
1000
0000
0000
0000
,
1001
0000
0110
0000
,
1001
0000
1001
0000
,
0001
0000
0100
0010
,
0100
0000
0001
1000
,
0001
0000
0100
0010
,
0100
0000
0001
0000
,
1000
0000
0100
1000
,
0100
0000
0010
0100
,
0010
0000
0100
1000
,
0100
0000
0010
0000
,
0001
0100
0010
0000
,
0100
0010
0100
0000
,
0010
1000
0100
0000
,
1000
0100
1000
0000
,
0100
0010
0001
0000
,
0010
0001
0010
0000
,
0001
0010
0100
0000
,
1000
0010
1000
0000
,
0001
0000
0001
0000
,
1000
0100
0010
0000
,
0001
0000
0001
0000
,
0010
0100
1000
0000
,
1001
0000
1001
0000
,
0110
0000
0110
0000
,
1001
0000
1001
0000
,
0110
0000
1001
0000
,
0002
0000
0023
0000
,
0032
0000
2003
0000
,
3020
0000
0230
0000
,
0320
0000
0000
0000
,
0130
0000
0000
0000
,
0001
1000
0100
0000
,
0010
0100
0010
0000
,
0001
0100
0010
0000
,
0100
0010
0100
0001
,
1000
0000
0100
0000
,
0010
0001
0010
0000
,
0001
0000
0100
0000
,
0010
0100
0010
0100
,
2002
0000
0000
0000
,
3003
0000
0000
0000
;

//---------------dance-single - ----------------
#NOTES:
     dance-single:
     :
     Medium:
     9:
     0.488,0.564,0.323,0.296,0.063: // measure 1
0101
0010
1000
0000
,  // measure 2
1100
0010
0001
0000
,  // measure 3
0110
1000
0001
0000
,  // measure 4
0010
0000
0001
0000
0100
0010
0100
0010
,  // measure 5
0100
0000
1001
0000
,  // measure 6
1100
0000
0000
0000
0010
0001
0010
0000
,  // measure 7
0100
0000
1000
0000
0010
0000
0100
0001
,  // measure 8
0100
0000
0001
0000
1000
0100
1000
0000
,  // measure 9
1001
0000
0101
0000
,  // measure 10
0110
0000
0010
1000
0010
0000
0100
0000
,  // measure 11
0001
1000
0001
0000
0010
0000
0100
0000
,  // measure 12
1100
0000
0000
1001
0000
0000
0001
0000
,  // measure 13
0101
1001
0000
0000
,  // measure 14
1010
0000
0100
0000
0001
0010
0100
0000
,  // measure 15
1020
0000
1000
0000
,  // measure 16
1030
0001
1000
0000
0010
0100
0001
0000
,  // measure 17
0201
0000
0001
0000
,  // measure 18
0301
1000
0001
0000
0010
0100
1000
0000
,  // measure 19
1200
0000
1300
0001
,  // measure 20
0021
0000
0031
1000
,  // measure 21
2002
0000
0000
0000
,  // measure 22
3003
0000
1000
0010
0100
0000
0001
0000
,  // measure 23
1002
0000
2003
0000
,  // measure 24
3200
0000
2300
0000
,  // measure 25
3001
1000
0010
1000
,  // measure 26
0001
1000
0010
0100
,  // measure 27
0001
0100
0010
1000
,  // measure 28
0100
0010
1100
1000
,  // measure 29
1100
0010
0001
1000
,  // measure 30
0010
0000
1000
0000
0001
0010
0001
0000
,  // measure 31
1000
0000
0010
0000
0100
0000
0001
1000
,  // measure 32
0010
0000
1000
0000
0001
0010
0001
0000
,  // measure 33
0100
0010
0100
0000
0010
0100
0010
0000
,  // measure 34
1000
0001
1000
0001
1000
0000
0000
0000
,  // measure 35
1100
0000
0000
0000
0010
0000
0001
0000
0000
0000
0100
0000
,  // measure 36
0010
0000
0000
0000
1000
0000
0100
0000
0000
0000
0000
0000
,  // measure 37
1001
0000
0001
0100
0000
0001
1000
0000
,  // measure 38
0100
0000
0010
0100
0000
1000
0010
0000
,  // measure 39
0100
0000
0001
1000
0000
0100
0010
0000
,  // measure 40
0001
1000
0001
0000
0010
0001
0010
0000
,  // measure 41
1001
0000
1000
0010
0000
1000
0001
0000
,  // measure 42
0010
0000
0100
0010
0000
0001
0100
0000
,  // measure 43
1001
0000
0001
0010
0000
0100
0010
0000
,  // measure 44
0001
0100
0001
0000
1000
0100
1000
0000
,  // measure 45
1002
0000
1003
0001
,  // measure 46
0200
0010
0320
1000
,  // measure 47
1030
0000
0001
0010
0000
0100
0010
0000
,  // measure 48
0001
1000
0001
1000
0100
0000
0010
0000
,  // measure 49
0002
0203
0320
2030
,  // measure 50
3002
0023
0230
0320
,  // measure 51
0031
0000
1000
0010
1000
0000
0001
0000
,  // measure 52
0010
0100
0000
1000
0010
0000
0100
0000
,  // measure 53
1001
0010
0100
1000
,  // measure 54
0011
0100
1001
0000
,  // measure 55
1001
0100
0010
0001
,  // measure 56
1010
0100
1001
0000
,  // measure 57
0011
0000
0000
0000
0100
0000
0010
0000
0000
0000
1000
0000
,  // measure 58
0001
0000
0000
0000
0100
0000
0001
0000
0000
0000
1000
0000
,  // measure 59
0010
0000
0000
0000
0100
0000
0010
0000
0000
0000
1000
0000
,  // measure 60
0001
0011
1001
0000
,  // measure 61
0100
0000
0000
0100
0000
0000
0100
0000
0010
0000
0000
0010
0000
0000
0010
0000
,  // measure 62
0100
0000
0000
0100
0000
0000
0100
0000
0020
0000
0000
0000
0130
0000
0000
0000
,  // measure 63
0001
0000
0000
0001
0000
0000
0010
0000
0100
0000
0000
0100
0000
0000
1000
0000
,  // measure 64
0010
0000
0000
0010
0000
0000
0100
0000
,  // measure 65
0001
0000
1000
0100
1000
0000
0001
1000
,  // measure 66
0001
0000
0100
0001
0000
0010
0100
0000
,  // measure 67
1000
0010
1000
0000
0020
0000
0100
0000
,  // measure 68
0130
0000
0001
0010
0000
0100
0010
0000
,  // measure 69
0001
0100
0001
0000
1000
0100
1000
0000
,  // measure 70
0002
0023
0230
2300
,  // measure 71
3002
0203
0320
2030
,  // measure 72
3010
0100
0010
0000
1000
0001
1000
0000
,  // measure 73
0100
1000
0010
0000
0100
0001
0010
0000
,  // measure 74
0220
0000
0000
0000
,  // measure 75
0330
0000
0000
0000
;

//---------------dance-single - ----------------
#NOTES:
     dance-single:
     :
     Hard:
     12:
     0.573,0.597,0.161,0.440,0.112: // measure 1
1000
0010
1000
0100
0010
0000
0010
0000
,  // measure 2
0001
0100
0001
0010
0100
0000
0100
0000
,  // measure 3
1000
0001
0010
0100
0010
0000
0010
0000
,  // measure 4
0001
1000
0010
0100
0001
0100
0010
0000
,  // measure 5
2010
0000
3020
0000
,  // measure 6
0230
0000
0000
0301
0000
0000
1000
0000
,  // measure 7
0200
0000
0000
0000
1300
0000
0010
0100
,  // measure 8
0001
0000
0010
0100
0000
1000
0010
0000
,  // measure 9
0201
0000
0320
0000
,  // measure 10
2030
0000
0000
3001
0000
0000
1000
0000
,  // measure 11
0100
0010
0001
0000
1000
0010
0000
1000
,  // measure 12
0001
0000
0000
0101
0000
0000
0100
0010
,  // measure 13
1000
1001
0000
0001
,  // measure 14
0010
0100
1000
0100
0010
0000
0001
0000
,  // measure 15
0201
0000
0010
0000
,  // measure 16
0301
0010
0100
0010
0001
0000
1000
0000
,  // measure 17
1020
0000
0100
0000
,  // measure 18
1030
0001
0100
0001
1000
0000
0100
0000
,  // measure 19
0010
0000
1001
0000
1000
0010
0000
1000
,  // measure 20
0001
0010
0001
1000
0010
0000
0100
0000
,  // measure 21
1002
0000
1000
0000
,  // measure 22
1003
0000
0001
0010
0100
0010
0001
0000
,  // measure 23
0201
0000
0320
0000
,  // measure 24
2030
0000
3002
0000
,  // measure 25
1003
0000
0001
0100
0001
0000
0100
0010
,  // measure 26
0100
0000
0001
1000
0100
0000
0010
0100
,  // measure 27
0010
0000
0001
0000
1000
0000
0100
0010
,  // measure 28
0100
0000
1000
0010
0100
0000
0001
0000
,  // measure 29
1001
0000
1000
0100
1000
0000
0001
0100
,  // measure 30
0001
0000
1000
0100
0010
0100
1000
0000
,  // measure 31
0010
0000
0100
0010
0100
0000
0001
1000
,  // measure 32
0100
0000
0010
0100
0010
0001
0100
0000
,  // measure 33
0010
0100
0010
1000
0100
0010
0001
1000
,  // measure 34
0100
0010
0100
0010
0001
0000
0000
0000
,  // measure 35
0100
0000
0001
0000
1000
0000
0100
0000
0001
0000
1000
0000
,  // measure 36
0010
0000
0001
0000
1000
0000
0010
0000
0000
0000
0000
0000
,  // measure 37
0101
0000
0100
0020
0000
0000
1000
0000
,  // measure 38
1030
0000
0001
0020
0000
0000
0100
0000
,  // measure 39
0130
0000
1000
0200
0000
0000
0010
0000
,  // measure 40
0310
0001
0100
0010
1000
0001
0010
0100
,  // measure 41
0010
0000
0001
0200
0000
0000
0010
0000
,  // measure 42
0310
0000
1000
0200
0000
0000
0010
0000
,  // measure 43
0310
0000
0001
2000
0000
0000
0100
0000
,  // measure 44
3100
0010
0001
1000
0010
0100
0010
1000
,  // measure 45
0002
0000
0010
0000
0013
0000
0100
1000
,  // measure 46
0020
0000
0100
0000
0130
0001
1000
0000
,  // measure 47
0200
0000
1000
2300
0000
0001
3001
0000
,  // measure 48
1000
0100
0010
0100
1000
0000
1010
0000
,  // measure 49
0020
0230
0302
0023
,  // measure 50
2030
3020
0032
2003
,  // measure 51
3020
0000
0100
0000
0130
0001
1000
0000
,  // measure 52
0001
0100
0000
0010
1000
0000
1100
0000
,  // measure 53
0010
0001
0100
1000
0100
0001
0010
0000
,  // measure 54
0100
1000
0010
0001
0010
1000
0100
0000
,  // measure 55
0010
0001
0100
1000
0100
0001
0010
0000
,  // measure 56
0100
1000
0010
0001
0010
1000
0100
0000
,  // measure 57
0010
0000
0001
0000
1000
0000
0100
0000
0001
0000
1000
0000
,  // measure 58
0010
0000
0001
0000
1000
0000
0100
0000
0010
0000
0001
0000
,  // measure 59
1000
0000
0100
0000
0001
0000
1000
0000
0010
0000
0001
0000
,  // measure 60
1000
0000
0100
1000
0100
0000
0011
0000
0000
0000
0000
0000
,  // measure 61
0002
0000
0000
0100
0000
0000
0103
0000
2001
0000
0000
0100
0000
0000
3100
0000
,  // measure 62
0020
0000
0000
0100
0000
0000
0130
0000
2000
0000
0000
0000
3020
0000
0000
0000
,  // measure 63
0230
0000
0000
0001
0000
0000
0301
0000
2001
0000
0000
0100
0000
0000
3100
0000
,  // measure 64
0010
0001
0010
0001
0100
0010
0100
0010
,  // measure 65
1000
0000
0001
0100
0010
0100
0001
0000
,  // measure 66
1001
0000
1000
0010
0000
0001
0010
0000
,  // measure 67
1000
0100
0010
0100
1000
0000
0010
0100
,  // measure 68
0010
0000
1000
0010
0000
0001
0010
0000
,  // measure 69
1000
0100
0010
0100
1000
0000
0001
0100
,  // measure 70
0002
0203
2300
3200
,  // measure 71
0302
0000
2003
0000
3002
0000
0013
0100
,  // measure 72
1000
0000
0010
0100
0010
0000
1000
0100
,  // measure 73
0001
0100
1000
0001
0010
0100
1000
0010
,  // measure 74
2020
0000
0000
0000
,  // measure 75
3030
0000
0000
0000
;

//---------------dance-single - ----------------
#NOTES:
     dance-single:
     :
     Challenge:
     15:
     0.787,0.863,0.592,0.072,0.377: // measure 1
1000
0100
0001
0100
1000
0001
0100
0001
,  // measure 2
1000
0010
0001
0010
1000
0100
1000
0001
,  // measure 3
0100
1000
0100
0001
0010
0100
0010
0001
,  // measure 4
0010
0000
1000
0000
0010
0000
0001
0000
0010
0000
0001
0000
1000
0001
1000
0001
,  // measure 5
1000
0000
1010
0000
0010
0100
0001
0000
,  // measure 6
0101
0000
0100
0010
1000
0000
0100
0000
,  // measure 7
1001
0000
0001
0000
0010
0100
1000
0000
,  // measure 8
1100
0000
0010
0001
1000
0000
0100
0000
,  // measure 9
0011
0000
0010
0000
0100
1000
0001
0000
,  // measure 10
0101
0000
0010
1000
0001
0000
0010
0000
,  // measure 11
0100
1000
1001
0000
0100
0101
0000
0001
,  // measure 12
2001
0000
0000
0000
0000
0000
0010
0000
0000
0000
3001
0010
0001
0010
0001
0000
,  // measure 13
1000
0000
1001
0000
1000
0100
0010
0000
,  // measure 14
0001
1000
0100
1000
0001
1000
0100
1000
,  // measure 15
0002
1000
0100
1003
,  // measure 16
0001
0100
0010
0100
0001
0100
0010
0100
,  // measure 17
0002
1000
0100
1003
,  // measure 18
0001
0010
0100
0010
0001
0010
0100
0010
,  // measure 19
0001
0000
1001
0000
0100
1100
0000
0000
,  // measure 20
0010
0001
0010
0001
1000
0100
1000
0100
1000
0001
1000
0001
0100
0001
0100
0001
,  // measure 21
0200
0000
0000
0010
0010
0000
0001
0000
,  // measure 22
0302
0000
0000
1000
1000
0000
0010
0000
,  // measure 23
0023
0000
0000
0100
0100
0000
1000
0000
,  // measure 24
2030
0001
0000
0001
0001
0000
0100
0000
,  // measure 25
3100
0000
0010
0001
0100
0001
0010
0001
,  // measure 26
0100
0000
0010
1000
0001
1000
0010
1000
,  // measure 27
0001
0000
1000
0100
0010
0100
1000
0001
,  // measure 28
0100
0000
0010
1000
0001
1000
0010
1000
,  // measure 29
1001
0000
0001
1000
0100
1000
0001
1000
,  // measure 30
0100
0000
0010
0001
1000
0001
0010
0001
,  // measure 31
1000
0000
0000
0000
0010
0000
0100
0000
0001
0000
0100
0000
0010
0100
0001
0000
,  // measure 32
1000
0000
0001
0100
1000
0100
0001
1000
,  // measure 33
0001
0100
0001
0000
1000
0001
1000
0000
0100
1000
0100
0000
1000
0001
1000
0000
,  // measure 34
0001
0100
0001
0000
1000
0010
1000
0010
0100
0000
0000
0000
0100
0000
0000
0000
,  // measure 35
1001
0000
1100
0000
0011
0000
1001
0000
0101
0000
1010
0000
,  // measure 36
1001
0000
1100
0000
0011
0000
1001
0000
0000
0000
0000
0000
,  // measure 37
1010
0000
0010
0100
0001
0100
0010
0000
,  // measure 38
0110
0000
0010
0100
1000
0100
0010
0000
,  // measure 39
0011
0000
0001
1000
0010
1000
0100
0000
,  // measure 40
1000
0000
0001
0100
0001
0000
0100
0010
0100
0000
0001
1000
0001
1000
0100
0000
,  // measure 41
1001
0000
0001
0100
0010
0100
0001
0000
,  // measure 42
0101
0000
0100
0001
0010
0100
1000
0000
,  // measure 43
1100
0000
1000
0010
0100
0001
0010
0000
,  // measure 44
0001
0000
1000
0010
1000
0000
0001
1000
0001
0000
0010
0001
0010
0001
0100
0000
,  // measure 45
1001
0000
1000
0010
1000
0001
1000
0100
,  // measure 46
0001
0100
1000
0001
0010
0100
1000
0000
,  // measure 47
1001
0000
0001
0010
1000
0010
0001
1000
,  // measure 48
0100
0010
0001
1000
0010
1000
0001
0000
,  // measure 49
1001
0000
0001
0100
1000
0100
0001
0010
,  // measure 50
0100
0010
0001
1000
0010
1000
0001
0000
,  // measure 51
1001
0000
1000
0001
0010
1000
0010
0001
,  // measure 52
1001
1001
0000
0110
0110
0000
1001
0000
,  // measure 53
0001
0000
0100
0000
0010
0100
0010
0100
0010
0000
0100
0000
0001
0000
0100
0000
,  // measure 54
0010
1000
0100
0000
0010
0000
0001
0000
1001
0000
1000
0000
0010
0100
0001
0000
,  // measure 55
1001
0000
1000
0000
0010
0100
0010
0000
1000
0000
0100
0000
0010
0100
0010
0000
,  // measure 56
0001
0000
0100
0000
0001
0000
1000
0000
0100
0010
0100
0010
0100
0000
1000
0000
,  // measure 57
1001
0000
0011
0000
1100
0000
0011
0000
1100
0000
0011
0000
,  // measure 58
1001
0000
1010
0000
0101
0000
1010
0000
0101
0000
1010
0000
,  // measure 59
1001
0000
0011
0000
0110
0000
1100
0000
0110
0000
0011
0000
,  // measure 60
1001
0000
1000
0010
0100
0000
0101
0000
0000
0000
0000
0000
,  // measure 61
0001
0100
0000
0001
0100
0000
0010
0000
1000
0100
0000
1000
0100
0000
0010
0000
,  // measure 62
0001
0100
0000
0001
1000
0000
0100
0000
0010
0001
0000
1000
0010
0000
0100
0000
,  // measure 63
0001
0100
0000
1000
0100
0000
0001
0000
1000
0100
0000
0001
0100
0000
1000
0000
,  // measure 64
0001
0100
1000
0100
0001
0010
1000
0010
,  // measure 65
0001
0000
1000
0000
0010
1000
0010
1000
0100
0010
0100
0010
0001
0100
0001
0100
,  // measure 66
0001
0000
0110
0110
0000
1001
1001
0000
,  // measure 67
1000
0000
0001
0100
0001
0000
0010
0000
0100
0000
0010
0000
0001
0100
0001
0000
,  // measure 68
1000
0000
0001
1000
0001
0000
0010
0000
0100
0000
1000
0000
0001
0100
0001
0000
,  // measure 69
0100
0000
0010
0000
0100
0000
0001
0000
0010
0000
0100
0010
0100
0000
1000
0000
,  // measure 70
0001
0000
0010
0000
0100
0000
1000
0000
0100
0000
0010
0000
0001
1000
0001
0000
,  // measure 71
1001
0000
1000
0000
0010
0000
0100
0000
0001
0000
0100
0000
0010
0100
0010
0000
,  // measure 72
1000
0000
0001
0010
0001
0000
1000
0000
0010
0000
1000
0000
0100
0000
0010
0000
,  // measure 73
0101
0000
0001
0000
1000
0000
0100
0000
1000
0000
0001
0000
0100
0010
1000
0010
,  // measure 74
2000
0000
0000
0000
,  // measure 75
3000
0000
0000
0000
;

//---------------dance-single - ----------------
#NOTES:
     dance-single:
     :
     Beginner:
     2:
     0.106,0.164,0.090,0.000,0.000:
1000
0000
0000
0000
,
1000
0000
0000
0000
,
0001
0000
0000
0000
,
0001
0000
0000
0000
,
1001
0000
0000
0000
,
0000
0000
0000
0000
,
1000
0000
0000
0000
,
0010
0000
0000
0000
,
0100
0000
0000
0000
,
0000
0000
0000
0000
,
0001
0000
0000
0000
,
0010
0000
0000
0000
,
0100
0000
0000
0000
,
0000
0000
0000
0000
,
1000
0000
0000
0000
,
0000
0000
0000
0000
,
0010
0000
0000
0000
,
0000
0000
0000
0000
,
0100
0000
0000
0000
,
0001
0000
0000
0000
,
1001
0000
0000
0000
,
0000
0000
0000
0000
,
1000
0000
0100
0000
,
1000
0000
0000
0000
,
1001
0000
0000
0000
,
0000
0000
0000
0000
,
0001
0000
0000
0000
,
0010
0000
0000
0000
,
0001
0000
0000
0000
,
0100
0000
0000
0000
,
0010
0000
0000
0000
,
0100
0000
0000
0000
,
0001
0000
0000
0000
,
0000
0000
0000
0000
,
1001
0000
0000
0000
,
0000
0000
1001
0000
,
1000
0000
0000
0000
,
0100
0000
0000
0000
,
1000
0000
0000
0000
,
0010
0000
0000
0000
,
0100
0000
0000
0000
,
0001
0000
0000
0000
,
0100
0000
0000
0000
,
0010
0000
0000
0000
,
1001
0000
0000
0000
,
1000
0000
0000
0000
,
0001
0000
0000
0000
,
1000
0000
0000
0000
,
0100
0000
0000
0000
,
0010
0000
0000
0000
,
0001
0000
0000
0000
,
0100
0000
0000
0000
,
0010
0000
0000
0000
,
0010
0000
0000
0000
,
1000
0000
0000
0000
,
1000
0000
0000
0000
,
1001
0000
0000
0000
,
0001
0000
0000
0000
,
1000
0000
0000
0000
,
0001
0000
1001
0000
,
1000
0000
1000
0000
,
0001
0000
0001
0000
,
1000
0000
1000
0000
,
0001
0000
0000
0000
,
0001
0000
0000
0000
,
1001
0000
0000
0000
,
1000
0000
0000
0000
,
0010
0000
0000
0000
,
0100
0000
0000
0000
,
0010
0000
0010
0000
,
0010
0000
0000
0000
,
0100
0000
0100
0000
,
0100
0000
0000
0000
,
1001
0000
0000
0000
;
