#TITLE:ラリリレル、リリロ、リラロ;
#SUBTITLE:;
#ARTIST:黒魔 feat. ななひら;
#TITLETRANSLIT:LALILILELU, LILILO, LILALO;
#SUBTITLETRANSLIT:;
#ARTISTTRANSLIT:CHROMA feat. NANAHIRA;
#CREDIT:DigiMindAxel;
#BANNER:LALILILELU, LILILO, LILALO.png;
#BACKGROUND:LALILILELU, LILILO, LILALO-bg.png;
#LYRICSPATH:;
#CDTITLE:DigiMindAxel original simfile.png;
#MUSIC:LALILILELU, LILILO, LILALO.ogg;
#METERTYPE:DDR X;
#OFFSET:-13.352;
#SAMPLESTART:62.870;
#SAMPLELENGTH:12.000;
#SELECTABLE:YES;
#BPMS:0.000=155.000,224.000=77.500,232.000=155.000;
#STOPS:191.000=1.548
,248.000=2.710
;
#BGCHANGES:;

//---------------dance-single - ----------------
#NOTES:
     dance-single:
     :
     Easy:
     4:
     0.217,0.294,0.031,0.169,0.000: // measure 1
2000
0000
3001
0100
,  // measure 2
0000
0001
0000
1000
,  // measure 3
0001
2000
0000
3100
,  // measure 4
0010
0000
0000
0010
0000
0000
0000
0000
,  // measure 5
0002
0000
1003
0010
,  // measure 6
1000
0001
0000
0010
,  // measure 7
0100
1000
0001
0100
,  // measure 8
0001
0000
0000
1001
0000
0000
0000
0000
,  // measure 9
2000
0000
0000
0000
,  // measure 10
3010
0000
0100
0010
,  // measure 11
0200
0000
0000
0000
,  // measure 12
0301
0000
0000
0000
,  // measure 13
2000
0000
0000
0000
,  // measure 14
3001
0000
0010
0001
,  // measure 15
0020
0000
0000
0000
,  // measure 16
0130
0000
0000
0100
0000
0000
0000
0000
,  // measure 17
2000
0000
0000
0000
,  // measure 18
3100
0000
0010
0001
,  // measure 19
0200
0000
0000
0000
,  // measure 20
0310
0000
0000
0010
0000
0000
0000
2000
,  // measure 21
0000
0000
0000
0000
,  // measure 22
3001
0000
0010
0001
,  // measure 23
0200
0000
0000
0000
,  // measure 24
0310
0000
0000
0010
0000
0000
0000
0000
,  // measure 25
2000
0000
0000
0000
,  // measure 26
3002
0000
0000
0000
,  // measure 27
0203
0000
0000
0000
,  // measure 28
0302
0000
0000
0000
,  // measure 29
2003
0000
0000
0000
,  // measure 30
3200
0000
0000
0000
,  // measure 31
0320
0000
0000
0000
,  // measure 32
0032
0000
0000
0000
,  // measure 33
1003
0001
1000
0000
,  // measure 34
0100
1000
0100
0000
,  // measure 35
1000
0000
1000
0001
,  // measure 36
1000
0100
0010
0001
,  // measure 37
0100
0001
0100
0000
,  // measure 38
0010
0100
0010
0000
,  // measure 39
1000
0001
1000
0100
,  // measure 40
0010
0001
1000
0000
,  // measure 41
0001
1000
0001
0000
,  // measure 42
0010
0001
0010
0000
,  // measure 43
0001
1000
0001
0100
,  // measure 44
0010
1000
0100
0000
,  // measure 45
1000
0001
1000
0000
,  // measure 46
0010
1000
0010
0000
,  // measure 47
0100
0010
0100
0001
,  // measure 48
0010
0000
0000
0000
0000
0000
0000
0000
0000
0000
0000
0000
0000
0000
0000
0000
0100
0000
0000
0000
0000
0000
0000
0000
0000
0000
0000
0000
0000
0000
0000
0000
1000
0000
0000
0000
0000
0000
0000
0000
0000
0000
0000
0000
0000
0000
0000
0000
0002
0003
0000
0000
0000
0000
0000
0000
0000
0000
0000
0000
0000
0000
0000
0000
,  // measure 49
1001
1000
1000
1000
,  // measure 50
1000
1000
1000
1000
,  // measure 51
0100
0000
0010
0001
,  // measure 52
0100
0010
0100
0000
,  // measure 53
0001
0001
0001
0001
,  // measure 54
0001
0001
0001
0001
,  // measure 55
0100
0000
0010
1000
,  // measure 56
0100
0010
0100
0000
,  // measure 57
1001
1000
0001
0100
,  // measure 58
0010
1000
0010
0100
,  // measure 59
0001
1000
0001
1000
,  // measure 60
0001
0100
0001
0100
,  // measure 61
0010
1000
0001
1000
,  // measure 62
0000
0100
0010
0001
,  // measure 63
2002
3003
0000
0000
0000
0000
0000
0000
0000
0000
0000
0000
0000
0000
0000
0000
0001
0000
0000
0000
0000
0000
0000
0000
0000
0000
0000
0000
0000
0000
0000
0000
0000
0000
0000
0000
0000
0000
0000
0000
0000
0000
0000
0000
0000
0000
0000
0000
0000
0000
0000
0000
0000
0000
0000
0000
0000
0000
0000
0000
0000
0000
0000
0000
,  // measure 64
0000
0100
0000
0000
,  // measure 65
0000
0010
0000
0000
,  // measure 66
0000
0000
1000
0000
0000
1000
0000
0000
,  // measure 67
0000
0001
0000
0000
,  // measure 68
0000
0010
0000
0000
,  // measure 69
0000
0100
0000
0000
,  // measure 70
0000
0000
1000
0000
0000
1000
0000
0000
;

//---------------dance-single - ----------------
#NOTES:
     dance-single:
     :
     Medium:
     7:
     0.307,0.374,0.123,0.153,0.015: // measure 1
2001
0000
0000
0000
3100
0000
1000
0100
,  // measure 2
0000
0010
0001
0010
0000
0001
1000
0000
,  // measure 3
0001
0000
0010
0000
0000
0100
1000
0000
,  // measure 4
0020
0000
0000
0130
0000
0000
0000
0000
,  // measure 5
0002
0000
0000
0000
1003
0000
0001
1000
,  // measure 6
0000
0010
0100
0010
0000
1000
0001
0000
,  // measure 7
0010
0000
0100
0000
1000
0000
0020
0200
,  // measure 8
0000
0330
0000
0202
0000
0000
0303
0000
,  // measure 9
2001
0000
0000
0000
0000
0000
0000
0100
,  // measure 10
3100
0000
0010
0001
,  // measure 11
0100
0000
0010
1000
0000
0010
1000
0000
,  // measure 12
0200
0000
0000
0310
0000
0000
0000
0000
,  // measure 13
0002
0000
0000
0000
0000
0000
0000
0100
,  // measure 14
0103
0000
0010
1000
,  // measure 15
0100
0000
0010
0001
0000
0010
0001
0000
,  // measure 16
0200
0000
0000
0310
0000
0000
0000
0000
,  // measure 17
2000
0000
0000
0000
0000
0000
0000
0100
,  // measure 18
3100
0000
0010
0001
,  // measure 19
0100
0000
0010
1000
0000
0010
1000
0000
,  // measure 20
0200
0000
0000
0310
0000
0000
0000
0000
,  // measure 21
0002
0000
0000
0000
0000
0000
0000
0010
,  // measure 22
0013
0000
0100
1000
,  // measure 23
0010
0000
0100
0001
0000
0100
0001
0000
,  // measure 24
0020
0000
0000
0130
0000
0000
0000
0000
,  // measure 25
1001
0000
0000
0000
,  // measure 26
0110
0000
0000
0010
0000
0000
0000
1001
,  // measure 27
0000
0000
0001
0000
,  // measure 28
0110
0000
0000
0100
0000
0000
0000
0000
,  // measure 29
1001
0000
0000
0000
0000
0000
0000
0110
,  // measure 30
0000
0000
0010
0000
,  // measure 31
1001
0000
0000
0000
0000
0000
0000
1000
,  // measure 32
0000
0000
0000
1001
0000
0000
0000
0000
,  // measure 33
0001
0010
0100
0010
,  // measure 34
0001
0100
0000
0001
0000
1000
0100
0000
,  // measure 35
1000
1000
0001
0010
,  // measure 36
0100
1000
0010
0100
,  // measure 37
0001
0010
0100
0010
,  // measure 38
0001
1000
0000
0100
0000
1000
0010
0000
,  // measure 39
0100
0100
0001
1000
,  // measure 40
0100
0010
0001
1000
,  // measure 41
0001
0100
0010
0100
,  // measure 42
0001
1000
0000
0100
0000
0010
0100
0000
,  // measure 43
1000
0000
1000
0000
0010
0000
0100
0001
,  // measure 44
0000
1000
0100
1000
0000
0001
0100
0000
,  // measure 45
0001
0010
0100
0010
,  // measure 46
0001
1000
0000
0010
0000
0100
0010
0000
,  // measure 47
1000
0000
0100
0000
0010
0001
0100
0001
,  // measure 48
0000
0000
0000
0000
0000
0000
0000
0000
0010
0000
0000
0000
0000
0000
0000
0000
0100
0000
0000
0000
0000
0000
0000
0000
0000
0000
0000
0000
0000
0000
0000
0000
1000
0000
0000
0000
0000
0000
0000
0000
0000
0000
0000
0000
0000
0000
0000
0000
2002
3003
0000
0000
0000
0000
0000
0000
0000
0000
0000
0000
0000
0000
0000
0000
,  // measure 49
1000
0100
1000
0000
0100
1000
0100
0000
,  // measure 50
1000
0100
1000
0000
0100
1000
0100
0000
,  // measure 51
1000
0010
0100
0001
,  // measure 52
1000
0010
0100
0001
,  // measure 53
0010
0001
0010
0000
0001
0010
0001
0000
,  // measure 54
0010
0001
0010
0000
0001
0010
0001
0000
,  // measure 55
0100
0010
1000
0001
,  // measure 56
0100
0000
0010
0000
1000
0000
0001
1000
,  // measure 57
0001
0000
0000
0000
0101
0000
0000
0000
0000
0100
0000
0100
0010
0000
0000
0000
,  // measure 58
1000
0000
0000
0000
1001
0000
0000
0000
0000
0010
0000
0010
0100
0000
0000
0000
,  // measure 59
0001
0100
0010
1000
,  // measure 60
0001
0010
0100
1000
,  // measure 61
0002
0000
0000
0100
0103
0000
0010
1000
,  // measure 62
0000
0001
0001
0000
0010
0100
1000
0100
,  // measure 63
0020
0030
0000
0000
0000
0000
0000
0000
0000
0000
0000
0000
0000
0000
0000
0000
1002
0000
0000
0000
0000
0000
0000
0000
0000
0000
0000
0000
0000
0000
0000
0000
0000
0000
0000
0000
0000
0000
0000
0000
0000
0000
0000
0000
0000
0000
0000
0000
0000
0000
0000
0000
0000
0000
0000
0000
0000
0000
0000
0000
0000
0000
0000
0000
,  // measure 64
0000
0010
0000
0000
,  // measure 65
0000
0013
0000
0000
,  // measure 66
0000
0000
0100
0000
0000
0100
0000
0000
,  // measure 67
0000
1001
0000
0000
,  // measure 68
0000
0010
0000
0000
,  // measure 69
0000
0001
0000
0000
,  // measure 70
0000
0000
0100
0000
0000
0100
0000
0000
;

//---------------dance-single - ----------------
#NOTES:
     dance-single:
     :
     Hard:
     10:
     0.454,0.560,0.138,0.176,0.061: // measure 1
1001
0000
1000
0000
1000
0001
0100
0020
,  // measure 2
0000
1030
0001
0020
0000
0031
1000
0100
,  // measure 3
0001
0100
2000
0000
0000
3010
0100
0001
,  // measure 4
0010
0000
0200
0020
0000
0000
0330
0000
,  // measure 5
1001
0000
0001
0000
0001
1000
0010
0200
,  // measure 6
0000
0310
1000
0200
0000
1300
0001
0010
,  // measure 7
2000
0000
3010
0000
0001
1000
0010
0200
,  // measure 8
0000
0000
0000
0000
0000
0000
0000
0000
0000
0301
0000
0000
1000
0000
0000
0000
1000
0000
0000
0000
1000
0000
0000
0000
,  // measure 9
0201
0000
0000
0000
0000
0000
0000
0000
0010
0000
0000
0000
0000
0000
0310
0100
,  // measure 10
0010
1000
0000
1000
0001
0010
0100
0000
,  // measure 11
1010
0000
0010
0100
0000
0001
0100
0010
,  // measure 12
1000
0100
0000
0010
0100
1000
0000
0000
,  // measure 13
1020
0000
0000
0000
0000
0000
0000
0000
0100
0000
0000
0000
0000
0000
0130
0010
,  // measure 14
0100
0001
0000
0001
1000
0000
0001
0000
,  // measure 15
0101
0000
0100
0010
0000
1000
0100
0010
,  // measure 16
0100
1000
0000
0001
0100
0010
0100
0000
,  // measure 17
1010
0000
0000
0000
0100
0000
0000
0000
0010
0000
0000
0000
0001
0000
1000
0010
,  // measure 18
1000
0010
0100
0000
0001
1000
0001
0000
,  // measure 19
0010
0000
0100
0000
1000
0000
0010
0100
,  // measure 20
0001
1000
0000
0100
1000
0010
0000
0000
,  // measure 21
1000
0000
0000
0000
0100
0000
0000
0000
0010
0000
0000
0000
0001
0000
1000
0010
,  // measure 22
1000
0001
0010
0000
0100
0010
0001
0000
,  // measure 23
1000
0000
0010
0000
0100
0000
0001
1000
,  // measure 24
0100
1000
0000
0100
1000
0010
0100
0000
,  // measure 25
1001
0001
0001
0001
,  // measure 26
0100
0000
0100
0010
1000
0000
0001
1000
,  // measure 27
0001
0001
0100
0100
,  // measure 28
0010
0000
0010
1000
0001
0000
0001
0000
,  // measure 29
0100
0000
0100
0000
0100
0001
0010
0100
,  // measure 30
0000
1000
0001
0100
0001
0000
0001
0000
,  // measure 31
1000
0000
1000
0000
1000
0000
1000
0100
,  // measure 32
0010
0000
0001
1000
0000
0001
1001
0000
,  // measure 33
0001
0100
0100
0010
1000
0000
0100
0000
,  // measure 34
0010
0010
0000
0010
0000
0001
1000
0000
,  // measure 35
0100
0000
0100
1000
0010
0001
0010
1000
,  // measure 36
0000
0001
0100
0020
0000
1000
1030
0000
,  // measure 37
0001
0100
0100
0010
1000
0000
0100
0000
,  // measure 38
0010
0010
0000
0001
0000
0001
1000
0000
,  // measure 39
0010
0000
0010
1000
0100
0001
0100
1000
,  // measure 40
0000
0010
0100
0002
0000
1000
1003
0000
,  // measure 41
0001
0100
0100
0010
1000
0000
0100
0000
,  // measure 42
0010
0010
0000
0001
0000
0001
1000
0000
,  // measure 43
0100
0000
0100
1000
0010
0001
0010
1000
,  // measure 44
0000
0100
0010
0001
1000
0100
0010
0000
,  // measure 45
0001
0100
0100
0010
1000
0000
0100
0000
,  // measure 46
0010
0010
0000
0001
0000
0001
1000
0000
,  // measure 47
0100
0010
0100
1000
0010
0001
0010
1000
,  // measure 48
0000
0000
0000
0000
0000
0000
0000
0000
0100
0000
0000
0000
0000
0000
0000
0000
0010
0000
0000
0000
0001
0000
0000
0000
0000
0000
0000
0000
0000
0000
0000
0000
1000
0000
0000
0000
0000
0000
0000
0000
0100
0000
0000
0000
0010
0000
0000
0000
0200
0300
0000
0000
0000
0000
0000
0000
0000
0000
0000
0000
0000
0000
0000
0000
,  // measure 49
1000
0001
0010
0001
1000
0001
0010
0001
,  // measure 50
1000
0001
0010
0001
1000
0001
0010
0001
,  // measure 51
1000
0000
0010
0000
0001
0010
0100
0001
,  // measure 52
0000
0100
0010
2000
0000
0000
3001
0000
,  // measure 53
1000
0010
0100
0010
1000
0010
0100
0010
,  // measure 54
1000
0010
0100
0010
1000
0010
0100
0010
,  // measure 55
1000
0000
0100
0000
0001
0100
0010
0001
,  // measure 56
0000
0000
1000
0000
0010
0000
1000
0000
0001
0000
0000
0100
0010
0000
1000
0000
,  // measure 57
1002
0000
0000
0000
0103
0000
0000
0000
0020
1000
0000
1030
0001
0000
0010
0000
,  // measure 58
0200
0000
0000
0000
0310
0000
0000
0000
0002
0010
0000
0013
0100
0000
1000
1000
,  // measure 59
0010
0100
0010
0100
0001
0010
0001
0010
,  // measure 60
0100
1000
0010
0100
,  // measure 61
0001
1000
0001
1000
0010
1000
0010
0110
,  // measure 62
0000
0000
0100
0000
0010
0100
0000
0000
0001
0000
1000
0100
1000
0000
0000
0000
,  // measure 63
2002
3003
0000
0000
0000
0000
0000
0000
0000
0000
0000
0000
0000
0000
0000
0000
2001
0000
0000
0000
0000
0000
0000
0000
0000
0000
0000
0000
0000
0000
0000
0000
0000
0000
0000
0000
0000
0000
0000
0000
0000
0000
0000
0000
0000
0000
0000
0000
0000
0000
0000
0000
0000
0000
0000
0000
0000
0000
0000
0000
0000
0000
0000
0000
,  // measure 64
0000
0100
0000
0000
,  // measure 65
0000
3001
0000
0000
,  // measure 66
0000
0000
0011
0000
0000
0011
0000
0000
,  // measure 67
0000
1002
0000
0000
,  // measure 68
0000
0010
0000
0000
,  // measure 69
0000
1003
0000
0000
,  // measure 70
0000
0000
0110
0000
0000
0110
0000
0000
;

//---------------dance-single - ----------------
#NOTES:
     dance-single:
     :
     Beginner:
     2:
     0.082,0.159,0.054,0.000,0.000: // measure 1
1000
0000
0000
0000
,  // measure 2
0000
0000
0000
0000
,  // measure 3
0010
0000
0000
0000
,  // measure 4
0100
0000
0000
0000
,  // measure 5
0001
0000
0000
0000
,  // measure 6
0000
0000
0000
0000
,  // measure 7
0010
0000
0000
0000
,  // measure 8
0100
0000
0000
0000
,  // measure 9
1001
0000
0000
0000
,  // measure 10
1000
0000
0000
0000
,  // measure 11
0001
0000
0000
0000
,  // measure 12
0001
0000
0000
0000
,  // measure 13
0010
0000
0000
0000
,  // measure 14
0100
0000
0000
0000
,  // measure 15
0010
0000
0000
0000
,  // measure 16
0100
0000
0000
0000
,  // measure 17
1001
0000
0000
0000
,  // measure 18
1000
0000
0000
0000
,  // measure 19
0010
0000
0000
0000
,  // measure 20
0100
0000
0000
0000
,  // measure 21
0001
0000
0000
0000
,  // measure 22
0100
0000
0000
0000
,  // measure 23
0010
0000
0000
0000
,  // measure 24
1000
0000
0000
0000
,  // measure 25
1001
0000
0000
0000
,  // measure 26
0001
0000
0000
0000
,  // measure 27
0001
0000
0000
0000
,  // measure 28
0000
0000
0000
0000
,  // measure 29
1000
0000
0000
0000
,  // measure 30
0000
0000
0000
0000
,  // measure 31
0001
0000
0000
0000
,  // measure 32
0000
0000
0000
0000
,  // measure 33
1001
0000
0000
0000
,  // measure 34
0100
0000
0000
0000
,  // measure 35
0010
0000
0000
0000
,  // measure 36
0001
0000
0000
0000
,  // measure 37
1000
0000
0000
0000
,  // measure 38
0100
0000
0000
0000
,  // measure 39
0010
0000
0000
0000
,  // measure 40
0001
0000
0000
0000
,  // measure 41
1000
0000
0000
0000
,  // measure 42
0100
0000
0000
0000
,  // measure 43
0010
0000
0000
0000
,  // measure 44
0001
0000
0000
0000
,  // measure 45
1000
0000
0000
0000
,  // measure 46
0100
0000
0000
0000
,  // measure 47
0010
0000
0000
0000
,  // measure 48
0001
0000
0000
0000
,  // measure 49
1001
0000
1000
0000
,  // measure 50
1000
0000
1000
0000
,  // measure 51
1000
0000
0000
0000
,  // measure 52
0000
0000
0000
0000
,  // measure 53
0001
0000
0001
0000
,  // measure 54
0001
0000
0001
0000
,  // measure 55
0001
0000
0000
0000
,  // measure 56
0000
0000
0000
0000
,  // measure 57
1001
0000
0000
0000
,  // measure 58
0001
0000
0000
0000
,  // measure 59
1000
0000
0000
0000
,  // measure 60
0010
0000
0000
0000
,  // measure 61
0100
0000
0000
0000
,  // measure 62
0001
0000
0000
0000
,  // measure 63
1001
1000
0000
0000
,  // measure 64
0000
1000
0000
0000
,  // measure 65
0000
1000
0000
0000
,  // measure 66
0000
0001
0000
0000
,  // measure 67
0000
1000
0000
0000
,  // measure 68
0000
1000
0000
0000
,  // measure 69
0000
1000
0000
0000
,  // measure 70
0000
0001
0000
0000
;
