#TITLE:狂乱 Hey Kids!!;
#SUBTITLE:;
#ARTIST:THE ORAL CIGARETTES;
#TITLETRANSLIT:KYOURAN Hey Kids!!;
#SUBTITLETRANSLIT:;
#ARTISTTRANSLIT:;
#CREDIT:DigiMindAxel;
#BANNER:KYOURAN Hey Kids!!.png;
#BACKGROUND:KYOURAN Hey Kids!!-bg.png;
#LYRICSPATH:KYOURAN Hey Kids!!.lrc;
#CDTITLE:DigiMindAxel original simfile.png;
#MUSIC:KYOURAN Hey Kids!!.ogg;
#METERTYPE:DDR X;
#OFFSET:-1.569;
#SAMPLESTART:47.794;
#SAMPLELENGTH:12.000;
#SELECTABLE:YES;
#BPMS:0.000=142.000,96.000=71.000,102.500=142.000;
#STOPS:102.500=1.056
,163.000=1.268
;
#BGCHANGES:-2.000=KYOURAN Hey Kids!!.avi=1.000=1=1=0,
99999=-nosongbg-=1.000=0=0=0 // don't automatically add -songbackground-
;

//---------------dance-single - ----------------
#NOTES:
     dance-single:
     :
     Easy:
     5:
     0.242,0.268,0.043,0.054,0.000: // measure 1
0000
0000
0000
0000
,  // measure 2
0000
0000
0000
0000
,  // measure 3
0000
0000
0000
0000
,  // measure 4
0000
0000
0000
0000
,  // measure 5
0001
1000
0001
1000
,  // measure 6
0100
1000
0100
1000
,  // measure 7
0001
1000
0001
1000
,  // measure 8
0100
0010
0100
0010
,  // measure 9
0001
0100
0001
0100
,  // measure 10
0010
1000
0010
1000
,  // measure 11
0100
0010
0100
0010
,  // measure 12
0001
1000
0001
1000
,  // measure 13
0100
0000
0100
0000
,  // measure 14
0010
0000
0010
0000
,  // measure 15
0001
0000
0001
0000
,  // measure 16
0100
0000
0100
0000
,  // measure 17
0010
0000
0010
0000
,  // measure 18
1000
0000
1000
0000
,  // measure 19
0001
0000
1000
0000
,  // measure 20
0001
0010
0100
1000
,  // measure 21
0001
0100
0001
0100
,  // measure 22
0001
1000
0001
1000
,  // measure 23
0100
0010
0100
0010
,  // measure 24
0001
0100
0010
1000
,  // measure 25
0002
0000
2003
0000
,  // measure 26
3002
0000
0000
0003
1001
0000
1000
0000
,  // measure 27
0010
1000
0010
0100
,  // measure 28
0001
0100
0001
1000
,  // measure 29
0100
0010
0100
1000
,  // measure 30
0001
1000
0001
0100
,  // measure 31
0001
0100
0001
0010
,  // measure 32
0100
0010
0100
1000
,  // measure 33
0010
0100
0010
1000
,  // measure 34
0001
1000
0001
0100
,  // measure 35
0100
0100
0000
0010
,  // measure 36
0010
0010
0000
0100
,  // measure 37
0000
0010
0000
0100
,  // measure 38
0000
0010
0000
1000
,  // measure 39
1000
1000
0000
0001
,  // measure 40
0001
0001
0000
1001
,  // measure 41
0000
0000
0000
0110
,  // measure 42
0001
1000
0001
1000
,  // measure 43
0010
0100
0010
0100
,  // measure 44
0001
0010
0100
0010
,  // measure 45
0001
1000
0001
1000
,  // measure 46
0010
1000
0010
1000
,  // measure 47
0100
0010
0001
0010
,  // measure 48
0100
0000
0000
0000
,  // measure 49
0000
0000
0000
0000
0000
1000
0000
0000
,  // measure 50
2002
0000
0000
3003
0000
0000
0000
0000
;

//---------------dance-single - ----------------
#NOTES:
     dance-single:
     :
     Medium:
     8:
     0.392,0.509,0.152,0.195,0.000:
0000
0000
0000
0000
,
0000
0000
0000
0000
,
0000
0000
0000
0000
,
0000
0000
0000
0000
,
1000
0000
0100
0000
0010
0100
1000
0000
,
0010
0000
0100
0000
0001
0100
0010
0000
,
0100
0000
0001
0000
0010
0100
1000
0000
,
0100
0010
0001
0001
1000
0100
0010
0000
,
0001
0000
0010
0000
0100
0010
0001
0000
,
0010
0000
0100
0000
1000
0010
0100
0000
,
0001
0000
0010
0000
0100
1000
0001
0000
,
0100
0010
1000
1000
0010
0100
0001
0000
,
1000
1000
1000
1000
,
0001
0001
0001
0001
,
0010
0010
0010
0010
,
0100
1000
0100
0010
,
0001
0001
0001
0001
,
0100
0100
0100
0100
,
0110
0000
0000
0110
0000
0000
0110
0000
,
0000
1000
0100
0010
,
0001
0100
0010
0000
0100
0010
0100
0000
,
0001
0010
0100
0000
1000
0010
1000
0000
,
0010
0100
0001
0000
1000
0001
1000
0000
,
0100
0010
0001
0100
0001
0100
0001
0000
,
2001
3100
1002
0013
,
2001
0000
3100
0000
1001
1001
1000
0001
,
0100
0000
0001
0100
0001
0000
0010
0100
,
1000
0000
0100
0010
0001
0000
2000
0000
,
0100
3020
0100
0230
,
0001
0000
0301
1000
0100
0000
0010
0001
,
0010
0000
0001
0100
0010
0000
0100
0010
,
0100
0000
0010
1000
0100
0020
0000
0031
,
0000
0200
0000
0310
0000
1000
2000
0000
,
3100
0000
0010
0001
1000
0000
0100
0010
,
0100
0010
0001
0000
0000
0000
0100
0010
,
0100
0010
1000
0000
0000
0000
2001
0000
,
0000
3100
0020
0000
0000
0031
2000
0000
,
0000
3100
0020
0000
0000
0030
0001
0100
,
0001
0100
0010
0000
0000
0000
0100
0010
,
0100
0010
1000
0000
0000
0000
1100
0000
,
0000
0011
0000
0000
1001
0000
1001
0000
,
0001
1000
0010
0000
1000
0010
1000
0000
,
0100
0010
0100
0010
0001
0100
0001
0000
,
2000
0010
3020
0100
,
0230
0000
0001
0000
0301
1000
0100
0000
,
0010
0100
1000
0000
0100
0010
0100
0000
,
1000
0001
0100
0000
0001
0100
0001
1000
,
0100
0000
0000
0000
,
0000
0000
0000
0000
0000
1000
0010
0100
,
0202
0000
0000
0303
0000
0000
0000
0000
;

//---------------dance-single - ----------------
#NOTES:
     dance-single:
     :
     Hard:
     11:
     0.515,0.697,0.250,0.098,0.282:
0000
0000
0000
0000
,
0000
0000
0000
0000
,
0000
0000
0000
0000
,
0000
0000
0000
0000
,
1000
0000
0000
0001
0000
0000
0100
0000
0000
0001
1000
0000
0100
0000
0010
0000
,
0001
0000
0000
1000
0000
0000
0010
0000
0000
1000
0001
0000
0010
0000
0100
0000
,
1000
0000
0000
0010
0000
0000
1000
0000
0000
0010
0100
0000
0001
0000
0010
0000
,
0200
1000
1300
0001
0100
1000
0100
0001
,
1000
0000
0000
0010
0000
0000
1000
0000
0000
0100
0010
0000
0001
0000
0100
0000
,
0001
0000
0000
1000
0000
0000
0001
0000
0000
0100
0010
0000
1000
0000
0100
0000
,
0010
0000
0000
0001
0000
0000
0100
0000
0000
0010
0100
0000
0010
0000
1000
0000
,
0200
0010
0310
0001
0100
1000
0100
0001
,
1000
0000
0000
0100
0000
0000
0001
0000
0000
0100
0000
0000
1000
0000
0000
0000
,
0000
0000
0001
0000
0000
0010
0000
0000
1000
0000
0000
0010
0000
0000
0001
0000
,
1000
0000
0000
0010
0000
0000
0001
0000
0000
0010
0000
0000
1000
0000
0000
0000
,
0000
0000
0001
0000
0000
0100
0000
0000
1000
0000
0000
0100
0000
0000
0001
0000
,
1000
0000
0000
0010
0000
0000
0001
0000
0000
0010
0000
0000
1000
0000
0000
0000
,
0000
0000
0001
0000
0000
0100
0000
0000
1000
0000
0000
0100
0000
0000
0001
0000
,
0010
0000
0000
0110
0000
0000
0010
0000
0000
0110
0000
0000
0010
0000
0000
0110
,
0000
0100
0001
0010
0100
1000
1001
0000
,
0001
0000
0000
0001
0100
0000
0010
0000
0000
0010
1000
0000
0100
0000
0010
0000
,
0001
0000
0000
0001
0100
0000
0010
0000
0000
0010
1000
0000
0001
0000
0010
0000
,
0100
0000
0000
0100
1000
0000
0010
0000
0000
0010
0100
0000
0001
0000
1000
0000
,
0200
0010
0310
0001
1000
0001
1000
0001
,
0010
0000
0000
0010
0000
0000
0010
0000
1001
0000
0000
0000
0000
0000
0000
0000
0100
0000
0000
0100
0000
0000
0100
0000
1001
0000
0000
0000
0000
0000
0000
0000
,
0010
0000
0000
0010
0000
0000
0010
0000
1001
0000
0000
0000
1001
0000
0000
0000
0010
0100
0010
0100
0010
0000
0000
0000
1001
0000
0000
0000
1000
0000
0000
0000
,
0001
1000
0010
0001
0010
1000
0100
0100
,
0010
0010
0001
0100
1000
0100
0001
1000
,
0010
0001
0010
1000
1010
0000
1001
0000
,
0001
0100
0010
0000
0100
0010
1000
0100
,
1000
0001
0100
1000
0100
0010
1000
1000
,
0001
0001
1000
0010
0100
0102
0000
1003
,
0000
2010
0000
3001
0000
0200
0020
0000
,
0330
1000
0100
0010
0100
1000
0001
0100
,
0001
0100
1001
0000
0000
0000
1000
0100
,
1000
0000
0100
0000
1001
0000
0000
0000
0000
0000
0000
0000
0001
0000
0000
0100
,
0000
0000
1000
0000
0001
0000
0000
0010
0000
0000
1000
0000
0001
0000
0000
0100
,
0000
0000
0001
0000
1000
0000
0000
0010
0000
0000
1000
0000
0001
0000
0010
0000
,
0001
0010
1001
0000
0000
0000
1000
0010
,
1000
0000
0010
0000
1001
0000
0000
0000
0000
0000
0000
0000
0011
0000
0000
0011
,
0000
0000
0110
0000
0000
0110
0000
0000
1000
0001
1000
0001
1000
0000
0000
0000
,
0001
0100
0001
1000
0010
0001
0010
0100
,
0001
0001
0100
0100
0010
0010
1000
0001
,
1000
0100
0001
0100
0010
0001
1000
0010
,
0110
0000
0100
0010
1000
0000
0010
0100
,
0001
0100
1000
0100
0010
1000
0001
0001
,
1000
0000
0010
0000
0001
0000
0010
0000
0100
0000
0001
0000
1000
0001
1000
0001
,
1000
0000
0000
0000
,
0000
0000
0000
0000
0001
1000
0100
0010
,
2002
0000
0000
3003
0000
0000
0000
0000
;

//---------------dance-single - ----------------
#NOTES:
     dance-single:
     :
     Challenge:
     13:
     0.655,0.911,0.228,0.119,0.668:
0000
0000
0000
0000
,
0000
0000
0000
0000
,
0000
0000
0000
0000
,
0000
0000
0000
0000
,
1000
0001
0000
0001
1000
0000
0100
0010
0000
0001
0100
0000
0010
0000
1000
0000
,
0001
1000
0000
1000
0001
0000
0010
0100
0000
1000
0010
0000
0100
0000
0001
0000
,
1000
0001
0000
0001
1000
0000
0100
1000
0000
0010
0100
0000
0001
0000
0010
0000
,
0100
1000
0100
0000
1000
0001
0000
0100
0000
0001
1000
0000
0001
1000
0001
1000
,
0001
0100
0000
0100
0001
0000
1000
0100
0000
0100
1000
0000
0010
0000
0100
0000
,
0001
0010
0000
0010
0001
0000
1000
0010
0000
0010
1000
0000
0100
0000
0010
0000
,
0001
1000
0000
1000
0001
0000
0100
0010
0000
0010
0100
0000
0010
0000
1000
0000
,
0100
0010
0100
0000
1000
0001
0000
0100
0000
0001
1000
0100
1000
0100
1000
0100
,
1000
0000
0000
0001
0000
0000
1000
0000
0000
0000
0100
0000
0001
0000
0100
0000
,
1000
0000
0000
0001
0000
0000
1000
0000
0000
0000
0010
0000
0001
0000
0010
0000
,
1000
0000
0000
0100
0000
0000
0010
0000
0000
0000
0001
0000
0100
0000
1000
0000
,
0100
0000
0000
0001
0000
0000
0010
0000
0000
0000
0100
0000
1000
0000
0010
0000
,
0100
0000
0000
0001
0000
0000
1000
0000
0000
0000
0100
0000
0001
0000
0100
0000
,
1000
0000
0000
0001
0000
0000
0010
0000
0000
0000
1000
0000
0010
0000
0001
0000
,
0100
0000
0000
1010
0000
0000
0100
0000
0000
1010
0000
0000
0100
0000
0000
1010
,
0000
0000
0100
0000
0010
0001
0010
0001
0010
0001
0010
0001
0010
0000
0000
0000
,
0100
1000
0000
1000
0010
0000
0010
0100
0000
0100
0001
0000
1000
0000
1000
0000
,
0100
0010
0000
0010
0001
0000
0001
0100
0000
0100
0010
0000
1000
0000
1000
0000
,
0001
0010
0000
0010
0100
0000
0100
1000
0000
1000
0001
0000
0100
0000
0100
0000
,
0010
1000
0010
1000
0010
1000
0010
0000
1000
0000
0010
0000
1000
0000
0010
0000
,
0110
0000
0000
0100
0000
0000
0001
0000
0000
1000
0001
0000
0010
0000
0100
0000
1000
0000
0000
0001
0000
0000
0100
0000
0000
0001
1000
0000
0100
0000
0010
0000
,
0100
1000
0000
0100
1000
0000
0001
0100
0000
0001
0100
0000
0001
0000
1000
0000
0100
0010
0100
0010
0100
0000
0000
0000
1001
0000
0000
0000
0001
0000
0000
0000
,
0010
0100
1000
0000
0001
0000
0100
0000
0010
1000
0100
0000
0010
0000
0001
0000
,
1000
0100
0010
0000
0100
0000
1000
0000
0001
0100
0010
0000
2000
0000
0000
0000
,
3100
1000
0010
0000
0200
0000
0000
0000
0301
0010
0100
0000
2000
0000
0000
0000
,
3001
0100
0010
0000
0100
0000
0010
0000
1000
0001
1000
0001
1000
0000
0100
0000
,
0010
0001
0100
0000
0010
0000
1000
0000
0100
0010
0001
0000
1000
0000
0001
0000
,
0010
0100
1000
0000
0001
0000
0100
0000
0010
1000
0002
0000
0000
0000
0013
0000
,
0100
1000
0020
0000
0000
0000
0130
0000
0001
1000
0200
0000
0000
0000
1300
0000
,
0100
1000
0001
0000
0010
0000
0100
0000
0010
0000
0100
0000
1000
0000
1000
0000
,
1000
1000
0110
0000
0000
0000
0001
0001
,
0001
0000
0001
0000
0110
0000
0000
0000
0000
0000
0000
0000
1010
0000
0000
1000
,
0000
0000
0001
0000
0011
0000
0000
0010
0000
0000
0100
0000
0110
0000
0000
0010
,
0000
0000
1000
0000
1001
0000
0000
0001
0000
0000
0100
0000
0010
0000
0010
0000
,
0010
0010
1001
0000
0000
0000
0100
0100
,
0100
0000
0100
0000
1001
0000
0000
0000
0000
0000
0000
0000
1100
0000
0000
0011
,
0000
0000
1100
0000
0000
0011
0000
0000
0001
1000
0001
1000
0001
0000
0000
0000
,
1000
0000
0010
0000
0001
0010
1000
0000
0001
0000
0010
0000
1000
0010
0001
0000
,
0100
0000
0010
0000
1000
0001
0010
0000
0100
0000
1000
0000
0001
0100
0010
0000
,
2000
0000
0100
0000
3100
0010
0001
0000
0200
0000
0010
0000
0310
1000
0001
0000
,
0020
0000
0100
0000
0130
1000
0010
0000
0100
0000
0010
0000
1000
0001
1000
0001
,
1000
0000
0010
0000
0001
0010
1000
0000
0001
0000
0100
0000
1000
0100
0001
0000
,
0010
0000
0100
0000
1000
0010
0100
0000
0010
0000
1000
0000
0100
0010
0100
0010
,
0100
0000
0000
0000
,
0000
0000
0000
0000
1000
1010
0101
0110
,
2002
0000
0000
3003
0000
0000
0000
0000
;

//---------------dance-single - ----------------
#NOTES:
     dance-single:
     :
     Beginner:
     2:
     0.084,0.106,0.054,0.000,0.000:
0000
0000
0000
0000
,
0000
0000
0000
0000
,
0000
0000
0000
0000
,
0000
0000
0000
0000
,
1000
0000
0000
0000
,
0010
0000
0000
0000
,
0100
0000
0000
0000
,
0001
0000
0000
0000
,
1000
0000
0000
0000
,
0010
0000
0000
0000
,
0100
0000
0000
0000
,
0001
0000
0000
0000
,
1000
0000
0000
0000
,
1000
0000
0000
0000
,
0001
0000
0000
0000
,
0001
0000
0000
0000
,
0010
0000
0000
0000
,
0010
0000
0000
0000
,
0100
0000
0000
0000
,
0100
0000
0000
0000
,
1001
0000
0000
0000
,
1000
0000
0000
0000
,
0010
0000
0000
0000
,
0100
0000
0000
0000
,
0110
0000
0000
0000
,
0010
0000
0000
0001
,
0000
0000
0000
0100
,
0000
0000
0000
0010
,
0000
0010
0000
0010
,
0000
0000
0000
1000
,
0000
0000
0000
0001
,
0000
0000
0000
0100
,
0000
0100
0000
0100
,
0000
0000
0000
1001
,
0000
0000
0000
0001
,
0000
0000
0000
0010
,
0000
0000
0000
0000
,
0000
0000
0000
0100
,
0000
0000
0000
1000
,
0000
0000
0000
0001
,
0000
0000
0000
1001
,
1000
0000
0000
0000
,
0100
0000
0000
0000
,
1000
0000
1000
0000
,
1000
0000
0000
0000
,
0001
0000
0000
0000
,
0010
0000
0000
0000
,
0001
0000
0000
0000
,
0000
0000
0000
1000
,
1001
0000
0000
0000
;
