#TITLE:腐れ外道とチョコレゐト;
#SUBTITLE:;
#ARTIST:ピノキオP;
#TITLETRANSLIT:KUSARE GEDOU TO CHOCOLATE;
#SUBTITLETRANSLIT:;
#ARTISTTRANSLIT:PINOCCHIO P;
#CREDIT:DigiMindAxel;
#BANNER:KUSARE GEDOU TO CHOCOLATE.png;
#BACKGROUND:KUSARE GEDOU TO CHOCOLATE-bg.png;
#LYRICSPATH:KUSARE GEDOU TO CHOCOLATE.lrc;
#CDTITLE:EXIT TUNES.png;
#MUSIC:KUSARE GEDOU TO CHOCOLATE.ogg;
#METERTYPE:DDR X;
#OFFSET:-3.868;
#SAMPLESTART:40.737;
#SAMPLELENGTH:12.000;
#SELECTABLE:YES;
#BPMS:0.000=260.000;
#STOPS:28.000=0.692307
,217.000=0.692307
;
#BGCHANGES:;

//---------------dance-single - ----------------
#NOTES:
     dance-single:
     :
     Easy:
     8:
     0.323,0.357,0.019,0.122,0.000: // measure 1
1000
0000
0001
0000
,  // measure 2
0100
0000
0001
0000
,  // measure 3
1000
0000
0100
0000
,  // measure 4
1000
0000
0000
0000
,  // measure 5
0001
0000
1000
0000
,  // measure 6
0100
0000
1000
0000
,  // measure 7
0001
0100
0001
0000
,  // measure 8
0000
1001
0000
1000
,  // measure 9
0000
0001
1000
0001
,  // measure 10
0000
0010
0000
0010
,  // measure 11
0000
0100
0010
0100
,  // measure 12
0000
1000
0000
1000
,  // measure 13
0000
0100
1000
0100
,  // measure 14
0000
0010
0000
0010
,  // measure 15
0000
0001
1000
0001
,  // measure 16
0000
0010
0000
0100
,  // measure 17
0000
1000
0000
0010
,  // measure 18
0000
0100
0000
0010
,  // measure 19
0000
1000
0000
1000
,  // measure 20
0000
0001
0000
0010
,  // measure 21
0000
0100
0000
0010
,  // measure 22
0000
0002
0000
0000
,  // measure 23
0000
0003
0000
0000
,  // measure 24
0000
1000
0000
1000
,  // measure 25
0000
0100
1000
0100
,  // measure 26
0000
0010
0000
0010
,  // measure 27
0000
0001
1000
0001
,  // measure 28
0000
0100
0000
0100
,  // measure 29
0000
0010
0100
0010
,  // measure 30
0000
1000
0000
1000
,  // measure 31
0000
1000
0000
0000
,  // measure 32
0000
0001
0000
1000
,  // measure 33
0100
1000
0000
0001
,  // measure 34
1000
0001
0000
1000
,  // measure 35
0100
1000
0000
0010
,  // measure 36
0000
0100
0000
0001
,  // measure 37
0100
0001
0000
1000
,  // measure 38
0000
0100
0000
0000
,  // measure 39
0000
0010
0000
0000
,  // measure 40
0000
0001
0000
0001
,  // measure 41
0000
1000
0100
1000
,  // measure 42
0000
0001
0000
0010
,  // measure 43
0000
0100
1000
0100
,  // measure 44
0000
0010
0000
0010
,  // measure 45
0000
0001
0100
0001
,  // measure 46
0000
0100
0000
0100
,  // measure 47
0000
0010
0100
0010
,  // measure 48
0000
1000
0000
1000
,  // measure 49
0000
0100
1000
0100
,  // measure 50
0000
0010
0000
0010
,  // measure 51
0000
0001
1000
0001
,  // measure 52
0000
0100
0000
0100
,  // measure 53
0000
0010
0100
0010
,  // measure 54
0000
0000
1000
0000
0000
0001
0000
0000
,  // measure 55
1000
0000
0200
0000
,  // measure 56
0000
0000
2300
0000
,  // measure 57
0000
0000
3010
0000
,  // measure 58
0100
0000
0001
1000
,  // measure 59
0001
0000
0020
0000
,  // measure 60
0000
0000
0230
0000
,  // measure 61
0000
0000
1300
0000
,  // measure 62
0001
0000
0100
0001
,  // measure 63
0100
0000
0020
0000
,  // measure 64
0000
0000
2030
0000
,  // measure 65
0000
0000
3100
0000
,  // measure 66
0010
0000
0001
1000
,  // measure 67
0001
0000
0200
0000
,  // measure 68
0000
0000
0320
0000
,  // measure 69
0000
0000
2030
0000
,  // measure 70
0000
0000
3002
0000
,  // measure 71
0000
0000
1003
0000
,  // measure 72
1000
0000
0100
1000
,  // measure 73
0100
0000
0010
0000
,  // measure 74
0010
0000
0001
0100
,  // measure 75
0001
0000
1000
0000
,  // measure 76
1000
0000
0100
0010
,  // measure 77
0100
0000
0010
0000
,  // measure 78
0010
0000
0001
1000
,  // measure 79
0001
0000
0100
0000
,  // measure 80
0100
0000
0010
0100
,  // measure 81
0010
0000
1000
0000
,  // measure 82
1000
0000
0100
1000
,  // measure 83
0100
0000
0010
0000
,  // measure 84
0010
0000
0001
1000
,  // measure 85
0001
0000
0100
0010
,  // measure 86
0100
0010
0100
0000
,  // measure 87
0000
0000
0001
1000
,  // measure 88
0001
1000
0001
0000
,  // measure 89
0000
0000
0010
0001
,  // measure 90
0010
0001
0010
0000
,  // measure 91
0000
0000
0100
0010
,  // measure 92
0100
0010
0100
0000
,  // measure 93
0000
0000
2000
0000
,  // measure 94
0000
0000
0000
0000
,  // measure 95
0000
0000
0000
0000
,  // measure 96
0000
0000
3000
0000
,  // measure 97
0000
0000
1001
0000
,  // measure 98
0001
0000
0100
0001
,  // measure 99
1000
0000
0100
0000
,  // measure 100
0100
0000
1000
0010
,  // measure 101
0100
0000
0001
0000
,  // measure 102
0001
0000
0100
0010
,  // measure 103
1000
0000
1000
0000
,  // measure 104
1000
0000
0100
0000
,  // measure 105
0100
0000
0010
0000
,  // measure 106
0010
0000
0001
0000
,  // measure 107
0001
0000
2000
0000
,  // measure 108
0000
0000
0000
0000
,  // measure 109
0000
0000
3000
0000
;

//---------------dance-single - ----------------
#NOTES:
     dance-single:
     :
     Medium:
     12:
     0.545,0.662,0.216,0.132,0.000: // measure 1
1000
0001
1000
0100
,  // measure 2
1000
0001
1000
0001
,  // measure 3
0100
0010
0100
0001
,  // measure 4
0100
0010
0100
0010
,  // measure 5
1000
0100
1000
0001
,  // measure 6
1000
0100
1000
0100
,  // measure 7
1000
0001
0100
0010
,  // measure 8
0000
1000
0100
1000
,  // measure 9
0010
0100
0100
0100
,  // measure 10
0000
0001
0010
0100
,  // measure 11
1000
0001
0001
0001
,  // measure 12
0000
0100
0010
0100
,  // measure 13
0001
1000
0100
1000
,  // measure 14
0010
0100
0100
0001
,  // measure 15
0001
1000
0100
0010
,  // measure 16
0000
1001
0000
0001
,  // measure 17
0010
0100
0000
1000
,  // measure 18
0100
0010
0000
0001
,  // measure 19
0010
0100
0100
0010
,  // measure 20
0010
0001
0100
0010
,  // measure 21
0100
0001
1000
0100
,  // measure 22
0010
0000
0001
0000
0000
1000
0000
0000
,  // measure 23
0000
2002
0000
0000
,  // measure 24
3003
0001
0100
0001
,  // measure 25
1000
0001
0100
0001
,  // measure 26
0100
0010
0100
0010
,  // measure 27
1000
0100
0010
0001
,  // measure 28
0000
1000
0100
1000
,  // measure 29
0001
1000
0100
1000
,  // measure 30
0010
0200
0000
0000
,  // measure 31
0000
0300
0000
0000
,  // measure 32
0000
1001
0000
0001
,  // measure 33
0010
0100
0000
1000
,  // measure 34
0100
0010
0000
0001
,  // measure 35
0100
0010
0010
1000
,  // measure 36
1000
0001
0010
0100
,  // measure 37
1000
0100
0010
0001
,  // measure 38
0000
1000
0010
0100
,  // measure 39
0010
2000
0000
0000
,  // measure 40
0000
3001
0100
0101
,  // measure 41
0001
1000
0001
1001
,  // measure 42
0000
1000
0100
0010
,  // measure 43
0001
0100
0010
1000
,  // measure 44
0000
0100
1000
1100
,  // measure 45
1000
0010
0100
0110
,  // measure 46
0000
0010
0001
0010
,  // measure 47
0100
2000
0000
0000
,  // measure 48
3000
0100
1000
1100
,  // measure 49
0100
0010
0001
0101
,  // measure 50
0000
0010
0100
0101
,  // measure 51
0001
1000
0100
1100
,  // measure 52
0000
1000
0010
0100
,  // measure 53
0010
1000
0001
0010
,  // measure 54
0100
0000
1000
0000
0000
0010
0000
0000
,  // measure 55
0100
0000
0000
0000
0202
0303
0000
0000
0001
0000
0000
0000
1000
0000
0000
0000
,  // measure 56
0100
1000
0001
0100
,  // measure 57
0010
0100
0001
1000
,  // measure 58
0100
1000
0001
1000
,  // measure 59
0100
0000
0010
0001
,  // measure 60
0100
0010
1000
0100
,  // measure 61
0010
0001
1000
1000
,  // measure 62
0010
0010
0100
0100
,  // measure 63
0001
0001
1000
0001
,  // measure 64
0100
0001
1000
0100
,  // measure 65
1000
0001
0010
0100
,  // measure 66
1000
0001
0100
0001
,  // measure 67
1000
0000
0100
1000
,  // measure 68
0100
1000
0001
0100
,  // measure 69
0010
0100
0001
0010
,  // measure 70
0100
1000
0002
0000
,  // measure 71
0000
0000
1003
0100
,  // measure 72
1100
1000
0001
0100
,  // measure 73
0101
0000
0001
0100
,  // measure 74
1000
0100
0001
0010
,  // measure 75
0100
0000
1000
0001
,  // measure 76
0100
0001
1000
0100
,  // measure 77
0001
0100
1000
0010
,  // measure 78
0100
0001
0010
0100
,  // measure 79
0010
0000
0001
0100
,  // measure 80
0101
0001
1000
0100
,  // measure 81
1100
0000
1000
0100
,  // measure 82
0001
0000
0100
0000
1000
0000
0000
0010
,  // measure 83
0000
0000
1000
0001
,  // measure 84
0101
0100
0010
1000
,  // measure 85
1100
0000
1000
0100
,  // measure 86
0001
0100
1000
0010
,  // measure 87
0100
0000
0001
0000
0010
0001
0010
0000
,  // measure 88
0001
0010
0001
0000
0010
0001
0010
0001
,  // measure 89
0010
0000
0000
0000
0100
1000
0100
0000
,  // measure 90
1000
0100
1000
0000
0100
1000
0100
1000
,  // measure 91
0100
0000
0000
0000
1000
0001
1000
0000
,  // measure 92
0001
1000
0001
0000
1000
0001
1000
0001
,  // measure 93
1000
0000
0200
0000
,  // measure 94
0000
0000
0000
0000
,  // measure 95
0000
0000
0000
0000
,  // measure 96
0000
0000
0300
0000
,  // measure 97
0000
0000
1001
1000
,  // measure 98
0001
0100
0000
0000
0010
0000
1000
0000
,  // measure 99
0001
0010
0001
1000
,  // measure 100
0010
1000
0000
0000
0100
0000
0010
0000
,  // measure 101
0001
0100
0010
0100
,  // measure 102
0001
1000
0000
0000
0100
0000
0010
0000
,  // measure 103
0100
1000
1020
0000
,  // measure 104
0100
0130
1002
0000
,  // measure 105
0010
0013
2001
0000
,  // measure 106
0100
3100
0021
0000
,  // measure 107
0100
0130
2000
0000
,  // measure 108
0000
0000
0000
0000
,  // measure 109
0000
0000
3000
0000
;

//---------------dance-single - ----------------
#NOTES:
     dance-single:
     :
     Hard:
     14:
     0.882,0.866,0.460,0.272,0.000: // measure 1
1001
0000
0001
0000
0100
0001
0000
0100
,  // measure 2
0001
1000
0000
0100
0000
0010
0100
0000
,  // measure 3
1000
0000
1000
0000
0010
0100
0000
0010
,  // measure 4
0100
0001
0000
0010
0000
0100
0010
0000
,  // measure 5
0001
0000
0001
0000
1000
0010
0000
1000
,  // measure 6
0010
0100
0000
0001
0000
1000
0100
0000
,  // measure 7
0010
0000
0010
0000
0001
1000
0000
0001
,  // measure 8
0000
0000
1000
0100
1000
0100
0010
0001
,  // measure 9
0010
0001
1000
0000
0010
0000
1010
0000
,  // measure 10
0000
0000
0100
0001
0100
0001
1000
0010
,  // measure 11
1000
0010
0100
0000
0001
0000
0011
0000
,  // measure 12
0000
0000
0100
0000
1000
0001
1000
0000
,  // measure 13
0100
0010
0100
0000
1000
0010
1000
0010
,  // measure 14
0100
0001
0010
0000
0100
1000
0100
0000
,  // measure 15
0010
0001
0010
0000
0100
0000
0110
0000
,  // measure 16
0000
0000
1001
0000
0000
0001
0010
0100
,  // measure 17
1000
0000
1001
0000
0000
1000
0100
0010
,  // measure 18
0001
0000
1001
0000
0000
0001
0010
0100
,  // measure 19
1000
1001
0001
1001
,  // measure 20
1000
0000
0010
0100
0010
1000
0010
0100
,  // measure 21
0010
0000
1000
0000
0100
0010
0100
1000
,  // measure 22
0010
0100
0020
0000
0000
0230
0000
0000
,  // measure 23
0301
2002
0000
0000
,  // measure 24
3003
0000
1000
0010
1000
0010
0100
0001
,  // measure 25
0100
0001
0010
0000
0100
0000
1100
0000
,  // measure 26
0000
0000
0010
0001
0010
0001
1000
0100
,  // measure 27
1000
0100
0010
0000
0001
0000
0101
0000
,  // measure 28
0000
0000
0100
0010
0100
0001
0100
0010
,  // measure 29
0100
0001
1000
0000
0100
0000
1100
0000
,  // measure 30
0010
0000
0001
0000
0001
0000
0001
1000
,  // measure 31
0000
1000
0000
1000
0000
1000
0001
0000
,  // measure 32
0001
0000
0101
0000
0000
0100
0010
1000
,  // measure 33
0100
0000
1100
0000
0000
1000
0010
0100
,  // measure 34
0001
0000
0101
0000
0000
0100
0010
1000
,  // measure 35
0001
1001
1000
1001
,  // measure 36
0001
0000
0010
0000
0100
1000
0001
0100
,  // measure 37
0001
1000
0100
0010
0001
1000
0010
0000
,  // measure 38
0000
0000
0100
0001
0100
0010
1000
0000
,  // measure 39
0001
1000
0100
1000
0001
1000
0100
0000
,  // measure 40
0000
0000
1001
0000
0001
0100
0001
0000
,  // measure 41
0001
0100
0001
0000
1000
0020
0000
0130
,  // measure 42
0001
1000
0100
1000
0100
0010
0001
0010
,  // measure 43
0001
0100
0020
0000
0000
2000
0000
0000
,  // measure 44
3030
0000
1001
0000
1000
0100
1000
0000
,  // measure 45
1000
0100
1000
0000
0001
0000
0100
0001
,  // measure 46
0100
0010
1000
0100
0010
0100
1000
0100
,  // measure 47
0010
0001
0100
0000
0100
0000
0001
0000
,  // measure 48
0001
0000
1000
0100
1000
0000
1000
0100
,  // measure 49
1000
0010
0001
0010
1000
0200
0000
0000
,  // measure 50
0310
0000
0001
0010
0001
0000
0001
0010
,  // measure 51
0001
0100
1000
0100
0001
0020
0000
0230
,  // measure 52
0000
0000
1300
0001
0100
0001
1000
0000
,  // measure 53
1001
0000
0001
0100
0010
0100
0001
0000
,  // measure 54
0101
0000
0110
0000
0000
1010
0000
0000
,  // measure 55
0110
0000
0000
0000
0220
0330
0000
0000
1001
0000
0000
0000
1001
0000
0000
0000
,  // measure 56
1000
0001
0100
0000
0010
1000
0000
0001
,  // measure 57
0000
1000
0010
0000
0110
0000
0110
0000
,  // measure 58
0100
0001
0010
0000
0001
1000
0000
0100
,  // measure 59
0000
1000
0001
0000
1000
0100
0000
0010
,  // measure 60
0000
0100
1000
0000
0010
0100
0001
0010
,  // measure 61
0000
0100
0010
0000
0002
0000
0103
0010
,  // measure 62
2000
0000
3010
0100
0001
0100
0001
1000
,  // measure 63
0100
1000
0001
0000
1001
0000
1001
0000
,  // measure 64
1000
0001
0010
0000
0001
1000
0000
0010
,  // measure 65
0000
1000
0001
0000
0101
0000
0101
0000
,  // measure 66
0100
0010
1000
0000
0100
0010
0000
0001
,  // measure 67
0010
0100
0010
0001
0100
0000
0101
0000
,  // measure 68
0001
1000
0100
0000
0010
0001
0000
1000
,  // measure 69
0000
0001
0010
0000
0200
0000
2300
0000
,  // measure 70
3020
0000
0230
0000
0301
0010
0100
1000
,  // measure 71
0001
0010
0100
1000
0001
0000
1000
0100
,  // measure 72
1000
0000
1000
0100
1000
0001
0100
0020
,  // measure 73
0000
0230
0000
0301
1000
0100
1000
0100
,  // measure 74
0010
0001
0010
0001
2000
0000
0000
0020
,  // measure 75
0000
0000
3030
0000
1001
0000
0001
0100
,  // measure 76
0001
0000
0001
0100
0001
0010
1000
0010
,  // measure 77
0001
0100
0010
0000
0100
0001
0100
0010
,  // measure 78
0100
0001
0100
0010
1000
0000
1000
0000
,  // measure 79
0001
0001
0011
0011
,  // measure 80
0100
1000
0100
1000
0001
0100
0010
2000
,  // measure 81
0000
3001
1000
0100
1000
0010
0001
0010
,  // measure 82
1000
0100
0010
0001
0200
0000
0000
0020
,  // measure 83
0000
0000
0330
0000
1001
0000
1000
0010
,  // measure 84
1000
0000
1000
0010
1000
0100
0001
0100
,  // measure 85
1000
0000
0010
0100
0001
1000
0100
1000
,  // measure 86
0001
1000
0100
1000
0002
0000
0000
0000
,  // measure 87
0000
0000
0003
0000
1000
0010
0001
0010
,  // measure 88
1000
0100
0010
0001
1000
0010
0001
0010
,  // measure 89
1000
0000
1001
0000
0001
0010
1000
0010
,  // measure 90
0001
0010
0100
1000
0001
0010
1000
0010
,  // measure 91
0001
0000
1001
0000
1000
0100
0001
0100
,  // measure 92
1000
0010
0001
0010
1000
0001
0100
0010
,  // measure 93
1000
1010
2002
0000
,  // measure 94
0000
0000
0000
0000
,  // measure 95
0000
0000
0000
0000
,  // measure 96
0000
0000
3003
0000
,  // measure 97
0000
0000
0011
0011
,  // measure 98
0100
1000
0000
0001
1000
0100
1000
0001
,  // measure 99
0000
0100
0001
0000
1001
0000
1001
0000
,  // measure 100
1000
0010
0000
1000
0001
0010
0100
1000
,  // measure 101
0100
0010
0001
0000
0101
0000
0101
0000
,  // measure 102
0010
1000
0000
0001
0010
0100
0010
0001
,  // measure 103
0100
0010
0100
0000
0001
0100
0001
0100
,  // measure 104
0001
0100
0001
0100
1000
0100
1000
0100
,  // measure 105
1000
0100
1000
0100
0001
1000
0001
1000
,  // measure 106
0001
1000
0001
1000
0100
0010
0100
0010
,  // measure 107
0100
0010
0100
0010
0002
0000
0000
0000
,  // measure 108
0000
0000
0000
0000
,  // measure 109
0000
0000
0003
0000
;

//---------------dance-single - ----------------
#NOTES:
     dance-single:
     :
     Beginner:
     3:
     0.130,0.200,0.047,0.000,0.000: // measure 1
1000
0000
0000
0000
,  // measure 2
0010
0000
0000
0000
,  // measure 3
1000
0000
0000
0000
,  // measure 4
0010
0000
0000
0000
,  // measure 5
0100
0000
0000
0000
,  // measure 6
0001
0000
0000
0000
,  // measure 7
0100
0000
0000
0000
,  // measure 8
0000
0001
0000
0000
,  // measure 9
0000
0000
0000
0000
,  // measure 10
0000
0001
0000
0000
,  // measure 11
0000
0000
0000
0000
,  // measure 12
0000
1000
0000
0000
,  // measure 13
0000
0000
0000
0000
,  // measure 14
0000
1000
0000
0000
,  // measure 15
0000
0000
0000
0000
,  // measure 16
0000
0001
0000
0000
,  // measure 17
0000
0010
0000
0000
,  // measure 18
0000
0100
0000
0000
,  // measure 19
0000
1000
0000
0000
,  // measure 20
0000
0001
0000
0000
,  // measure 21
0000
0010
0000
0000
,  // measure 22
0000
0100
0000
0000
,  // measure 23
0000
0000
0000
0000
,  // measure 24
0000
1000
0000
0000
,  // measure 25
0000
0000
0000
0000
,  // measure 26
0000
0001
0000
0000
,  // measure 27
0000
0000
0000
0000
,  // measure 28
0000
1000
0000
0000
,  // measure 29
0000
0000
0000
0000
,  // measure 30
0000
0100
0000
0000
,  // measure 31
0000
0000
0000
0000
,  // measure 32
0000
1000
0000
0000
,  // measure 33
0000
0010
0000
0000
,  // measure 34
0000
0100
0000
0000
,  // measure 35
0000
0001
0000
0000
,  // measure 36
0000
1000
0000
0000
,  // measure 37
0000
0010
0000
0000
,  // measure 38
0000
0100
0000
0000
,  // measure 39
0000
0000
0000
0000
,  // measure 40
0000
0001
0000
0000
,  // measure 41
0000
0001
0000
0000
,  // measure 42
0000
1000
0000
0000
,  // measure 43
0000
1000
0000
0000
,  // measure 44
0000
0001
0000
0000
,  // measure 45
0000
0001
0000
0000
,  // measure 46
0000
0010
0000
0000
,  // measure 47
0000
0100
0000
0000
,  // measure 48
0000
1000
0000
0000
,  // measure 49
0000
1000
0000
0000
,  // measure 50
0000
0001
0000
0000
,  // measure 51
0000
0001
0000
0000
,  // measure 52
0000
1000
0000
0000
,  // measure 53
0000
1000
0000
0000
,  // measure 54
0000
0010
0000
0000
,  // measure 55
0000
0000
0100
0000
,  // measure 56
0000
0000
0000
0000
,  // measure 57
0000
0000
0001
0000
,  // measure 58
0000
0000
0000
0000
,  // measure 59
0000
0000
1000
0000
,  // measure 60
0000
0000
0000
0000
,  // measure 61
0000
0000
0100
0000
,  // measure 62
0000
0000
0000
0000
,  // measure 63
0000
0000
0010
0000
,  // measure 64
0000
0000
0001
0000
,  // measure 65
0000
0000
0010
0000
,  // measure 66
0000
0000
0001
0000
,  // measure 67
0000
0000
0100
0000
,  // measure 68
0000
0000
0010
0000
,  // measure 69
0000
0000
0100
0000
,  // measure 70
0000
0000
0000
0000
,  // measure 71
0000
0000
1001
0000
,  // measure 72
0000
0000
0001
0000
,  // measure 73
0000
0000
1000
0000
,  // measure 74
0000
0000
0010
0000
,  // measure 75
0000
0000
0100
0000
,  // measure 76
0000
0000
0001
0000
,  // measure 77
0000
0000
1000
0000
,  // measure 78
0000
0000
0100
0000
,  // measure 79
0000
0000
1000
0000
,  // measure 80
0000
0000
0001
0000
,  // measure 81
0000
0000
1000
0000
,  // measure 82
0000
0000
0100
0000
,  // measure 83
0000
0000
1000
0000
,  // measure 84
0000
0000
0001
0000
,  // measure 85
0000
0000
0010
0000
,  // measure 86
0000
0000
0100
0000
,  // measure 87
0000
0000
1000
0000
,  // measure 88
1000
0000
1000
0000
,  // measure 89
0000
0000
0001
0000
,  // measure 90
0001
0000
0001
0000
,  // measure 91
0000
0000
1000
0000
,  // measure 92
1000
0000
1000
0000
,  // measure 93
0000
0000
0001
0000
,  // measure 94
0000
0000
0000
0000
,  // measure 95
0000
0000
0000
0000
,  // measure 96
0000
0000
0000
0000
,  // measure 97
0000
0000
0010
0000
,  // measure 98
0000
0000
0100
0000
,  // measure 99
0000
0000
0010
0000
,  // measure 100
0000
0000
0100
0000
,  // measure 101
0000
0000
1000
0000
,  // measure 102
0000
0000
0001
0000
,  // measure 103
0000
0000
1001
0000
,  // measure 104
0000
0000
1001
0000
,  // measure 105
0000
0000
1001
0000
,  // measure 106
0000
0000
1001
0000
,  // measure 107
0000
0000
1000
0000
;
