#TITLE:琴古都;
#SUBTITLE:;
#ARTIST:Jimmy Weckl;
#TITLETRANSLIT:KOTO KOTO;
#SUBTITLETRANSLIT:;
#ARTISTTRANSLIT:;
#CREDIT:DigiMindAxel;
#BANNER:KOTO KOTO.png;
#BACKGROUND:KOTO KOTO-bg.png;
#LYRICSPATH:;
#CDTITLE:pop'n music.png;
#MUSIC:KOTO KOTO.ogg;
#METERTYPE:DDR X;
#OFFSET:-10.977;
#SAMPLESTART:34.960;
#SAMPLELENGTH:12.000;
#SELECTABLE:YES;
#BPMS:0.000=120.000;
#STOPS:;
#BGCHANGES:;

//---------------dance-single - ----------------
#NOTES:
     dance-single:
     :
     Easy:
     5:
     0.209,0.191,0.029,0.078,0.000:
2000
0001
0000
3001
,
0020
0001
0000
0031
,
0200
0010
0000
0310
,
2002
0000
0000
3003
,
0001
0100
0000
0001
,
0000
1000
0000
0100
,
0000
0010
0000
0100
,
0000
1000
0000
0001
,
0100
0001
0000
1000
,
0000
0100
0000
0010
,
0100
1000
0100
1000
,
0002
0000
0000
0003
,
1001
1000
0100
0000
,
0010
0001
0100
0000
,
0010
0100
0001
0000
,
1000
0100
0010
0000
,
0100
1000
0001
0000
,
0100
0001
1000
0000
,
0100
0010
0001
0000
,
1000
0100
0010
0000
,
0001
0100
0010
0100
,
0001
0000
0000
1000
,
0100
0010
0100
1000
,
0010
0100
0001
1000
,
0100
1000
0100
0010
,
0001
0100
0010
0100
,
0001
0010
0100
1000
,
0002
0000
0000
0003
,
1001
1000
0100
0010
,
0100
1000
0010
0000
,
0100
0001
0010
0001
,
0100
0010
0100
0010
,
1000
0100
0010
0100
,
1000
0001
0100
0000
,
0001
1000
0100
0010
,
0100
1000
0100
0010
,
0001
0100
0010
0100
,
0001
0100
0010
0100
,
0010
1000
0100
0010
,
0100
1000
0100
0010
,
0001
0100
0010
0100
,
0001
1000
0100
1000
,
0001
0010
0100
1000
,
0002
0000
0003
0000
;

//---------------dance-single - ----------------
#NOTES:
     dance-single:
     :
     Medium:
     9:
     0.424,0.383,0.205,0.137,0.171:
2000
0001
0001
3001
,
0200
0001
0001
0301
,
2000
0100
0100
3100
,
1001
1000
0100
0010
0001
1000
0100
0010
,
0001
0000
0000
0000
1000
0000
0000
0010
0000
1000
0000
0000
1001
0000
0000
0000
,
0001
0100
0001
0000
1000
0100
0010
0000
,
0001
0000
0000
0000
0100
0000
0000
0001
0000
1000
0000
0000
1001
0000
0000
0000
,
0001
0010
0001
0000
0100
0010
1000
0000
,
1001
0000
0000
0000
0001
0000
0000
0100
0000
0000
0000
0000
0110
0000
0000
0000
,
0010
1000
0100
0010
0001
1000
0100
0010
,
0000
1001
0000
0000
1000
0000
0000
1010
0000
0000
0010
0000
0000
0110
0000
0000
,
1001
0000
0000
2002
0000
0000
0000
0000
0000
0000
0000
0000
0000
0000
3003
0000
,
1001
1000
0001
0100
0001
1000
0001
0010
,
0100
1000
0010
0100
0010
1000
0100
0010
,
0002
0000
0000
0000
0000
1000
0000
0000
0000
1003
0000
0000
0001
0000
0100
0000
,
0010
2000
0000
0000
3001
1000
0100
0010
,
0001
0100
0010
0100
0001
0010
0100
1000
,
0001
0100
1000
0100
0001
0100
1000
0100
,
0002
0000
0000
0000
0000
1000
0000
0000
1003
0000
0000
0000
0001
0000
0010
0000
,
0200
0000
0000
0000
0000
1000
0000
0000
1000
0000
0000
0000
1300
0000
0000
0000
,
0001
1000
0100
1000
0001
0100
0010
0100
,
0001
0000
0000
0000
1000
0000
0000
0001
0000
1000
0000
0000
0100
0000
1000
0000
,
0100
0010
0001
1000
0010
0100
0001
1000
,
0100
0001
0100
1000
0010
0001
0010
1000
,
0001
1000
0100
0001
0100
1000
0001
0000
,
1000
0001
0100
1000
0100
0001
1000
0000
,
0100
0010
0001
1000
0010
1000
0001
1000
,
0000
1001
0000
1001
0000
1001
0000
0000
,
1000
0001
0100
0001
1000
1000
0001
0010
,
0100
0010
0001
1000
0010
0000
1001
0000
,
1000
0100
0010
0100
1000
1000
0001
0100
,
0000
1001
0000
0000
0000
1001
0000
0000
0000
1001
0000
0000
0000
1001
0000
0000
,
0001
0010
1000
0010
0001
0001
1000
0100
,
0010
0100
1000
0001
0100
0000
0001
1000
,
0100
0001
0100
1000
0010
0001
0010
1000
,
0000
1001
0000
0000
0000
1001
0000
0000
0001
0000
0010
0000
0100
0000
1000
0000
,
0001
0000
0000
1000
0000
0001
0000
0100
0000
0001
0000
1000
0000
0000
0000
0000
,
0100
0000
0000
1000
0000
0100
0000
0010
0000
0100
0000
1000
0000
0000
0000
0000
,
0001
0000
0100
0000
0010
0000
0000
1000
0000
0001
0000
0010
0000
0001
0000
0000
,
2000
3020
0230
0302
,
1003
0001
0010
0000
0001
1000
0010
0000
,
0100
0001
0010
1000
0010
0001
1000
0000
,
0010
1000
0100
0001
0100
1000
0001
0010
,
0200
0000
0310
0000
;

//---------------dance-single - ----------------
#NOTES:
     dance-single:
     :
     Hard:
     14:
     0.695,0.701,0.108,0.039,1.000: // measure 1
1000
1000
0010
0110
,  // measure 2
0100
0100
0001
1001
,  // measure 3
0010
0010
0001
1001
,  // measure 4
1000
0100
1000
0100
0010
0001
0010
0001
0100
0010
0100
0010
1000
0100
0010
0001
,  // measure 5
1000
0000
0010
0000
1000
0000
0000
0001
0000
0001
0000
0100
0010
0000
1000
0010
,  // measure 6
1000
0001
0010
0001
0000
1000
0000
0010
0000
0100
0001
1000
0100
1000
0100
0010
,  // measure 7
0001
1000
0010
1000
0010
0100
0001
0100
0001
0010
0100
1000
0000
0001
0000
1000
,  // measure 8
0010
1000
0010
0100
0001
0100
0001
1000
0100
0010
0001
0010
0100
1000
0010
1000
,  // measure 9
0001
0000
1000
0000
0001
0000
0000
0100
0000
0100
0000
0010
0100
0001
1000
0100
,  // measure 10
1000
0100
0001
0100
0001
0100
1000
0010
1000
0010
0001
0010
0001
0010
1000
0001
,  // measure 11
0000
1001
0000
0001
0100
0000
0100
0010
0000
0010
1000
0000
1000
0100
0010
0001
,  // measure 12
1000
0000
0000
1001
0000
0000
1000
0001
1000
0000
0000
0001
1000
0000
0100
0010
,  // measure 13
0100
0000
1000
0001
0000
0100
0000
1000
0000
0100
0000
0001
0000
0010
0100
1000
,  // measure 14
0001
0000
0100
0001
0000
0010
0000
1000
0000
0010
0000
0001
0000
1000
0001
0000
,  // measure 15
0100
0000
0100
0000
0000
0001
0010
0100
0000
0010
0100
1000
0000
0001
0100
0010
,  // measure 16
1000
0000
2000
0000
0000
0000
3000
0000
0001
0010
0001
0010
0100
1000
0100
1000
,  // measure 17
0001
0000
1000
0001
0000
0010
0000
1000
0000
0010
0000
0001
0000
1000
0001
0000
,  // measure 18
0100
0001
0100
0001
0100
1000
0100
1000
0100
0001
0100
0001
1000
0100
0010
0001
,  // measure 19
1000
0000
1000
0000
0000
0001
0010
0100
1000
0001
0100
0001
1000
0100
0010
0001
,  // measure 20
1000
0000
1000
0000
0000
0001
0100
0010
1000
0100
0010
0100
1000
0001
0000
0000
,  // measure 21
1001
0000
0001
1000
0000
0010
0000
0001
0000
0010
0000
1000
0000
0001
1000
0100
,  // measure 22
0010
0000
0010
0000
0001
0000
0000
0100
0000
0100
0000
0010
1000
0001
1000
0001
,  // measure 23
1000
0100
1000
0100
0001
0100
0001
0100
1000
0010
1000
0010
0001
0010
0001
0010
,  // measure 24
1000
0100
1000
0100
0010
0001
0010
0001
1000
0010
1000
0010
0100
0001
1000
0100
,  // measure 25
0010
0001
1000
0010
0000
0010
0000
0100
0000
0001
0000
1000
0000
0001
0000
0000
,  // measure 26
0010
0100
1000
0001
0000
0001
0000
0010
0000
0100
0000
1000
0000
0001
0000
0000
,  // measure 27
1000
0010
1000
0010
0100
0001
0100
0001
1000
0100
0010
0100
1000
0001
1000
0000
,  // measure 28
1000
0010
1000
0000
0001
1000
0001
0000
0001
0100
0001
0000
1000
0100
0010
0001
,  // measure 29
1000
0000
0010
1000
0000
0100
0000
0010
0000
0001
0000
1000
0000
0010
1000
0000
,  // measure 30
0001
0000
0010
0001
0000
0100
0000
0010
0000
0010
0000
0000
1001
0000
1000
0100
,  // measure 31
0010
0001
1000
0010
0000
0000
1000
0001
0010
0100
0010
0001
0000
0100
0010
1000
,  // measure 32
0001
0010
0001
0000
0001
1000
0001
0000
1000
0100
1000
0000
1000
0001
1000
0000
,  // measure 33
1001
0000
0001
0100
0000
0010
0000
1000
0000
0100
0000
0010
0000
0001
1000
0000
,  // measure 34
0010
0000
0100
0001
0000
0010
0000
0100
0000
0100
0000
0000
1001
0000
0001
0100
,  // measure 35
1000
0100
0002
0000
0000
0000
1003
0100
0001
0100
2000
0000
0000
0000
3001
0010
,  // measure 36
0100
1000
0001
0100
1000
0100
0001
0010
0001
0010
0100
1000
0100
1000
0001
0000
,  // measure 37
1001
0000
0000
0000
1000
0000
0001
0000
0000
0000
0100
0000
0000
0000
1000
0000
0000
0000
0100
0000
0000
0000
0010
0000
0000
0000
1000
0000
0000
0001
0000
0000
,  // measure 38
1000
0000
0001
1000
0000
0010
0000
0001
0000
0010
0000
0100
0000
0001
0000
1000
,  // measure 39
0001
0000
0010
0000
1000
0000
0010
0000
0001
0000
0000
0000
1000
0000
0001
0000
0000
0000
0100
0000
0000
0000
1000
0000
0000
0000
0100
0000
0000
0010
0000
0000
,  // measure 40
1000
0000
0000
0000
0000
0000
0000
0000
0000
0000
0000
0000
0000
0000
0000
0000
0100
0000
0000
0000
0000
0000
0000
0000
0000
0000
0000
0000
0000
0000
0000
0000
0010
0000
0000
0000
0000
0000
0000
0000
0000
0000
0000
0000
0000
0000
0000
0000
0001
0000
0000
0000
0000
0000
0000
0000
0000
0000
0000
0000
0000
0000
0000
0000
0010
0000
0000
0000
0000
0000
0000
0000
0000
0000
0000
0000
0000
0000
0000
0000
0100
0000
0000
0000
0000
0000
0000
0000
0000
0000
0000
0000
0000
0000
0000
0000
1000
0000
0000
0000
0000
0000
0000
0000
0000
0000
0000
0000
0000
0000
0000
0000
0000
0000
0010
0000
0000
0000
0000
0000
0000
0000
0000
0000
0000
0000
0000
0000
0000
0000
0000
0000
0100
0000
0000
0000
0000
0000
0000
0000
0000
0000
0000
0000
0000
0000
0000
0000
0000
0000
0101
0000
0000
0000
0000
0000
0000
0000
0000
0000
0000
0000
0000
0000
0000
0000
0000
0000
0000
0000
0000
0000
0000
0000
0000
0000
0000
0000
0000
0000
0001
0000
0000
0000
0000
0000
0000
0000
0000
0000
0000
0000
,  // measure 41
0100
1000
0100
0001
1000
0000
0000
0001
0010
1000
0010
0001
1000
0000
0000
0001
,  // measure 42
0100
1000
0100
0001
1000
0010
0001
0010
1000
0001
0100
1000
0100
0000
0000
0001
,  // measure 43
1000
0100
0001
0100
1000
0010
0100
0010
1000
0001
0100
1000
0100
0010
1000
0001
,  // measure 44
0020
0000
0130
0000
;

//---------------dance-single - ----------------
#NOTES:
     dance-single:
     :
     Beginner:
     2:
     0.091,0.128,0.039,0.000,0.000:
1000
0000
0000
0000
,
0001
0000
0000
0000
,
1000
0000
0000
0000
,
1001
0000
0000
0000
,
0001
0000
0000
0000
,
0100
0000
0000
0000
,
0010
0000
0000
0000
,
0100
0000
0000
0000
,
0001
0000
0000
0000
,
1000
0000
0000
0000
,
0100
0000
0010
0000
,
0100
0000
0000
0000
,
1000
0000
0000
0000
,
0010
0000
0000
0000
,
0100
0000
0000
0000
,
0100
0000
0000
0000
,
0001
0000
0000
0000
,
0010
0000
0100
0000
,
0010
0000
0000
0000
,
0001
0000
0000
0000
,
1001
0000
1000
0000
,
0010
0000
0000
0000
,
1000
0000
0010
0000
,
1000
0000
0000
0000
,
0001
0000
1000
0000
,
0100
0000
0010
0000
,
0001
0000
0001
0000
,
1000
0000
0000
0000
,
1001
0000
0001
0000
,
0010
0000
0000
0000
,
0100
0000
1000
0000
,
0001
0000
0000
0000
,
0100
0000
0010
0000
,
1000
0000
0000
0000
,
0010
0000
0100
0000
,
0001
0000
0001
0000
,
1001
0000
0000
0000
,
1000
0000
0000
0000
,
0100
0000
0000
0000
,
0010
0000
0100
0000
,
1000
0000
0001
0000
,
1000
0000
0100
0000
,
1000
0000
0010
0000
,
0100
0000
0100
0000
;
