#TITLE:恋歌疾風!かるたクイーンいろは;
#SUBTITLE:;
#ARTIST:ねこまんまチーム!;
#TITLETRANSLIT:KOIUTA SHIPPUU! KARUTA QUEEN IROHA;
#SUBTITLETRANSLIT:;
#ARTISTTRANSLIT:NEKO MAMMA TEAM!;
#CREDIT:DigiMindAxel;
#BANNER:KOIUTA SHIPPUU! KARUTA QUEEN IROHA.png;
#BACKGROUND:KOIUTA SHIPPUU! KARUTA QUEEN IROHA-bg.png;
#LYRICSPATH:KOIUTA SHIPPUU! KARUTA QUEEN IROHA.lrc;
#CDTITLE:pop'n music.png;
#MUSIC:KOIUTA SHIPPUU! KARUTA QUEEN IROHA.ogg;
#METERTYPE:DDR X;
#OFFSET:1.440;
#SAMPLESTART:85.959;
#SAMPLELENGTH:12.000;
#SELECTABLE:YES;
#BPMS:0.000=120.000,37.000=168.000;
#STOPS:;
#BGCHANGES:2.000=KOIUTA SHIPPUU! KARUTA QUEEN IROHA.avi=1.000=1=1=0,
99999=-nosongbg-=1.000=0=0=0 // don't automatically add -songbackground-
;

//---------------dance-single - ----------------
#NOTES:
     dance-single:
     :
     Easy:
     6:
     0.309,0.358,0.279,0.170,0.000:
0000
0000
0000
0000
,
0000
0000
0000
0000
,
0000
0000
0000
0000
,
0000
0000
0000
0000
,
0000
0000
0000
0000
,
2000
0000
0000
0000
,
3200
0000
0000
0000
,
0310
0000
0001
0000
,
2000
0000
3001
0000
,
0000
0000
0000
0000
,
1000
0000
1001
0000
,
1001
0000
1001
0000
,
1001
0000
0110
0000
,
0110
0000
0110
0000
,
0110
0000
0010
0100
,
0010
0100
0010
0100
,
0010
0000
1000
0001
,
1000
0001
1000
0100
,
0010
0001
2000
0000
,
0000
0000
3002
0000
,
0000
0000
2003
0000
,
0000
0000
3002
0000
,
0000
0000
1003
0100
,
1000
0100
1000
0001
,
1000
0001
1000
0010
,
0100
0001
1000
0010
,
0100
0000
0001
1000
,
0001
1000
0001
1000
,
0001
0010
0100
1000
,
0100
1000
0010
0100
,
0001
1000
0010
0100
,
0002
0000
1003
0100
,
0010
0001
2000
0000
,
3200
0000
1300
0010
,
0100
0010
2000
0000
,
3002
0000
1003
0100
,
0010
0100
1000
1000
,
0001
0001
0100
0010
,
0100
0000
1001
0000
,
0000
0110
1001
0000
,
0000
0110
1001
0000
,
0001
0000
1000
0000
,
1001
1001
0010
0000
,
0000
0110
1001
0000
,
0000
0110
1001
0000
,
0001
0000
1000
0100
,
0010
0001
2000
0000
,
3200
0000
2300
0000
,
0000
0000
3002
0000
,
0203
0000
0302
0000
,
0000
0000
1003
0001
,
1000
0001
1000
0100
,
1000
0100
0010
0001
,
0010
0001
0110
0000
,
0110
0000
1001
0000
,
1001
0000
0001
0010
,
0100
2000
0000
0000
,
0000
0000
3001
1001
,
1001
0010
0100
1000
,
0100
0010
0001
0001
,
0100
0100
0001
0010
,
0100
1000
1001
1001
,
0010
0100
0001
0010
,
0100
0000
1000
1000
,
0010
0010
0100
0100
,
0001
0100
0001
0001
,
1000
1000
0010
0010
,
0100
0001
0010
0010
,
0100
0100
1000
0001
,
0010
0100
1000
1000
,
0001
0001
0100
0100
,
0001
1000
0200
0000
,
0000
0000
0320
0000
,
0000
0000
0031
1001
,
1001
0000
1000
1001
,
1001
0000
0010
0100
,
0010
0100
1000
0100
,
0010
0001
1001
1001
,
0000
0000
1000
1001
,
1001
0000
0001
0010
,
0100
1000
0010
0100
,
0010
1000
1002
0000
,
0000
0000
0000
0000
,
0000
0000
0000
0000
,
0003
0000
0000
0000
;

//---------------dance-single - ----------------
#NOTES:
     dance-single:
     :
     Medium:
     10:
     0.436,0.553,0.480,0.124,0.000:
0000
0000
0000
0000
,
0000
0000
0000
0000
,
0000
0000
0000
0000
,
0000
0000
0000
0000
,
0000
0000
0000
0000
,
0001
0000
0010
0000
,
0100
0000
1000
0000
,
1001
0000
0001
0000
,
1000
0000
0020
0000
,
0000
0030
0000
0000
,
0100
0010
0100
0000
0001
0100
0001
0000
,
1000
0001
1000
0000
0001
0100
0001
0000
,
1000
0001
1000
0000
0100
1000
0100
0000
,
0010
0100
0010
0000
0100
1000
0100
0000
,
0010
0100
0010
0000
0000
1001
0000
1000
,
0000
0001
0000
0010
0000
0100
0000
1000
,
0000
0001
1000
0000
0000
0110
0000
0010
,
0000
0100
0000
0010
0000
1000
0000
0100
,
0000
0010
0100
0000
2000
0000
0000
0000
,
0000
0000
3020
0000
,
0000
0000
0230
0000
,
0000
0000
0302
0000
,
0000
0000
1003
0010
,
0100
0010
1000
0010
,
0100
0010
0110
0100
,
0101
0000
0001
0000
1001
0000
1000
0100
,
0010
0000
0000
0000
0000
1001
0000
1000
,
0000
0001
0000
0010
0000
0100
0000
1000
,
0000
0010
0100
0000
0000
1001
0000
1000
,
0000
0001
0000
0010
0100
0010
0100
0000
,
1000
0001
1000
0000
0001
0000
0010
0100
,
1000
0000
0001
1000
0001
0000
0010
0000
,
1000
0000
0010
0000
0001
0010
0100
0000
,
1000
0001
1000
0000
0100
0000
0001
0000
,
0100
0000
1001
0000
0010
0100
0001
0000
,
1000
0100
1000
0000
0100
0000
0001
0000
,
0100
0000
1000
0000
0100
1000
0100
0000
,
0010
0001
0010
0000
0110
0000
1001
0000
,
0110
0000
0120
0000
,
0000
1030
1001
0000
0210
0000
0000
0000
,
0000
0301
1001
0000
0010
0100
0010
0000
,
1000
0100
0010
0000
0001
0100
0001
0000
,
0100
0100
0010
0010
0200
0000
0000
0000
,
0000
0301
1001
0000
0120
0000
0000
0000
,
0000
1030
1001
0000
0010
1000
0100
0000
,
0010
0100
0010
0000
0001
1000
0001
0000
,
1001
0110
0200
0000
,
1300
0001
0010
0100
,
1000
0000
0020
0000
,
0230
0000
0301
1000
,
0100
1000
1001
0000
,
0100
0001
0100
0000
0001
0000
0010
0000
,
0100
0000
1000
0010
1000
0000
0100
0000
,
0010
0000
0100
0000
1000
1000
1000
0000
,
0001
0001
0001
0000
1000
1000
1000
0000
,
0001
0001
0001
0000
0010
0100
0010
0000
,
0100
1000
0100
2000
0000
0000
0000
0000
,
0000
0000
3010
0110
,
0110
0000
0001
0000
0010
0100
1000
0000
,
0001
0010
0100
0000
0010
0001
0010
0000
,
0100
0010
0100
0000
1000
0100
1000
0000
,
1001
0110
0110
0110
,
0100
1000
0001
0000
0100
0010
1000
0010
,
0100
0000
0101
1001
,
0110
1001
1100
1001
,
0010
0100
0101
0101
,
1001
1001
1010
1010
,
0100
0010
0100
0000
1100
0000
1100
0000
,
1001
1001
0011
0011
,
0100
0010
0100
0000
0000
1001
0000
1000
,
0000
0001
0000
0010
0000
0100
0000
1000
,
0000
0001
0100
0000
0120
0000
0000
1000
,
0000
0000
1030
0000
0210
0000
0000
0001
,
0000
0301
1001
0110
,
0110
0000
1001
0110
,
0110
0000
0000
0000
0100
1000
0010
0000
,
0100
0001
0010
0000
0100
1000
0100
0000
,
0010
0100
0010
0000
1001
0000
1001
0000
,
0110
0000
0110
0110
,
1001
0000
0000
0000
1000
0100
0010
0000
,
0100
0010
0001
0000
0100
0001
0100
0000
,
0010
0100
0010
0000
1020
0000
0000
0000
,
0000
0000
0000
0000
,
0000
0000
0000
0000
,
0030
0000
0000
0000
;

//---------------dance-single - ----------------
#NOTES:
     dance-single:
     :
     Hard:
     13:
     0.640,0.715,0.062,0.093,0.279:
0000
0000
0000
0000
,
0000
0000
0000
0000
,
0000
0000
0000
0000
,
0000
0000
0000
0000
,
0000
0000
0000
0000
,
0000
0010
0100
0010
0100
0010
1000
0000
,
0001
0010
0100
1000
0010
0010
0010
0000
,
1000
0100
0010
0001
1000
0100
0010
0001
,
1000
0010
0100
0010
2000
0000
0000
0000
,
3001
0000
1001
0000
,
1000
1000
0001
0001
0100
0010
0100
0000
,
0100
0001
0100
0000
0001
1000
0001
0000
,
0001
0010
0001
0000
1000
0010
1000
0000
,
1000
0001
1000
0000
0100
1000
0100
0000
,
1000
0001
1000
0000
0001
1000
0001
0000
1000
0000
0100
0000
1000
0000
0100
0000
,
1000
0001
1000
0001
1000
0100
1000
0100
,
1000
0010
0100
0100
0000
0001
0100
0001
,
0100
0001
1000
0001
1000
0001
0010
0001
,
0010
0100
0100
0000
1020
0000
0000
0000
,
0000
0130
0002
0000
,
0000
0013
0200
0000
,
0000
0310
0002
0000
,
0000
1000
1003
0000
0001
0000
0100
0000
,
0010
1000
0001
0100
,
0010
0000
1000
0000
0001
1000
0001
1000
,
0100
0010
0100
0000
1000
0000
1000
0010
,
0100
0000
1001
0000
0001
0010
0100
0010
,
0001
0010
0100
0010
0001
0010
0100
0010
,
0001
0100
0100
0000
0000
0001
1000
0100
,
1000
0001
1000
0100
1000
0001
1000
0010
,
0001
0010
1000
0001
0100
0010
0100
0001
,
0100
0000
1000
0100
0010
1000
0001
0010
,
0100
1000
0001
0100
0010
0010
1000
1000
,
0100
0010
0100
0000
1000
0010
0001
0010
,
1000
0010
0110
0000
0010
0100
0010
1000
,
0010
0000
0001
0010
0100
0001
1000
0100
,
0010
0100
1000
0000
0001
0001
0100
0100
,
0001
0010
0100
1000
0010
0100
0010
1000
,
0100
0000
0010
0000
0010
0000
0000
0000
0001
1000
0001
0000
1000
0000
0100
0000
,
0000
0000
0010
0000
0110
0000
0000
0000
1000
0001
1000
0000
0001
0000
0010
0000
,
0000
0000
0100
0000
0110
0000
0000
0000
0001
1000
0001
0000
1000
0000
0100
0000
,
1000
0001
1000
0000
0001
0000
0010
0000
0100
0010
0100
0000
1000
0000
0010
0000
,
0100
0000
0100
0000
0001
0000
0001
0000
1000
0001
1000
0000
0100
0000
0010
0000
,
0000
0000
0001
0000
0101
0000
0000
0000
0001
1000
0001
0000
0010
0000
0100
0000
,
0000
0000
1000
0000
1010
0000
0000
0000
0010
0100
0010
0000
1000
0000
0100
0000
,
0010
0100
0010
0000
0001
0000
1000
0000
0010
0000
1000
0000
0001
0000
1000
0000
,
0010
0100
0100
0000
0002
0000
0000
0000
,
1003
0000
0001
0010
0100
0000
2000
0000
,
3020
0230
0320
0000
,
1030
0000
0001
0000
1000
0100
1000
0100
,
1000
0010
0100
0000
0001
1000
0010
0001
,
0010
1000
0001
0100
0010
1000
0010
0001
,
0010
0100
0001
1000
0100
0000
0010
0100
,
1000
0000
0001
0000
0100
0000
0001
0000
1000
0100
1000
0100
1000
0000
0000
0000
,
0010
0100
0010
0100
0010
0000
0000
0000
1000
0001
1000
0001
1000
0000
0000
0000
,
0001
0100
0001
0100
0001
0000
0000
0000
1000
0001
1000
0000
0100
0000
0010
0000
,
0001
0100
0001
0000
0010
0000
0200
0000
0000
0000
0000
0000
0000
0000
0000
0000
,
0000
0000
0000
0000
0000
0000
0000
0000
1300
0001
0000
0001
0000
0001
1000
0000
,
0000
0010
0100
0010
1000
0100
0010
0100
,
1000
0001
0100
1000
0001
0010
1000
0000
,
0001
0010
0100
0010
0001
1000
0010
0100
,
0001
0000
0001
0000
1000
0000
1000
0000
0001
0100
0001
0100
0001
0000
0000
0000
,
0000
0100
0010
1000
0100
0001
1000
0010
,
0001
0000
1000
0000
0010
0000
0000
0000
0100
0010
0100
0010
0100
0000
0000
0000
,
0001
1000
0001
1000
0001
0000
0000
0000
1000
0100
1000
0100
1000
0000
0000
0000
,
0001
0000
1000
0000
0100
0000
0010
0000
0001
0100
0001
0000
0100
0001
0100
0000
,
0001
1000
0001
0000
1000
0001
1000
0000
0010
1000
0010
0000
1000
0010
1000
0000
,
0100
0000
0010
0000
0001
0000
0000
0000
1000
0100
1000
0000
0100
1000
0100
0000
,
1000
0001
1000
0000
0001
1000
0001
0000
0010
0001
0010
0000
0001
0010
0001
0000
,
0100
0000
0010
0000
1000
0000
0000
0000
0010
0100
0010
0000
0100
0010
0100
0000
,
0001
0100
0001
0000
0100
0001
0100
0000
0001
1000
0001
0000
1000
0001
1000
0000
,
0001
0010
0100
0000
1000
0010
0001
1000
,
0100
0001
1000
0000
0001
0100
1000
0001
,
0010
0000
1000
0000
0001
0000
0000
0000
0100
0001
0000
0100
0001
0000
0100
0001
,
0000
0000
1000
0000
1000
0000
1000
0000
0010
0100
0000
0010
0100
0000
0010
0100
,
0000
0001
0001
0001
1000
0010
0100
0001
,
1000
0100
1000
0100
1000
0000
0100
0000
0010
0000
0001
0000
0100
0000
0010
0000
,
0100
0001
0100
0001
0100
0000
0001
0000
1000
0100
0000
1000
0100
0000
1000
0100
,
0000
0000
1000
0000
1000
0000
1000
0000
0010
0100
0000
0010
0100
0000
0010
0100
,
0000
0001
0001
0001
1000
0100
0001
0100
,
1000
0001
1000
0001
1000
0000
0001
0000
0100
0000
1000
0000
0100
0000
0001
0000
,
1000
0001
0000
0001
0000
0001
0000
0001
2000
0000
0000
0000
0000
0000
0000
0000
,
0000
0000
0000
0000
,
0000
0000
0000
0000
,
3000
0000
0000
0000
;

//---------------dance-single - ----------------
#NOTES:
     dance-single:
     :
     Challenge:
     17:
     0.854,0.878,0.302,0.062,0.735:
0000
0000
0000
0000
,
0000
0000
0000
0000
,
0000
0000
0000
0000
,
0000
0000
0000
0000
,
0000
0000
0000
0000
,
0000
0001
0010
0100
1000
0001
0100
1000
,
0100
0001
0010
0100
1000
0001
0001
1000
,
0001
0010
0100
1000
0100
0001
0100
1000
,
0010
0100
0001
0010
0200
0000
0000
0000
,
0310
0000
0100
0010
0110
0000
0000
0000
,
0100
0010
0100
0010
0100
0001
0100
0001
1000
0000
1000
0000
1000
0100
0000
0000
,
0010
0000
0010
0000
0010
0001
0000
0000
1000
0000
1000
0000
1000
0010
0000
0000
,
0100
0000
0100
0000
0100
0001
0000
0000
0010
0000
0010
0000
0010
0100
0000
0000
,
1000
0000
1000
0000
1000
0100
0000
0000
0010
0000
0010
0000
0010
0100
0000
0000
,
1000
0010
1000
0010
1000
0001
1000
0001
0010
0000
0001
0100
0001
0000
1000
0001
,
1000
0000
0001
0100
0001
0000
1000
0001
1000
0000
0100
1000
0100
0000
0010
0100
,
0010
0000
0100
1000
0100
0000
0010
0000
0001
0000
1000
0010
1000
0000
0001
1000
,
0001
0000
1000
0010
1000
0000
0001
1000
0001
0000
0010
0100
0010
0000
0001
0010
,
0001
0010
0100
1000
0100
0000
0000
0000
1001
0000
0010
0000
0100
0000
1000
0000
,
0001
0000
0001
0100
0010
1000
0010
0000
,
0000
0000
0001
1000
0100
0000
0001
0000
,
0100
0000
1000
0001
0010
0100
1000
0001
,
0100
0000
0010
0100
0010
0000
0000
0000
1000
0000
0010
0000
1000
0000
0000
0000
,
0001
0010
0100
0000
1000
0001
0100
1000
,
0100
0001
1000
0000
0100
0010
0100
0010
,
0001
0000
0100
0000
0001
0000
0100
0000
0010
0000
0000
1000
0001
0000
0010
0000
,
0100
0000
0000
0000
1001
0000
0000
0000
1000
0000
0001
0010
0001
0000
0100
0010
,
0100
0000
0001
0010
0001
0000
0100
0010
0100
0000
0001
1000
0001
0000
1000
0100
,
1000
0000
0010
0100
0010
0000
1000
0000
0001
0000
0010
0100
0010
0000
0001
0100
,
0001
0000
1000
0010
1000
0000
0100
0010
0100
0000
1000
0000
1000
0000
0010
0000
,
0001
0000
0010
0000
1000
0100
0010
0000
0001
0000
0001
0000
1000
0100
0010
0001
,
1000
0000
0000
0000
0010
0000
0010
0000
1000
0001
0010
0000
0100
0000
0010
0000
,
0001
0000
0100
0000
1000
0000
0100
0000
0001
0010
0100
0010
0001
0010
0100
1000
,
0010
0000
1000
0010
1000
0001
0001
0010
,
0010
0000
1010
0000
1001
0000
0000
0000
0001
0000
0001
0000
1000
0010
0100
0001
,
0010
0000
0000
0000
0100
1000
0100
1000
0010
0000
0100
0000
0010
0000
1000
0000
,
0001
0000
0010
0000
0100
0000
0000
0000
1000
0000
0010
0100
0010
0000
1000
0000
,
0100
0000
0010
0000
0100
1000
0100
1000
0010
0000
0100
0001
0100
0000
0001
0000
,
1000
0000
1100
0000
1001
0000
0000
0000
0001
0010
0100
0000
0010
0000
1010
0000
,
0000
0000
1001
0000
1001
0000
0000
0000
1000
0100
0010
0000
0100
0000
0101
0000
,
0000
0000
1001
0000
1001
0000
0000
0000
0010
0001
0100
0000
0010
1000
0010
1000
,
0100
0010
0001
0010
0100
1000
0001
0000
1000
0001
1000
0000
0010
1000
0001
0000
,
1001
0000
1001
0000
0110
0000
0110
0000
0010
0100
1000
0000
0100
0000
0101
0000
,
0000
0000
1001
0000
1001
0000
0000
0000
0100
0010
0001
0000
0010
0000
1010
0000
,
0000
0000
1001
0000
1001
0000
0000
0000
0001
1000
0001
0000
0010
0100
1000
0000
,
0010
0100
0010
0100
0001
0010
0100
0000
1000
0010
1000
0000
0100
0010
0001
0000
,
1000
1001
1001
0001
0020
0000
0000
0001
,
0031
0000
1000
0100
0020
0000
0000
0100
,
0130
0000
2000
0000
3002
0000
0000
0010
,
0013
0000
0100
1000
0001
0010
1000
0010
,
0001
1000
0100
0010
0011
0000
0001
0100
,
0010
1000
0010
0000
0100
0001
1000
0000
0001
0000
0100
0000
1000
0000
0100
0000
,
0010
0000
1000
0001
1000
0000
0001
0010
0001
0000
0000
0000
1000
0000
0010
0100
,
0010
0000
0100
0001
0010
0000
0100
0000
1000
0010
0100
0010
1000
0000
0000
0000
,
0010
1000
0100
1000
0010
0000
0000
0000
1000
0100
0010
0100
1000
0000
0000
0000
,
0100
0010
0001
0010
0100
0000
0000
0000
1000
0010
0100
0000
0010
1000
0100
0000
,
0010
0001
0100
0000
0010
1000
0100
0000
0000
0000
0010
0000
0010
0000
0001
0000
,
0001
0000
0100
0000
0010
0000
1000
0000
0001
0100
0000
0100
0000
0100
0001
0000
,
0000
0000
1000
0000
0010
0000
0100
0000
0001
0010
0001
0010
0100
1000
0010
0100
,
0010
0100
0001
0000
0010
0100
1000
0000
0010
1000
0010
0000
0100
0010
0100
0000
,
0001
0010
0100
0010
0001
0000
0001
0000
0100
0010
0100
0010
1000
0100
0010
0000
,
0001
0000
0101
0000
0110
0000
1010
0000
0100
0010
0100
0010
0100
0000
0000
0000
,
0010
0100
1000
0100
0010
0000
0100
0000
1000
0010
0100
0001
1000
0001
1000
0100
,
1000
0000
0010
0000
0100
0001
0010
0000
0001
0010
1000
0010
0001
0000
0001
0000
,
1000
0100
0001
0100
1000
0000
1000
0000
0001
0100
1000
0100
0001
0000
0001
0000
,
0100
0010
1000
0000
1000
0001
0010
0000
0001
0010
0100
0000
0100
1000
0001
0000
,
0001
0010
0100
0000
0100
1000
0001
0000
0001
0010
0100
0000
0100
1000
0001
0000
,
0010
0001
0010
0001
0100
0010
1000
0000
0010
0100
0001
0000
0001
1000
0010
0000
,
0010
0100
0001
0000
0001
1000
0010
0000
0010
0100
0001
0000
0001
1000
0010
0000
,
1000
0001
1000
0001
0010
0100
1000
0000
0001
0010
0100
0000
0100
0010
0001
0000
,
1000
0100
0010
0000
0010
0100
1000
0000
0001
0100
0010
0000
0010
0100
0001
0000
,
0100
0010
1000
0010
1000
0100
0010
0001
0200
0000
0001
0000
0301
0000
1000
0000
,
0100
0010
0100
0000
1000
0000
0000
0000
0020
0000
1000
0000
1030
0000
0001
0000
,
0010
0100
0010
0000
0001
0000
0000
0000
0100
0010
0000
0010
1000
0000
1000
0001
,
0000
0000
0010
0000
0011
0000
1001
0000
1000
0010
0000
0010
0100
0000
0100
0001
,
0000
0000
1000
0000
1100
0000
1001
0000
0001
0100
0001
0100
0010
1000
0100
0000
,
0010
0001
0100
0001
0010
0000
0100
0000
1000
0010
1000
0010
1000
0100
0010
0000
,
0001
0100
0010
0100
0001
0000
0100
0000
0010
1000
0000
1000
0001
0000
0001
0010
,
0000
0000
0001
0000
1001
0000
1100
0000
0100
0010
0000
0010
0001
0000
0001
1000
,
0000
0000
0010
0000
1010
0000
1001
0000
0001
0100
0010
0100
0001
0010
0100
0000
,
1000
0001
0010
0001
1000
0000
0010
0000
1001
0000
0001
0000
0101
0000
0100
0000
,
0001
1000
0000
1000
0000
1000
0000
1000
0200
0000
0000
0000
0000
0000
0000
0000
,
0000
0000
0000
0000
,
0000
0000
0000
0000
,
0300
0000
0000
0000
;

//---------------dance-double - ----------------
#NOTES:
     dance-double:
     :
     Easy:
     6:
     0.337,0.488,0.286,0.310,0.000: // measure 1
00000000
00000000
00000000
00000000
,  // measure 2
00000000
00000000
00000000
00000000
,  // measure 3
00000000
00000000
00000000
00000000
,  // measure 4
00000000
00000000
00000000
00000000
,  // measure 5
00000000
00000000
00000000
00000000
,  // measure 6
20000000
00000000
00000000
00000000
,  // measure 7
30020000
00000000
00000000
00000000
,  // measure 8
10030000
00000000
01000000
00000000
,  // measure 9
00200000
00000000
00310000
00000000
,  // measure 10
00000000
00000000
00000000
00000000
,  // measure 11
00001000
00001000
00011000
00000000
,  // measure 12
00011000
00000000
00010001
00000000
,  // measure 13
00010001
00000000
00000110
00000000
,  // measure 14
00000110
00000000
00001001
00000000
,  // measure 15
00001001
00000001
00000100
00000010
,  // measure 16
00000100
00000010
00000100
00000010
,  // measure 17
00000100
00000000
00000001
00001000
,  // measure 18
00000001
00001000
00000001
00000010
,  // measure 19
00000100
00010000
00002000
00000000
,  // measure 20
00000000
00000000
00203000
00000000
,  // measure 21
00000000
00000000
02300000
00000000
,  // measure 22
00000000
00000000
03200000
00000000
,  // measure 23
00000000
00000000
00301000
00010000
,  // measure 24
00001000
00010000
01000000
00100000
,  // measure 25
01000000
00100000
10000000
01000000
,  // measure 26
00100000
00010000
00001000
00000010
,  // measure 27
00000100
00000001
00000010
00000100
,  // measure 28
00000010
00000100
00000010
00000100
,  // measure 29
00000010
00000100
00010000
00001000
,  // measure 30
00010000
00001000
01000000
00100000
,  // measure 31
10000000
00100000
01000000
00001000
,  // measure 32
00020000
00000000
00031000
00010000
,  // measure 33
00000100
00000010
00000002
00000000
,  // measure 34
00002003
00000000
00003100
00000010
,  // measure 35
00000100
00010000
00002000
00000000
,  // measure 36
00203000
00000000
01300000
10000000
,  // measure 37
00010000
10000000
01000000
01000000
,  // measure 38
00100000
00100000
00001000
00010000
,  // measure 39
00001000
00000000
00011000
00000000
,  // measure 40
00000000
10001000
01100000
00000000
,  // measure 41
00000000
01100000
10001000
00000000
,  // measure 42
00001000
00000000
00001000
00010000
,  // measure 43
00000010
00000010
00000110
00000000
,  // measure 44
00000000
00000110
00001001
00000000
,  // measure 45
00000000
00001001
00000110
00000000
,  // measure 46
00000010
00000100
00010000
00010000
,  // measure 47
00001000
00100000
02000000
00000000
,  // measure 48
23000000
00000000
30020000
00000000
,  // measure 49
00000000
00000000
00230000
00000000
,  // measure 50
00320000
00000000
02030000
00000000
,  // measure 51
00000000
00000000
03100000
01000000
,  // measure 52
00100000
01000000
00100000
10000000
,  // measure 53
01000000
00100000
01000000
10000000
,  // measure 54
00010000
00100000
01100000
00000000
,  // measure 55
10010000
00000000
01100000
00000000
,  // measure 56
10010000
00000000
10000000
01000000
,  // measure 57
00100000
00002000
00000000
00000000
,  // measure 58
00000000
00000000
00013000
00011000
,  // measure 59
00011000
00001000
00010000
00000010
,  // measure 60
00000100
00000010
00001000
00001000
,  // measure 61
00000001
00000001
00000010
00000100
,  // measure 62
00010000
00001000
00011000
00011000
,  // measure 63
00010000
00001000
00100000
01000000
,  // measure 64
10000000
00000000
01000000
01000000
,  // measure 65
10000000
10000000
00010000
00010000
,  // measure 66
00100000
00001000
00020000
00032000
,  // measure 67
00023000
00030020
00000230
00000320
,  // measure 68
00000130
00000001
00000020
00000230
,  // measure 69
00000320
00000032
00002003
00003002
,  // measure 70
00001003
00000100
00020000
00032000
,  // measure 71
00023000
00032000
02003000
03002000
,  // measure 72
01003000
00100000
20000000
00000000
,  // measure 73
00000000
30010000
20000000
00000000
,  // measure 74
00000000
30010000
01000000
01100000
,  // measure 75
01100000
00000000
10000000
10010000
,  // measure 76
10010000
00000000
10000000
00010000
,  // measure 77
01000000
00001000
00010000
00000010
,  // measure 78
00000100
00000001
00001001
00001001
,  // measure 79
00000000
00000000
00000010
00000110
,  // measure 80
00000110
00000000
00000001
00000010
,  // measure 81
00000100
00010000
00001000
00100000
,  // measure 82
10010000
10010000
01200000
00000000
,  // measure 83
00000000
00000000
00000000
00000000
,  // measure 84
00000000
00000000
00000000
00000000
,  // measure 85
00300000
00000000
00000000
00000000
;

//---------------dance-double - ----------------
#NOTES:
     dance-double:
     :
     Medium:
     10:
     0.478,0.553,0.418,0.124,0.031: // measure 1
00000000
00000000
00000000
00000000
,  // measure 2
00000000
00000000
00000000
00000000
,  // measure 3
00000000
00000000
00000000
00000000
,  // measure 4
00000000
00000000
00000000
00000000
,  // measure 5
00000000
00000000
00000000
00000000
,  // measure 6
10000000
00010000
10000000
00010000
,  // measure 7
01000000
01000000
00100000
00100000
,  // measure 8
01100000
01000000
00100000
00010000
,  // measure 9
01000000
00100000
20000000
00000000
,  // measure 10
00000000
30000000
00000000
00000000
,  // measure 11
00010000
10000000
00010000
00000000
00100000
00010000
00100000
00000000
,  // measure 12
01000000
00100000
01000000
00000000
00100000
00010000
00100000
00000000
,  // measure 13
00001000
00010000
00001000
00000000
00010000
00000010
00010000
00000000
,  // measure 14
00001000
00010000
00001000
00000000
00010000
00000010
00010000
00000000
,  // measure 15
00000100
00000010
00000001
00001000
00000000
00001001
00000000
00000100
,  // measure 16
00000000
00001001
00000000
00000100
00000000
00001001
00000000
00000100
,  // measure 17
00000000
00000100
00000001
00010000
00000000
00011000
00000000
01000000
,  // measure 18
00000000
00011000
00000000
01000000
00000000
00011000
00000000
01000000
,  // measure 19
00000000
00100000
00100000
00000000
02000000
00000000
00000000
00000000
,  // measure 20
00000000
00000000
03200000
00000000
,  // measure 21
00000000
00000000
20300000
00000000
,  // measure 22
00000000
00000000
32000000
00000000
,  // measure 23
00000000
00000000
13000000
00010000
,  // measure 24
01000000
00010000
10000000
01000000
,  // measure 25
00100000
00001000
01001000
01001000
,  // measure 26
00011000
00000000
00011000
00000000
00010010
00000000
00000010
00010000
,  // measure 27
00000001
00000000
00000110
00000000
00000000
00001001
00000000
00000010
,  // measure 28
00000000
00001001
00000000
00000010
00000000
00001001
00000000
00000010
,  // measure 29
00000000
00000010
00001000
00010000
00000000
00011000
00000000
00100000
,  // measure 30
00000000
00011000
00000000
00100000
01000000
10000000
00010000
00000000
,  // measure 31
10000000
00010000
10000000
01000000
00100000
00000000
00010000
10000000
,  // measure 32
01000000
00000000
00100000
01000000
00100000
00000000
00001000
00000000
,  // measure 33
00010000
00001000
00010000
00000000
00000010
00000100
00000001
00000100
,  // measure 34
00000010
00000000
00001000
00000000
00000100
00010000
00001000
00010000
,  // measure 35
00000100
00000000
00011000
00000000
00001000
00100000
01000000
00000000
,  // measure 36
10000000
00100000
10000000
00100000
01000000
00000000
00010000
00000000
,  // measure 37
00100000
00000000
00001000
00000000
00010000
00001000
00010000
00000000
,  // measure 38
00000100
00000010
00000001
00000010
00000100
00000000
00000110
00000000
,  // measure 39
00001001
00000000
00020100
00000000
,  // measure 40
00000000
00001000
00031000
00000000
02001000
00000000
00000000
00000000
,  // measure 41
00000000
00100000
03100000
00000000
10000000
01000000
10000000
01000000
,  // measure 42
10000000
00100000
01000000
00000000
00010000
00100000
00010000
00100000
,  // measure 43
00001000
00001000
00010000
00010000
00000020
00000000
00000000
00000000
,  // measure 44
00000000
00000100
00000130
00000000
00000102
00000000
00000000
00000000
,  // measure 45
00000000
00010000
00010003
00000000
00001000
01000000
00001000
01000000
,  // measure 46
00100000
10000000
01000000
00000000
00100000
01000000
00100000
00000000
,  // measure 47
00001000
01000000
00001000
00010000
00002000
00000000
00000000
00000000
,  // measure 48
00013000
00000010
00000001
00000010
,  // measure 49
00010000
00000000
00000200
00000000
,  // measure 50
00000320
00000000
00000000
00000000
00000031
00000100
00000001
00000100
,  // measure 51
00000010
00010000
00000010
00010000
00001000
00000000
00000000
00000000
,  // measure 52
01000000
00100000
01000000
00100000
10000000
00000000
01000000
00000000
,  // measure 53
00010000
00000000
01000000
10000000
00010000
00000000
00100000
00000000
,  // measure 54
01000000
00000000
10000000
00000000
01000000
10000000
11000000
00000000
,  // measure 55
01000000
10000000
11000000
00000000
00010000
01000000
01010000
00000000
,  // measure 56
00010000
01000000
01010000
00000000
00100000
01000000
00100000
01000000
,  // measure 57
00001000
00010000
00000010
00000200
00000000
00000000
00000000
00000000
,  // measure 58
00000000
00000000
00000000
00000000
00000000
00000000
00000000
00000000
00000310
00000000
00000000
00000010
00000000
00000000
00000110
00000000
,  // measure 59
00000000
00000100
00000010
00000100
00000001
00000010
00000100
00000000
,  // measure 60
00010000
00001000
01000000
00100000
10000000
01000000
10000000
00000000
,  // measure 61
00010000
10000000
00010000
00000000
01000000
00010000
01000000
00010000
,  // measure 62
10000000
01000000
00100000
00000000
00010000
10000000
10010000
00000000
,  // measure 63
01000000
00100000
01000000
00010000
10000000
01000000
00100000
00001000
,  // measure 64
00010000
00000000
00000000
00000000
00000010
00000010
00000100
00000000
,  // measure 65
00000001
00000001
00000010
00000000
00000100
00000100
00010000
00000000
,  // measure 66
00001000
00010000
00001000
00000000
01001000
00000000
01100000
00000000
,  // measure 67
01001000
01100000
10010000
10010000
,  // measure 68
10000000
00010000
10000000
00000000
10100000
00000000
01100000
00000000
,  // measure 69
10100000
01100000
01001000
01001000
,  // measure 70
00001000
00010000
00001000
00000000
00000000
00010001
00000000
00000101
,  // measure 71
00000000
00010001
00000000
00000101
00000000
00010001
00000000
00000101
,  // measure 72
00000000
00000100
00000100
00000000
00000120
00000000
00000000
00010000
,  // measure 73
00000000
00010000
00010030
00000000
02001000
00000000
00000000
00100000
,  // measure 74
00000000
00000000
00100000
00000000
03100000
00000000
00000000
00000000
10000000
00000000
00000000
10000000
00000000
00000000
10010000
00000000
,  // measure 75
00000000
00000000
00000000
00000000
00000000
00000000
00000000
00000000
00100000
00000000
00000000
00100000
00000000
00000000
01100000
00000000
,  // measure 76
00000000
00000000
00000000
00000000
10000000
01000000
10000000
00100000
,  // measure 77
01000000
00010000
00100000
00000000
00000100
00001000
00000010
00000100
,  // measure 78
00000001
00000000
00000010
00000000
00000001
00000000
00000000
00000000
00000100
00000000
00000000
00000100
00000000
00000000
00000110
00000000
,  // measure 79
00000000
00000000
00000000
00000000
00000000
00000000
00000000
00000000
00000001
00000000
00000000
00000001
00000000
00000000
00001001
00000000
,  // measure 80
00000000
00000000
00000000
00000000
00000001
00000010
00000100
00001000
,  // measure 81
00010000
01000000
00100000
00000000
10000000
01000000
00100000
00010000
,  // measure 82
00001000
00000000
00000000
00000010
00000000
00000100
00000000
00000010
00000200
00000000
00000000
00000000
00000000
00000000
00000000
00000000
,  // measure 83
00000000
00000000
00000000
00000000
,  // measure 84
00000000
00000000
00000000
00000000
,  // measure 85
00000300
00000000
00000000
00000000
;

//---------------dance-double - ----------------
#NOTES:
     dance-double:
     :
     Hard:
     13:
     0.658,0.748,0.325,0.093,0.279: // measure 1
00000000
00000000
00000000
00000000
,  // measure 2
00000000
00000000
00000000
00000000
,  // measure 3
00000000
00000000
00000000
00000000
,  // measure 4
00000000
00000000
00000000
00000000
,  // measure 5
00000000
00000000
00000000
00000000
,  // measure 6
00000000
10000000
01000000
10000000
01000000
00100000
00010000
00000000
,  // measure 7
00001000
00010000
00000010
00000100
00000001
00000001
00000001
00000000
,  // measure 8
00000100
00000001
00000100
00000001
00000010
00000100
00001000
00010000
,  // measure 9
00100000
01000000
10000000
01000000
00200000
00000000
00000000
00000000
,  // measure 10
01300000
00000000
10010000
00000000
,  // measure 11
10000000
01000000
00100000
00010000
10000000
10000000
01000000
00000000
,  // measure 12
00100000
00100000
01000000
00000000
10000000
10000000
00001000
00000000
,  // measure 13
00010000
00010000
00000100
00000000
00000010
00000010
00000100
00000000
,  // measure 14
00001000
00001000
00000001
00000000
00000010
00000010
00000100
00000000
,  // measure 15
00010000
00001000
00010000
00000000
00001000
00010000
00001000
00000000
00000000
00000000
01001000
00000000
00000000
00000000
01100000
00000000
,  // measure 16
00000000
01001000
00000000
01100000
00000000
01001000
00000000
01100000
,  // measure 17
00000000
10100000
10000000
00001000
00000000
00010100
00000000
00000110
,  // measure 18
00000000
00010100
00000000
00000110
00000000
00010100
00000000
00000110
,  // measure 19
00000000
00010100
00010000
00000100
00000020
00000000
00000000
00000000
,  // measure 20
00000000
00000031
00000200
00000000
,  // measure 21
00000000
00000310
00020000
00000000
,  // measure 22
00000000
00031000
00200000
00000000
,  // measure 23
00000000
01000000
01300000
00000000
10000000
00000000
01000000
00000000
,  // measure 24
00010000
01000000
10000000
00010000
,  // measure 25
01000000
00000000
00001000
00000000
00010000
00000100
00010000
00000100
,  // measure 26
00000010
00000001
00001000
00000000
00000010
00000000
00000010
00000100
,  // measure 27
00000001
00000010
00000100
00000000
00000000
00011000
00000000
01001000
,  // measure 28
00000000
00011000
00000000
01001000
00000000
00011000
00000000
01001000
,  // measure 29
00000000
00011000
00010000
00000100
00000000
00000011
00000000
00010001
,  // measure 30
00000000
00000011
00000000
00010001
00000000
00000011
00000010
00000001
,  // measure 31
00000100
00001000
00000100
00000001
00000010
00000100
00010000
00001000
,  // measure 32
00010000
00000000
00010000
00001000
10000000
00100000
01000000
10000000
,  // measure 33
01000000
00100000
10000000
00001000
01000000
01000000
00001000
00001000
,  // measure 34
00010000
00000100
00000010
00000000
00000001
00000010
00001000
00000010
,  // measure 35
00000001
00000110
00000110
00000000
00000100
00000010
00001000
00010000
,  // measure 36
01000000
00000000
01000000
00010000
01000000
00100000
00010000
00100000
,  // measure 37
01000000
00010000
10000000
00000000
00100000
00100000
01000000
01000000
,  // measure 38
00010000
00001000
00000100
00000010
00000001
00000010
00001000
00000010
,  // measure 39
00000001
00000000
00000110
00000000
00000110
00000000
00000000
00000000
00000100
00000010
00000100
00000000
00000001
00000000
00000001
00000000
,  // measure 40
00000000
00000000
00010010
00000000
00011000
00000000
00000000
00000000
01000000
00100000
01000000
00000000
10000000
00000000
10000000
00000000
,  // measure 41
00000000
00000000
01001000
00000000
00011000
00000000
00000000
00000000
00000010
00000100
00000010
00000000
00000100
00000000
00000001
00000000
,  // measure 42
00001000
00000100
00001000
00000000
00000100
00000000
00010000
00000000
00001000
00010000
00001000
00000000
00100000
00000000
01000000
00000000
,  // measure 43
10000000
00000000
10000000
00000000
00010000
00000000
00010000
00000000
01000000
00100000
01000000
00000000
00100000
00000000
00100000
00000000
,  // measure 44
00000000
00000000
01001000
00000000
00011000
00000000
00000000
00000000
00000010
00000100
00000010
00000000
00001000
00000000
00001000
00000000
,  // measure 45
00000000
00000000
00010100
00000000
00011000
00000000
00000000
00000000
01000000
00100000
01000000
00000000
00100000
00000000
10000000
00000000
,  // measure 46
00010000
00100000
00010000
00000000
00100000
00000000
01000000
00000000
10000000
00000000
01000000
00000000
00001000
00000000
00000100
00000000
,  // measure 47
00000001
00001000
00000001
00010000
00002000
00000000
00000000
00000000
,  // measure 48
01003000
00000000
00100000
10000000
00010000
00000000
00200000
00000000
,  // measure 49
02300000
03200000
00302000
00000000
,  // measure 50
00013000
00000000
00000010
00000000
00000100
00000001
00000100
00000001
,  // measure 51
00000010
00000100
00010000
00001000
01001000
00000000
01000000
00100000
,  // measure 52
01000000
00100000
10000000
01000000
00010000
01000000
10000000
00100000
,  // measure 53
10000000
00001000
00010000
00000100
00000010
00000000
00000001
00000100
,  // measure 54
00000001
00000000
00000010
00000000
00000100
00000000
00010000
00000000
00001000
00010000
00001000
00010000
00001000
00000000
00000000
00000000
,  // measure 55
01000000
00001000
01000000
00001000
01000000
00000000
00000000
00000000
00100000
01000000
00100000
01000000
00100000
00000000
00000000
00000000
,  // measure 56
10000000
00010000
10000000
00010000
10000000
00000000
00000000
00000000
01000000
00100000
01000000
00000000
00100000
00000000
00010000
00000000
,  // measure 57
00001000
00010000
00001000
00000000
00000010
00000000
00000200
00000000
00000000
00000000
00000000
00000000
00000000
00000000
00000000
00000000
,  // measure 58
00000000
00000000
00000000
00000000
00000000
00000000
00000000
00000000
00000301
00001000
00000000
00001000
00000000
00001000
00000001
00000000
,  // measure 59
00000000
00000010
00000100
00000010
00000001
00000100
00001000
00000100
,  // measure 60
00000001
00000010
00000100
00010000
00001000
00001000
00001000
01000000
,  // measure 61
00100000
10000000
00010000
00010000
00100000
01000000
10000000
00001000
,  // measure 62
00010000
00000000
00010000
00000000
00000010
00000000
00000010
00000000
00000100
00000010
00000100
00000010
00000100
00000000
00000000
00000000
,  // measure 63
00000000
00000010
00000100
00000001
00000010
00001000
00000010
00000001
,  // measure 64
00001000
00000000
00010000
00000000
00100000
00000000
00000000
00000000
01000000
00100000
01000000
00100000
01000000
00000000
00000000
00000000
,  // measure 65
10000000
01000000
10000000
01000000
10000000
00000000
00000000
00000000
00001000
01000000
00001000
01000000
00001000
00000000
00000000
00000000
,  // measure 66
00010000
00000000
00000010
00000000
00000100
00000000
00000001
00000000
00000100
00000010
00000100
00000000
00000010
00000100
00000010
00000000
,  // measure 67
00010000
00000100
00010000
00000000
00000100
00010000
00000100
00000000
00001000
00000001
00001000
00000000
00000001
00001000
00000001
00000000
,  // measure 68
00000010
00000000
00000100
00000000
00001000
00000000
00010000
00000000
01000000
00100000
01000000
00000000
00100000
01000000
00100000
00000000
,  // measure 69
10000000
01000000
10000000
00000000
01000000
10000000
01000000
00000000
10000000
00010000
10000000
00000000
00010000
10000000
00010000
00000000
,  // measure 70
01000000
00000000
00001000
00000000
00010000
00000000
00000000
00000000
00000001
00000100
00000001
00000000
00000100
00000001
00000100
00000000
,  // measure 71
00000001
00001000
00000001
00000000
00001000
00000001
00001000
00000000
00000100
00010000
00000100
00000000
00010000
00000100
00010000
00000000
,  // measure 72
00001000
00100000
01000000
00000000
10010000
01000000
00100000
00001000
,  // measure 73
00010000
00000100
00000010
00000000
00001001
00000010
00000100
00001000
,  // measure 74
00010000
00000000
01000000
00000000
00100000
00000000
00000000
00000000
10000000
00010000
00000000
10000000
00010000
00000000
10000000
00010000
,  // measure 75
00000000
00000000
01000000
00000000
01000000
00000000
01000000
00000000
00001000
00010000
00000000
00001000
00010000
00000000
00001000
00010000
,  // measure 76
00000000
00000010
00000010
00000010
00000100
00000001
00000010
00000100
,  // measure 77
00010000
00001000
00010000
00001000
00010000
00000000
00001000
00000000
10000000
00000000
00100000
00000000
00010000
00000000
00100000
00000000
,  // measure 78
10000000
00100000
10000000
00100000
10000000
00000000
00100000
00000000
10000000
00010000
00000000
10000000
00010000
00000000
10000000
00010000
,  // measure 79
00000000
00000000
01000000
00000000
01000000
00000000
01000000
00000000
00001000
00010000
00000000
00001000
00010000
00000000
00001000
00010000
,  // measure 80
00000000
00000100
00000100
00000100
00000010
00000001
00000010
00000100
,  // measure 81
00001000
00010000
00001000
00010000
00001000
00000000
00100000
00000000
00010000
00000000
01000000
00000000
10000000
00000000
01000000
00000000
,  // measure 82
00001000
00010000
00000000
00010000
00000000
00010000
00000000
00010000
00000020
00000000
00000000
00000000
00000000
00000000
00000000
00000000
,  // measure 83
00000000
00000000
00000000
00000000
,  // measure 84
00000000
00000000
00000000
00000000
,  // measure 85
00000030
00000000
00000000
00000000
;

//---------------dance-double - ----------------
#NOTES:
     dance-double:
     :
     Challenge:
     17:
     0.850,0.878,0.279,0.062,0.743: // measure 1
00000000
00000000
00000000
00000000
,  // measure 2
00000000
00000000
00000000
00000000
,  // measure 3
00000000
00000000
00000000
00000000
,  // measure 4
00000000
00000000
00000000
00000000
,  // measure 5
00000000
00000000
00000000
00000000
,  // measure 6
00000000
10000000
01000000
10000000
00100000
01000000
00100000
01000000
,  // measure 7
00001000
00010000
00000100
00000001
00000100
00010000
00010000
00001000
,  // measure 8
00100000
10000000
00100000
00001000
01000000
00100000
10000000
00100000
,  // measure 9
01000000
00010000
00001000
00000010
00000200
00000000
00000000
00000000
,  // measure 10
00000310
00000000
00001000
00000001
00001001
00000000
00000000
00000000
,  // measure 11
00000010
00000001
00000010
00000001
00000100
00000010
00010000
00000100
00010000
00000000
00010000
00000000
00010000
00001000
00000000
00000000
,  // measure 12
01000000
00000000
01000000
00000000
01000000
00100000
00000000
00000000
10000000
00000000
10000000
00000000
10000000
01000000
00000000
00000000
,  // measure 13
00100000
00000000
00100000
00000000
00100000
01000000
00000000
00000000
10000000
00000000
10000000
00000000
10000000
00001000
00000000
00000000
,  // measure 14
00100000
00000000
00100000
00000000
00100000
00001000
00000000
00000000
00010000
00000000
00010000
00000000
00010000
00000100
00000000
00000000
,  // measure 15
00000010
00000001
00000010
00000001
00000100
00000010
00000100
00000010
00001000
00000000
00000010
00000100
00000010
00000000
00010000
00000100
,  // measure 16
00010000
00000000
00001000
00010000
00001000
00000000
01000000
00100000
01000000
00000000
00010000
01000000
00010000
00000000
10000000
01000000
,  // measure 17
10000000
00000000
00001000
00010000
00001000
00010000
00001000
00000000
00000000
00000000
00010000
00000010
00010000
00000000
00000001
00000010
,  // measure 18
00000001
00000000
00000100
00000010
00000100
00000000
00000001
00000100
00000001
00000000
00010000
00000100
00010000
00000000
00001000
00010000
,  // measure 19
00001000
00010000
00100000
01000000
00100000
00000000
00000000
00000000
10000000
00000000
01000000
00000000
00100000
00000000
00001000
00000000
,  // measure 20
00010000
00000000
00010000
00000100
00000010
00000001
00000100
00000000
,  // measure 21
00000000
00000000
00000001
00000010
00000100
00000000
00001000
00000000
,  // measure 22
00010000
00000000
01000000
00100000
10000000
00100000
01000000
00001000
,  // measure 23
00010000
00000000
00000010
00000100
00000010
00000000
00000000
00000000
00000100
00000000
00000001
00000000
00000100
00000000
00000000
00000000
,  // measure 24
00000001
00000010
00000100
00000000
00010000
00000010
00000001
00000010
,  // measure 25
00010000
00001000
01000000
00000000
00100000
10000000
00100000
10000000
,  // measure 26
00010000
00000000
00100000
00000000
10000000
00000000
00100000
00000000
00010000
00000000
00000000
01000000
00100000
00000000
10000000
00000000
,  // measure 27
01000000
00000000
00000000
00000000
10010000
00000000
00000000
00000000
10000000
00000000
00010000
01000000
00010000
00000000
00100000
00010000
,  // measure 28
00100000
00000000
00001000
00010000
00001000
00000000
00010000
00000010
00010000
00000000
00000001
00000010
00000001
00000000
00000100
00000010
,  // measure 29
00000100
00000000
00000001
00001000
00000001
00001000
00000001
00000000
00000000
00000000
00010000
00001000
00010000
00000000
00001000
00100000
,  // measure 30
00001000
00000000
01000000
00100000
01000000
00000000
00100000
10000000
00100000
00000000
01000000
00000000
01000000
00000000
00010000
00000000
,  // measure 31
00100000
00000000
01000000
00000000
10000000
00010000
01000000
00000000
00001000
00000000
00001000
00000000
00010000
00000100
00000010
00000001
,  // measure 32
00010000
00000000
00000000
00000000
00000010
00000000
00000010
00000000
00000100
00000001
00000010
00000000
00000100
00000000
00010000
00000000
,  // measure 33
00001000
00000000
00100000
00000000
01000000
00000000
00100000
00000000
00001000
01000000
00100000
01000000
00001000
01000000
00100000
01000000
,  // measure 34
00001000
00000000
00100000
01000000
10000000
00100000
00100000
10000000
,  // measure 35
10000000
00000000
11000000
00000000
01001000
00000000
00000000
00000000
00010000
00000000
00010000
00000000
00000100
00000010
00000001
00000010
,  // measure 36
00000100
00000000
00000000
00000000
00010000
00000010
00000100
00000010
00010000
00000000
00001000
00000000
00100000
00000000
01000000
00000000
,  // measure 37
00100000
00000000
00001000
00000000
00010000
00000000
00000000
00000000
00000010
00000000
00000100
00000001
00000010
00000000
00000100
00000000
,  // measure 38
00001000
00000000
00010000
00000000
00100000
01000000
10000000
01000000
00100000
00000000
00001000
00100000
00001000
00000000
00010000
00000000
,  // measure 39
00000100
00000000
00000110
00000000
00000011
00000000
00000000
00000000
00000010
00000100
00001000
00000000
00010000
00000000
00011000
00000000
,  // measure 40
00000000
00000000
01100000
00000000
01100000
00000000
00000000
00000000
10000000
00100000
01000000
00000000
00001000
00000000
00011000
00000000
,  // measure 41
00000000
00000000
00000110
00000000
00000110
00000000
00000000
00000000
00000100
00000010
00000001
00000000
00000010
00000100
00000010
00000100
,  // measure 42
00010000
00001000
00010000
00001000
00100000
01000000
00100000
00000000
00010000
01000000
00010000
00000000
10000000
01000000
00100000
00000000
,  // measure 43
00011000
00000000
00011000
00000000
00010010
00000000
00010010
00000000
00000010
00000100
00000001
00000000
00010000
00000000
00011000
00000000
,  // measure 44
00000000
00000000
01100000
00000000
01100000
00000000
00000000
00000000
00100000
01000000
10000000
00000000
00001000
00000000
00011000
00000000
,  // measure 45
00000000
00000000
00000110
00000000
00000110
00000000
00000000
00000000
00000010
00000001
00000010
00000000
00000100
00001000
00010000
00000000
,  // measure 46
01000000
00100000
01000000
00100000
10000000
01000000
00100000
00000000
00001000
00100000
00001000
00000000
00010000
00000100
00000010
00000000
,  // measure 47
00000001
00000001
00000001
00000010
00000200
00000000
00000000
00010000
,  // measure 48
00010300
00000000
00001000
00100000
02000000
00000000
00000000
00100000
,  // measure 49
03100000
00000000
00020000
00000000
00230000
00000000
00000000
01000000
,  // measure 50
01300000
00000000
10000000
01000000
00100000
10000000
00100000
01000000
,  // measure 51
10000000
00010000
01000000
00010000
00011000
00000000
00000100
00000010
,  // measure 52
00000001
00001000
00000001
00000000
00000010
00000100
00001000
00000000
00010000
00000000
01000000
00000000
00100000
00000000
01000000
00000000
,  // measure 53
00010000
00000000
10000000
01000000
10000000
00000000
01000000
00100000
00010000
00000000
00000000
00000000
00001000
00000000
00010000
00000010
,  // measure 54
00010000
00000000
00000010
00000100
00000001
00000000
00000010
00000000
00000100
00000010
00000001
00000010
00000100
00000000
00000000
00000000
,  // measure 55
00010000
00001000
00100000
00001000
00010000
00000000
00000000
00000000
00001000
00100000
01000000
00100000
00001000
00000000
00000000
00000000
,  // measure 56
01000000
00010000
00100000
00010000
01000000
00000000
00000000
00000000
00001000
00100000
01000000
00000000
10000000
01000000
00100000
00000000
,  // measure 57
00001000
00010000
00000010
00000000
00000100
00000001
00000010
00000000
00000000
00000000
00000001
00000000
00000010
00000000
00000100
00000000
,  // measure 58
00001000
00000000
00010000
00000000
01000000
00000000
00100000
00000000
10000000
00010000
00000000
00010000
00000000
00010000
10000000
00000000
,  // measure 59
00000000
00000000
01000000
00000000
00100000
00000000
00010000
00000000
00001000
00010000
00001000
00010000
00000010
00000100
00000010
00000100
,  // measure 60
00000001
00000010
00000100
00000000
00001000
00000001
00000100
00000000
00000001
00000100
00000001
00000000
00000010
00000100
00010000
00000000
,  // measure 61
00001000
01000000
00100000
01000000
00001000
00000000
00001000
00000000
00010000
00001000
00010000
00001000
01000000
00100000
10000000
00000000
,  // measure 62
00100000
00000000
01100000
00000000
01001000
00000000
00011000
00000000
00010000
00001000
00010000
00001000
00010000
00000000
00000000
00000000
,  // measure 63
00000100
00000010
00000001
00000010
00000100
00000000
00010000
00000000
00001000
01000000
00100000
01000000
00001000
10000000
00001000
10000000
,  // measure 64
01000000
00000000
10000000
00000000
01000000
00100000
00010000
00000000
10000000
00001000
01000000
00001000
10000000
00000000
10000000
00000000
,  // measure 65
01000000
00100000
00010000
01000000
00001000
00000000
00010000
00000000
00000010
00000100
00000001
00000010
00000100
00000000
00000100
00000000
,  // measure 66
00010000
00001000
01000000
00000000
01000000
00001000
00010000
00000000
00000100
00000010
00000001
00000000
00000001
00000010
00000100
00000000
,  // measure 67
00001000
00010000
01000000
00000000
01000000
00010000
00001000
00000000
01000000
00100000
10000000
00000000
10000000
00100000
01000000
00000000
,  // measure 68
00010000
00100000
10000000
00100000
00010000
10000000
01000000
00000000
10000000
01000000
00100000
00000000
00100000
01000000
10000000
00000000
,  // measure 69
00100000
01000000
00001000
00000000
00001000
01000000
00100000
00000000
01000000
00010000
00001000
00000000
00001000
00010000
01000000
00000000
,  // measure 70
00001000
00010000
00000100
00000010
00000001
00000010
00000100
00000000
00000010
00000001
00010000
00000000
00010000
00000001
00000010
00000000
,  // measure 71
00000001
00000010
00000100
00000000
00000100
00000010
00000001
00000000
00000100
00000010
00010000
00000000
00010000
00000010
00000100
00000000
,  // measure 72
00000010
00010000
00001000
00010000
00001000
00100000
01000000
00100000
00002000
00000000
00010000
00000000
00013000
00000000
00000010
00000000
,  // measure 73
00000100
00000010
00000100
00000000
00000001
00000000
00000000
00000000
00020000
00000000
00001000
00000000
00031000
00000000
00100000
00000000
,  // measure 74
01000000
00100000
01000000
00000000
10000000
00000000
00000000
00000000
00100000
10000000
00000000
10000000
01000000
00000000
01000000
00100000
,  // measure 75
00000000
00000000
00001000
00000000
00011000
00000000
00010010
00000000
00000010
00000100
00000000
00000100
00000001
00000000
00000001
00000010
,  // measure 76
00000000
00000000
00000100
00000000
00010100
00000000
00011000
00000000
00001000
01000000
00001000
10000000
01000000
00100000
00010000
00000000
,  // measure 77
10000000
00100000
00010000
00100000
10000000
00000000
00001000
00000000
00010000
00001000
00010000
00000001
00000010
00000100
00001000
00000000
,  // measure 78
00000001
00000100
00001000
00000100
00000001
00000000
00000010
00000000
00000100
00010000
00000000
00010000
00001000
00000000
00001000
01000000
,  // measure 79
00000000
00000000
00100000
00000000
01100000
00000000
10010000
00000000
00010000
10000000
00000000
10000000
00100000
00000000
00100000
01000000
,  // measure 80
00000000
00000000
00001000
00000000
00011000
00000000
00010001
00000000
00000001
00000010
00001000
00000010
00000001
00000010
00000100
00000000
,  // measure 81
00010000
00001000
00010000
00001000
01000000
00000000
00100000
00000000
10100000
00000000
10000000
00000000
10001000
00000000
00001000
00000000
,  // measure 82
00010000
00000010
00000000
00000010
00000000
00000010
00000000
00000010
00000200
00000000
00000000
00000000
00000000
00000000
00000000
00000000
,  // measure 83
00000000
00000000
00000000
00000000
,  // measure 84
00000000
00000000
00000000
00000000
,  // measure 85
00000300
00000000
00000000
00000000
;

//---------------dance-single - ----------------
#NOTES:
     dance-single:
     :
     Beginner:
     4:
     0.135,0.158,0.132,0.000,0.000:
0000
0000
0000
0000
,
0000
0000
0000
0000
,
0000
0000
0000
0000
,
0000
0000
0000
0000
,
0000
0000
0000
0000
,
0000
0000
0000
0000
,
0000
0000
0000
0000
,
0000
0000
0000
0000
,
0000
0000
0000
0000
,
0000
0000
0010
0000
,
0000
0000
0110
0000
,
0000
0000
0000
0000
,
0000
0000
0100
0000
,
0000
0000
0000
0000
,
0000
0000
0010
0000
,
0100
0000
0010
0000
,
0100
0000
0010
0000
,
0100
0000
0010
0000
,
0100
0000
0001
0000
,
0000
0000
0001
0000
,
0000
0000
1000
0000
,
0000
0000
1000
0000
,
0000
0000
0001
0000
,
1000
0000
0001
0000
,
1000
0000
0001
0000
,
1000
0000
0001
0000
,
1000
0000
0100
0000
,
0010
0000
0100
0000
,
0010
0000
0100
0000
,
0010
0000
0100
0000
,
0000
0000
1000
0000
,
0000
0000
0010
0000
,
0000
0000
0100
0000
,
0001
0000
0100
0000
,
0000
0000
0001
0000
,
1000
0000
0100
0000
,
0000
0000
1000
0000
,
0001
0000
1000
0000
,
0000
0000
1001
0000
,
0000
0000
1001
0000
,
0000
0000
1001
0000
,
0000
0000
0110
0000
,
0000
0000
1001
0000
,
0000
0000
1001
0000
,
0000
0000
1001
0000
,
0000
0000
0110
0000
,
0000
0000
0010
0000
,
0010
0000
0010
0000
,
0000
0000
0100
0000
,
0100
0000
0100
0000
,
0000
0000
0010
0000
,
0100
0000
0010
0000
,
0000
0000
1000
0000
,
0001
0000
1001
0000
,
0000
0000
1001
0000
,
0000
0000
1000
0000
,
0001
0000
0000
0000
,
0000
0000
1001
0000
,
0000
0000
0010
0000
,
0100
0000
0010
0000
,
0100
0000
0010
0000
,
0100
0000
1001
0000
,
0000
0000
1000
0000
,
0001
0000
1000
0000
,
1000
0000
0001
0000
,
0001
0000
1000
0000
,
0100
0000
0010
0000
,
0001
0000
1000
0000
,
0100
0000
0010
0000
,
0001
0000
1000
0000
,
0100
0000
0010
0000
,
0001
0000
1000
0000
,
0000
0000
1000
0000
,
0000
0000
1001
0000
,
0000
0000
1001
0000
,
0000
0000
0001
0000
,
0010
0000
0100
0000
,
1000
0000
1001
0000
,
0000
0000
1001
0000
,
0000
0000
0001
0000
,
0010
0000
0100
0000
,
1000
0000
0010
0000
;
