#TITLE:京;
#SUBTITLE:;
#ARTIST:cosMo@暴走P feat.96 & 肥塚良彦;
#TITLETRANSLIT:KEI;
#SUBTITLETRANSLIT:;
#ARTISTTRANSLIT:cosMo@BousouP feat.96 & YOSHIHIKO KOEZUKA;
#CREDIT:DigiMindAxel;
#BANNER:KEI.png;
#BACKGROUND:KEI-bg.png;
#LYRICSPATH:;
#CDTITLE:GITADORA.png;
#MUSIC:KEI.ogg;
#METERTYPE:DDR X;
#OFFSET:-6.127;
#SAMPLESTART:46.099;
#SAMPLELENGTH:12.000;
#SELECTABLE:YES;
#BPMS:0.000=300.000;
#STOPS:;
#BGCHANGES:;

//---------------dance-single - ----------------
#NOTES:
     dance-single:
     :
     Easy:
     6:
     0.267,0.345,0.157,0.124,0.000:
1000
0000
0000
0000
,
0000
0000
0000
0000
,
0100
0000
0000
0000
,
0000
0000
0000
0000
,
0010
0000
0000
0000
,
0000
0000
0000
0000
,
0001
0000
0000
0000
,
0000
0000
0000
0000
,
1000
0000
0100
0000
,
1000
0000
0100
0000
,
1000
0000
0001
0000
,
1000
0000
0001
0000
,
0100
0000
0001
0000
,
0100
0000
0001
0000
,
0010
0000
0100
0000
,
0010
0000
0100
0000
,
1000
0000
0100
0000
,
2000
0000
0000
0000
,
3010
0000
0100
0000
,
0020
0000
0000
0000
,
0130
0000
0001
0000
,
0200
0000
0000
0000
,
0301
0000
0000
0000
,
1001
0000
0000
0000
,
1000
0000
0100
0000
,
1000
0000
0100
0000
,
1000
0000
0001
0000
,
1000
0000
0001
0000
,
0100
0000
0001
0000
,
0100
0000
0001
0000
,
0010
0000
0000
0000
,
0110
0000
0000
0000
,
0200
0000
0000
0000
,
0000
0000
0000
0000
,
2300
0000
0000
0000
,
0000
0000
0000
0000
,
3020
0000
0000
0000
,
0000
0000
0000
0000
,
0230
0000
0000
0000
,
0000
0000
0000
0000
,
0301
0000
1000
0000
,
0001
0000
1000
0000
,
0100
0000
1000
0000
,
0100
0000
1000
0000
,
0010
0000
0000
0000
,
0110
0000
0000
0000
,
1001
0000
0000
0000
,
0000
0000
0000
0000
,
0002
0000
0000
0000
,
0000
0000
0000
0000
,
1003
0000
0100
0000
,
1000
0000
0001
0000
,
1000
0000
0100
0000
,
1000
0000
0001
0000
,
0010
0000
0100
0000
,
0010
0000
0001
0000
,
0010
0000
0100
0000
,
1000
0000
0000
0000
,
0010
0000
0100
0000
,
0001
0000
0100
0000
,
0010
0000
0100
0000
,
0000
0000
0000
0000
,
0001
0000
1000
0000
,
0100
0000
1000
0000
,
0001
0000
0010
0000
,
0100
0000
1000
0000
,
0010
0000
0100
0000
,
0010
0000
0100
0000
,
0001
0000
1000
0000
,
1000
0000
1000
0000
,
0001
0000
0100
0000
,
0010
0000
0100
0000
,
0001
0000
1000
0000
,
1000
0000
1000
0000
,
0001
0000
0010
0000
,
0100
0000
1000
0000
,
0001
0000
0001
0000
,
0001
0000
0001
0000
,
1000
0000
0100
0000
,
0010
0000
0001
0000
,
1001
0000
0000
0000
,
0000
0000
0000
0000
,
1001
0000
0000
0000
,
0000
0000
0000
0000
,
1001
0000
0000
0000
,
0000
0000
0000
0000
,
1001
0000
0000
0000
,
0000
0000
0000
0000
,
1002
0000
0000
0000
,
0000
0000
0000
0000
,
2003
0000
0000
0000
,
0000
0000
0000
0000
,
3002
0000
0000
0000
,
0000
0000
0000
0000
,
2003
0000
0000
0000
,
0000
0000
0000
0000
,
3001
0000
1000
0000
,
0001
0000
1000
0000
,
0100
0000
1000
0000
,
0100
0000
1000
0000
,
0010
0000
0100
0000
,
0010
0000
0100
0000
,
0001
0000
0010
0000
,
0001
0000
0010
0000
,
0001
0000
1000
0000
,
0001
0000
1000
0000
,
0100
0000
1000
0000
,
0100
0000
1000
0000
,
0010
0000
0100
0000
,
0010
0000
0100
0000
,
0001
0000
1000
0000
,
0001
0000
1000
0000
,
1001
0000
0010
0000
,
0100
0000
1000
0000
,
0001
0000
0010
0000
,
0100
0000
1000
0000
,
0001
0000
0100
0000
,
0010
0000
0100
0000
,
0001
0000
1000
0000
,
0100
0000
0010
0000
,
0001
0000
0001
0000
,
1000
0000
1000
0000
,
0001
0000
0100
0000
,
0010
0000
0100
0000
,
1001
0000
0000
0000
,
1001
0000
0000
0000
,
1001
0000
0000
0000
,
1001
0000
0000
0000
,
0110
0000
0000
0110
,
0000
0000
1001
0000
,
0000
1001
0000
2000
,
0000
0000
0000
0000
,
0000
0000
0000
0000
,
0000
3000
0000
2002
,
0000
0000
0000
0000
,
0000
0000
0000
0000
,
0000
0000
0000
0000
,
0000
0000
0000
0000
,
0000
0000
0000
0000
,
3003
0000
0000
0000
;

//---------------dance-single - ----------------
#NOTES:
     dance-single:
     :
     Medium:
     11:
     0.486,0.633,0.190,0.281,0.000: // measure 1
2001
0000
0000
0000
,  // measure 2
0000
0000
0000
0000
,  // measure 3
3020
0000
0000
0000
,  // measure 4
0000
0000
0000
0000
,  // measure 5
0230
0000
0000
0000
,  // measure 6
0000
0000
0000
0000
,  // measure 7
0301
0000
0000
0000
,  // measure 8
1001
0000
0000
0000
,  // measure 9
0100
0001
0100
0001
,  // measure 10
1000
0100
1000
0100
,  // measure 11
1000
0100
0010
0001
,  // measure 12
0010
0100
1000
0001
,  // measure 13
0010
0100
0010
0100
,  // measure 14
1000
0001
1000
0001
,  // measure 15
0100
0001
0010
0100
,  // measure 16
1000
0010
0100
0000
,  // measure 17
1001
0000
0001
0000
,  // measure 18
1000
0010
0001
0010
,  // measure 19
1000
0000
1000
0000
,  // measure 20
0001
0010
1000
0010
,  // measure 21
0001
0000
0001
0000
,  // measure 22
1000
0100
0001
0100
,  // measure 23
1000
0000
0000
0001
0000
0000
0010
0000
,  // measure 24
0100
0000
0000
0100
0000
0000
1000
0000
,  // measure 25
0001
0001
0100
0100
,  // measure 26
0001
0000
0010
0000
0100
1000
0100
1000
,  // measure 27
0010
0010
0100
0100
,  // measure 28
0001
0000
1000
0000
0100
0010
0100
0010
,  // measure 29
0001
0001
0100
0100
,  // measure 30
0001
0000
0010
0000
0100
1000
0100
1000
,  // measure 31
0010
0000
0000
0010
0000
0000
0010
0000
,  // measure 32
1001
0000
0000
0000
,  // measure 33
1002
0000
0000
0000
,  // measure 34
0103
0000
0000
0000
0000
0000
0000
0120
,  // measure 35
0000
0000
0000
0000
,  // measure 36
1030
0000
0000
0000
,  // measure 37
2001
0000
0000
0000
,  // measure 38
3010
0000
0000
0000
0000
0000
0000
0102
,  // measure 39
0000
0000
1000
0000
,  // measure 40
1000
0000
1003
0000
,  // measure 41
0001
0010
0001
1000
,  // measure 42
0010
0000
0100
0000
0001
0000
0000
0101
,  // measure 43
0000
0100
0001
0100
,  // measure 44
0001
0010
0100
1000
,  // measure 45
1001
0000
0000
0001
0000
0000
0001
0000
,  // measure 46
1001
0000
0000
1000
0000
0000
1000
0000
,  // measure 47
0010
0100
0000
0100
0000
0100
0000
0100
,  // measure 48
0000
0000
0220
0000
,  // measure 49
0000
0000
0000
0000
,  // measure 50
0330
0000
0000
0000
,  // measure 51
0100
0001
0100
0001
,  // measure 52
1000
0100
0010
0001
,  // measure 53
0100
0000
0101
0000
,  // measure 54
0001
1000
0000
0100
0000
1000
0000
0000
,  // measure 55
0001
1000
0001
0200
,  // measure 56
0000
0310
1000
0100
,  // measure 57
0010
0000
0001
0000
0100
0001
0000
0010
,  // measure 58
0000
0001
1000
0001
,  // measure 59
0000
0000
0100
0000
0000
0010
0000
0000
,  // measure 60
1000
0000
0000
0010
0000
0000
0100
0000
,  // measure 61
0000
0001
0000
0000
0010
0000
0000
0000
,  // measure 62
0100
0000
0000
1001
0000
0000
0000
0000
,  // measure 63
0010
0100
0010
0100
,  // measure 64
0001
0010
1000
0010
,  // measure 65
0001
1000
0100
1000
,  // measure 66
0001
0100
0010
0100
,  // measure 67
0001
0000
0001
0000
0001
0000
0000
0010
,  // measure 68
0000
0001
0010
0100
,  // measure 69
1002
0000
2003
0000
,  // measure 70
3002
0000
1003
0000
,  // measure 71
0010
0000
0010
0000
0010
0000
0000
1000
,  // measure 72
0000
0100
0010
0001
,  // measure 73
0200
0000
0320
0000
,  // measure 74
0230
0000
0320
0000
,  // measure 75
0130
0001
0010
0100
,  // measure 76
1000
0001
0010
0100
,  // measure 77
1000
0000
0000
1000
0000
0000
0010
0000
,  // measure 78
0100
0000
0000
0100
0000
0000
0001
0000
,  // measure 79
1000
0000
0000
1000
0000
0000
0001
0000
,  // measure 80
0100
0001
0010
0100
,  // measure 81
1001
0000
0000
0000
,  // measure 82
0000
0000
0000
0000
,  // measure 83
1100
0000
0000
0000
,  // measure 84
0000
0000
0000
0000
,  // measure 85
0011
0000
0000
0000
,  // measure 86
0000
0000
0000
0000
,  // measure 87
0110
0000
0000
0000
,  // measure 88
0000
0000
0000
0000
,  // measure 89
0120
0000
0000
0000
,  // measure 90
0000
0000
0000
0000
,  // measure 91
0230
0000
0000
0000
,  // measure 92
0000
0000
0000
0000
,  // measure 93
0320
0000
0000
0000
,  // measure 94
0000
0000
0000
0000
,  // measure 95
0230
0000
0000
0000
,  // measure 96
0000
0000
0000
0000
,  // measure 97
0310
1000
0100
1000
,  // measure 98
0001
0010
0100
1000
,  // measure 99
0001
0000
0100
0000
0001
1000
0000
0100
,  // measure 100
0000
1000
0000
0010
,  // measure 101
0100
0100
0001
0001
,  // measure 102
0010
0100
1000
0001
,  // measure 103
0010
0010
0100
0100
,  // measure 104
1000
0001
0000
0001
0000
0001
0000
0000
,  // measure 105
0010
0100
1000
0100
,  // measure 106
0010
0001
0100
0001
,  // measure 107
0010
0000
0100
0000
1000
0010
0000
0000
,  // measure 108
0000
1000
0000
0001
0000
0000
0000
0000
,  // measure 109
1000
0100
0010
0100
,  // measure 110
1000
0001
0100
0001
,  // measure 111
2000
0000
3200
0000
,  // measure 112
0320
0000
0032
0000
,  // measure 113
1003
0000
0100
0000
1000
0001
1000
0000
,  // measure 114
0100
0000
1000
0000
0001
1000
0001
0000
,  // measure 115
0100
0000
0001
0000
1000
0001
1000
0000
,  // measure 116
0010
0000
1000
0000
0001
1000
0001
0000
,  // measure 117
0010
0000
0000
0100
0000
0000
1000
0000
,  // measure 118
0010
0000
0000
0100
0000
0000
0001
0000
,  // measure 119
0100
0100
0000
0000
,  // measure 120
0010
0010
0000
0000
,  // measure 121
1000
0100
1000
0100
,  // measure 122
0010
0001
0010
0001
,  // measure 123
0200
0000
0320
0000
,  // measure 124
0230
0000
0320
0000
,  // measure 125
0030
0000
1000
0000
0000
0100
0000
0000
,  // measure 126
0010
0000
0000
0001
0000
0000
1000
0000
,  // measure 127
0010
0100
0010
0100
,  // measure 128
0020
0000
0000
0030
,  // measure 129
1001
0000
0000
1000
0000
0000
0100
0000
,  // measure 130
0000
0100
0000
0000
0010
0000
0000
0010
,  // measure 131
0000
0001
0000
0220
,  // measure 132
0000
0000
0000
0000
,  // measure 133
0000
0000
0000
0000
,  // measure 134
0000
0330
0000
2200
,  // measure 135
0000
0000
0000
0000
,  // measure 136
0000
0000
0000
0000
,  // measure 137
0000
0000
0000
0000
,  // measure 138
0000
0000
0000
0000
,  // measure 139
0000
0000
0000
0000
,  // measure 140
3300
0000
0000
0000
;

//---------------dance-single - ----------------
#NOTES:
     dance-single:
     :
     Hard:
     15:
     0.801,0.863,0.439,0.166,0.062: // measure 1
1000
0000
0001
0000
1000
0001
0000
0010
,  // measure 2
0000
0100
0100
1000
,  // measure 3
0010
0100
0000
0100
0000
0010
0000
0000
,  // measure 4
1000
0001
0000
0001
0000
1000
0000
0000
,  // measure 5
0010
0000
0100
0001
0000
0100
0000
0010
,  // measure 6
0000
1000
1000
0001
,  // measure 7
0100
0010
0000
0100
0000
0100
0000
0000
,  // measure 8
0010
0100
0000
0010
0000
0010
0100
0000
,  // measure 9
0001
0010
1000
0010
,  // measure 10
0001
1000
0100
0010
,  // measure 11
0001
1000
0000
0001
0000
1000
0100
0000
,  // measure 12
0010
0001
0000
0100
0000
0001
0010
0000
,  // measure 13
0001
0100
1000
0100
,  // measure 14
0001
0000
0100
0000
0010
0100
0010
0100
,  // measure 15
0010
0100
0000
0001
0000
0100
0010
0000
,  // measure 16
1000
0001
1000
0001
0000
1000
0010
0000
,  // measure 17
0100
0000
0001
0000
0100
0010
0000
0000
,  // measure 18
1000
0001
1000
0001
1000
0100
1000
0100
,  // measure 19
0000
0010
0001
0100
,  // measure 20
0001
0100
0001
0100
0001
0100
0001
1000
,  // measure 21
0000
0100
0010
0001
,  // measure 22
0010
0001
0010
0001
0010
0100
0010
0100
,  // measure 23
1000
0000
0000
1100
0000
0000
0010
0000
,  // measure 24
0110
0000
0000
0110
0000
0000
0001
0000
,  // measure 25
1001
0000
1000
0010
1000
0000
0001
1000
,  // measure 26
0001
0000
1000
0000
0010
0000
0100
0001
,  // measure 27
0100
0000
0001
1000
0001
0000
1000
0100
,  // measure 28
1000
0000
0100
0000
0010
0000
0001
0100
,  // measure 29
0001
0000
0010
0100
0010
0000
0001
1000
,  // measure 30
0001
0000
0100
0000
0010
0000
1000
0100
,  // measure 31
1000
0000
0000
0110
0000
0000
1010
0000
,  // measure 32
2002
0000
0000
3003
,  // measure 33
1002
0000
0000
0000
0000
0000
0103
0001
,  // measure 34
0010
0100
1000
0010
0000
0100
0000
0120
,  // measure 35
0000
0000
1000
1030
,  // measure 36
0001
0000
0100
0001
0000
1000
0010
0000
,  // measure 37
2000
0000
0000
0001
0000
0000
3001
1000
,  // measure 38
0100
0010
0001
0100
0000
0010
0000
0110
,  // measure 39
0000
0000
1001
0000
,  // measure 40
1001
0000
1001
0000
,  // measure 41
0001
0000
1000
0000
0001
0000
0010
0001
,  // measure 42
0010
0100
1000
0001
0000
1000
0000
1001
,  // measure 43
0000
0001
0100
0001
,  // measure 44
1000
0100
1000
0100
0010
0001
0100
0000
,  // measure 45
0110
0000
0000
0110
0000
0000
1000
0000
,  // measure 46
1001
0000
0000
1001
0000
0000
0000
0000
,  // measure 47
1000
0001
0000
0001
0000
0001
0000
0001
,  // measure 48
1000
0000
1001
0000
,  // measure 49
0010
0100
0010
0100
0010
0100
0010
0100
,  // measure 50
0020
0000
0130
0000
,  // measure 51
0001
0000
0100
0002
0000
0000
1003
0000
,  // measure 52
0000
0000
0010
0100
0010
0100
0010
0000
,  // measure 53
1000
0100
1000
0001
,  // measure 54
0100
0010
0000
0010
0000
0100
0000
0000
,  // measure 55
1001
0000
0001
0000
1000
0100
0010
0002
,  // measure 56
0000
0000
0103
0000
0010
0100
0010
0000
,  // measure 57
1001
0000
0001
0100
0000
0010
0000
2010
,  // measure 58
0000
0001
0001
3001
,  // measure 59
0000
0000
1010
0000
0000
0110
0000
0000
,  // measure 60
0011
0000
0000
1100
0000
0000
0110
0000
,  // measure 61
0000
0101
0000
0000
1001
0000
0000
0000
,  // measure 62
0120
0000
0000
0100
0000
0000
0130
0000
,  // measure 63
0001
0100
1000
0100
,  // measure 64
0001
0100
1000
0100
,  // measure 65
0010
1000
0100
0010
0001
1000
0000
0002
,  // measure 66
0000
0000
0013
0100
0010
0100
0010
0001
,  // measure 67
0100
0000
0010
1000
0010
1000
0001
0010
,  // measure 68
0001
0010
0100
0000
1000
0000
1000
0000
,  // measure 69
0100
1000
0100
0000
0010
0100
0010
0000
,  // measure 70
0001
0010
0001
0000
1000
0001
1000
0000
,  // measure 71
1001
0100
0001
0100
,  // measure 72
1000
0010
0000
1000
0000
0001
0000
0000
,  // measure 73
0010
0001
0010
0000
0100
0010
0100
0000
,  // measure 74
1000
0100
1000
0000
0001
1000
0001
0000
,  // measure 75
1000
0100
0010
0000
0001
0010
0100
0000
,  // measure 76
1000
0100
0010
0000
0001
0010
0100
0000
,  // measure 77
1000
0010
1000
0000
0010
0100
0010
0000
,  // measure 78
1000
0001
1000
0000
0001
0010
0001
0000
,  // measure 79
0100
0010
0100
0010
0100
0010
0100
0001
,  // measure 80
0010
0000
0100
1000
0000
1000
0000
0000
,  // measure 81
1010
0000
0010
0000
,  // measure 82
0010
0000
0010
0000
,  // measure 83
1010
0000
1000
0000
,  // measure 84
1000
0000
1000
0000
,  // measure 85
1001
0000
0001
0000
,  // measure 86
0001
0000
0001
0000
,  // measure 87
1001
0000
1000
0000
,  // measure 88
2000
0000
0000
3000
,  // measure 89
1001
0000
0000
0000
0001
0000
0010
0000
0000
0000
0000
0000
,  // measure 90
0001
0000
0010
0000
0001
0000
0100
0000
0010
0000
0100
0000
,  // measure 91
0002
0000
0000
0000
,  // measure 92
1003
0000
0100
0000
0001
0000
0100
0000
0000
0000
1000
0000
,  // measure 93
0000
0000
0002
0000
0000
0000
0000
0000
0000
0000
0000
0000
,  // measure 94
0103
0010
0100
0010
0100
0010
0100
0010
,  // measure 95
2000
0000
0001
0000
,  // measure 96
3001
0000
1000
0001
1000
0001
1000
0001
,  // measure 97
1000
0010
0100
0010
,  // measure 98
1000
0001
0000
1000
0000
0001
0010
0000
,  // measure 99
0100
0000
1000
0001
0010
0100
1000
0001
,  // measure 100
0000
0100
0001
0000
1000
0000
0100
0010
,  // measure 101
0100
0000
1000
0000
0001
0100
0000
0010
,  // measure 102
0100
0000
0001
1000
0001
1000
0001
0000
,  // measure 103
0010
0001
0010
0000
0100
0010
0100
0000
,  // measure 104
1000
0001
0000
0001
0000
0001
1000
0000
,  // measure 105
0010
0000
0100
0000
0010
0000
1000
0100
,  // measure 106
1000
0100
1000
0010
0000
1000
0001
0000
,  // measure 107
0010
0000
0100
0000
1000
0010
2000
0000
,  // measure 108
3001
0010
0100
1000
0002
0000
0000
0000
,  // measure 109
1003
0000
0001
0010
0000
0001
1000
0000
,  // measure 110
0001
0000
0010
0100
0000
1000
0010
0000
,  // measure 111
1001
0000
0000
0100
0000
0000
0100
0000
,  // measure 112
0110
0000
0000
0000
1000
0001
1000
0001
,  // measure 113
1000
0000
0001
0000
0010
1000
0010
1000
,  // measure 114
0010
0000
0001
0000
0100
1000
0100
1000
,  // measure 115
0100
0000
0001
0000
0010
0100
0010
0100
,  // measure 116
0010
0000
0001
0000
1000
0001
1000
0001
,  // measure 117
1000
0010
0001
0010
,  // measure 118
1000
0100
0001
0100
,  // measure 119
1000
0010
1000
0010
1000
0000
0001
0000
,  // measure 120
0010
0001
0010
0001
0010
0000
0100
0000
,  // measure 121
1000
0010
1000
0000
0010
0100
0001
0000
,  // measure 122
1000
0100
1000
0000
0100
0010
0001
0000
,  // measure 123
0100
0000
0010
0000
0100
0000
0010
0000
1000
0000
0100
0000
,  // measure 124
1000
0000
0000
0000
0100
0000
0000
0000
0010
0000
0000
0000
0001
0000
0000
1000
0000
0000
0001
0000
0000
1000
0000
0000
,  // measure 125
0001
0000
0011
0000
0000
1001
0000
0000
,  // measure 126
1100
0000
0000
0110
0000
0000
0101
0000
,  // measure 127
1001
1000
0001
1000
,  // measure 128
0001
0000
0100
0010
0100
0010
0100
0000
,  // measure 129
0110
0000
0000
1010
0000
0000
0011
0000
,  // measure 130
0000
1100
0000
0000
1001
0000
0000
0110
,  // measure 131
0000
0101
0000
2002
,  // measure 132
0000
0000
0000
0000
,  // measure 133
3003
0000
0001
1000
0001
1000
0001
1000
,  // measure 134
0001
1000
0000
0000
0000
0000
2001
0000
,  // measure 135
0000
0000
0000
0000
,  // measure 136
0000
0000
0000
0000
,  // measure 137
0001
0000
0000
0001
,  // measure 138
0000
0000
0000
0001
0000
0000
0000
0000
,  // measure 139
0000
0000
0000
0000
0000
0000
3000
0010
,  // measure 140
0100
0000
0000
0000
;

//---------------dance-double - ----------------
#NOTES:
     dance-double:
     :
     Easy:
     6:
     0.291,0.460,0.215,0.232,0.000:
20000000
00000000
00000000
00000000
,
00000000
00000000
00000000
00000000
,
30020000
00000000
00000000
00000000
,
00000000
00000000
00000000
00000000
,
20030000
00000000
00000000
00000000
,
00000000
00000000
00000000
00000000
,
30010000
00000000
00000000
00000000
,
10010000
00000000
00000000
00000000
,
01000000
00000000
00010000
00000000
,
01000000
00000000
00010000
00000000
,
10000000
00000000
10000000
00000000
,
00001000
00000000
00001000
00000000
,
01000000
00000000
00001000
00000000
,
01000000
00000000
00001000
00000000
,
00010000
00000000
00010000
00000000
,
00000010
00000000
00000010
00000000
,
00000110
00000000
00000100
00000000
,
00000020
00000000
00000000
00000000
,
00000130
00000000
00000001
00000000
,
00002000
00000000
00000000
00000000
,
00003001
00000000
00010000
00000000
,
00002000
00000000
00000000
00000000
,
00103000
00000000
00000000
00000000
,
01100000
00000000
00000000
00000000
,
01000000
00000000
00010000
00000000
,
01000000
00000000
00010000
00000000
,
10000000
00000000
01000000
00000000
,
10000000
00000000
01000000
00000000
,
00100000
00000000
00001000
00000000
,
00100000
00000000
00001000
00000000
,
00010000
00000000
00000000
00000000
,
00011000
00000000
00000000
00000000
,
00020001
00000000
00000000
00000000
,
00000000
00000000
00000000
00000000
,
00030002
00000000
00000000
00000000
,
00000000
00000000
00000000
00000000
,
00000023
00000000
00000000
00000000
,
00000000
00000000
00000000
00000000
,
00000230
00000000
00000000
00000000
,
00000000
00000000
00000000
00000000
,
00010300
00000000
00001000
00000000
,
01000000
00000000
00100000
00000000
,
01000000
00000000
00001000
00000000
,
00010000
00000000
00001000
00000000
,
01100000
00000000
00000000
00000000
,
01100000
00000000
00000000
00000000
,
20020000
00000000
00000000
00000000
,
30030000
00000000
01100000
00000000
,
00200000
00000000
00000000
00000000
,
00000000
00000000
00000000
00000000
,
01300000
00000000
00010000
00000000
,
01000000
00000000
00100000
00000000
,
10000000
00000000
10000000
00000000
,
01000000
00000000
01000000
00000000
,
00100000
00000000
00001000
00000000
,
00100000
00000000
00001000
00000000
,
00010000
00000000
00000010
00000000
,
00000100
00000000
00000000
00000000
,
00000000
00000110
00000000
00000000
,
00000100
00000000
00000000
00000100
,
00000000
00000000
00000100
00000000
,
00000000
00000100
00000000
00000000
,
00000001
00000000
00000010
00000000
,
00000100
00000000
00000010
00000000
,
00000001
00000000
00001000
00000000
,
00000001
00000000
00010000
00000000
,
00000100
00000000
00010000
00000000
,
00001000
00000000
01000000
00000000
,
00200000
00000000
01000000
00000000
,
01000000
00000000
01300000
00000000
,
00010000
00000000
10000000
00000000
,
01000000
00000000
10000000
00000000
,
00020000
00000000
10000000
00000000
,
10000000
00000000
10030000
00000000
,
00100000
00000000
10000000
00000000
,
00010000
00000000
01000000
00000000
,
00002000
00000000
00010000
00000000
,
00010000
00000000
00013000
00000000
,
00000100
00000000
00000010
00000000
,
00000001
00000000
00001000
00000000
,
00001001
00000000
00000000
00000000
,
00000000
00000000
00000000
00000000
,
00011000
00000000
00000000
00000000
,
00000000
00000000
00000000
00000000
,
10010000
00000000
00000000
00000000
,
00000000
00000000
00000000
00000000
,
01100000
00000000
00000000
00000000
,
00000000
00000000
00000000
00000000
,
00012000
00000000
00000000
00000000
,
00000000
00000000
00000000
00000000
,
00023000
00000000
00000000
00000000
,
00000000
00000000
00000000
00000000
,
00032000
00000000
00000000
00000000
,
00000000
00000000
00000000
00000000
,
00023000
00000000
00000000
00000000
,
00000000
00000000
00000000
00000000
,
00030010
00000000
00000100
00000000
,
00000010
00000000
00000100
00000000
,
00000001
00000000
00000001
00000000
,
00010000
00000000
00010000
00000000
,
00001000
00000000
01000000
00000000
,
00100000
00000000
01000000
00000000
,
00001000
00000000
10000000
00000000
,
00100000
00000000
00100000
00000000
,
10010000
00000000
10000000
00000000
,
00100000
00000000
01000000
00000000
,
00010000
00000000
10000000
00000000
,
00010000
00000000
00100000
00000000
,
00001000
00000000
00010000
00000000
,
00000100
00000000
00000010
00000000
,
00000100
00000000
00010000
00000000
,
00001000
00000000
00010000
00000000
,
00012000
00000000
00010000
00000000
,
00023000
00000000
01000000
00000000
,
02030000
00000000
00100000
00000000
,
03200000
00000000
10000000
00000000
,
10300000
00000000
00100000
00000000
,
01000000
00000000
00001000
00000000
,
00001000
00000000
00010000
00000000
,
00010000
00000000
00000000
00000000
,
00000020
00000000
00000100
00000000
,
00000130
00000000
00000001
00000000
,
00001000
00000000
00000010
00000000
,
00010000
00000000
00001000
00000000
,
00011000
00000000
00000000
00000000
,
01100000
00000000
00000000
00000000
,
00011000
00000000
00000000
00000000
,
01100000
00000000
00000000
00000000
,
10010000
00000000
00000000
10010000
,
00000000
00000000
01100000
00000000
,
00000000
01100000
00000000
02000000
,
00000000
00000000
00000000
00000000
,
00000000
00000000
00000000
00000000
,
00000000
03000000
00000000
02200000
,
00000000
00000000
00000000
00000000
,
00000000
00000000
00000000
00000000
,
00000000
00000000
00000000
00000000
,
00000000
00000000
00000000
00000000
,
00000000
00000000
00000000
00000000
,
03300000
00000000
00000000
00000000
;

//---------------dance-double - ----------------
#NOTES:
     dance-double:
     :
     Medium:
     11:
     0.486,0.633,0.166,0.290,0.000:
10010000
00000000
10000000
00000000
,
10000000
00000000
10000000
00000000
,
00010000
00000000
00010000
00000000
,
00010000
00000000
00010000
00000000
,
10000000
00000000
10000000
00000000
,
10000000
00000000
10000000
00000000
,
10010000
00000000
00000000
00000000
,
01100000
00000000
00000000
00000000
,
01000000
00010000
01000000
00000000
,
00001000
10000000
00001000
00000000
,
00010000
00000100
00000010
00000001
,
00000010
00000100
00010000
00001000
,
00100000
01000000
00100000
00000000
,
00001000
00100000
00001000
00000000
,
01000000
00010000
00100000
01000000
,
10000000
00100000
01000000
00000000
,
00001000
00010000
00001000
00000000
,
00010000
00000010
00000100
00000001
,
00000100
00000010
00000010
00000100
,
00000001
00000010
00000100
00010000
,
00001000
01000000
00100000
00000000
,
10000000
01000000
00100000
01000000
,
10000000
00000000
00000000
10000000
00000000
00000000
10000000
00000000
,
00100000
00000000
00000000
00100000
00000000
00000000
00100000
00000000
,
01000000
00001000
00001000
00001000
,
00010000
00000000
00000010
00000000
00000100
00000010
00000100
00000010
,
00000000
00000100
00000100
00000100
,
00000001
00000000
00010000
00000000
00001000
00010000
00001000
00010000
,
00000000
00001000
00100000
00001000
,
01000000
00000000
00100000
00000000
10000000
01000000
10000000
01000000
,
00100000
00000000
00000000
00100000
00000000
00000000
00100000
00000000
,
10010000
00000000
00000000
00000000
,
02100000
00000000
00000000
00000000
,
03001000
00000000
00000000
00000000
00000000
00000000
00000000
00021000
,
00000000
00000000
00000000
00000000
,
00030010
00000000
00000000
00000000
,
00000210
00000000
00000000
00000000
,
00000320
00000000
00000000
00000000
00000000
00000000
00000000
00000230
,
00000000
00000000
00000010
00000000
,
00000010
00000000
00000010
00000000
,
00000310
00000100
00000010
00001000
,
00000001
00000000
00000010
00000100
00000000
00010000
00000000
00001000
,
00000000
01000000
01000000
01000000
,
00100000
01000000
00010000
10000000
,
10010000
00000000
00000000
10000000
00000000
00000000
10000000
00000000
,
00100000
00000000
00000000
00100000
00000000
00000000
00100000
00000000
,
01000000
00001000
00000000
00001000
00000000
00001000
00000000
00001000
,
00000000
00000000
00022000
00000000
,
00000000
00000000
00000000
00000000
,
00033000
00000000
00000000
00000000
,
00001000
00000000
00000000
01000000
00000000
00000000
00001000
00000000
,
00000000
00100000
01000000
10000000
,
00100000
00100000
01000000
01000000
,
00001000
00010000
00000000
00001000
00000000
00010000
00000000
00000000
,
00000010
00000100
00000010
00000200
,
00000000
00000301
00000010
00000100
,
00010000
00000000
00001000
00010000
00000000
00001000
00000000
00010000
,
00000000
00000000
00001000
00001000
,
00000000
00000000
00100000
00000000
00000000
01000000
00000000
00000000
,
10000000
00000000
00000000
01000000
00000000
00000000
00100000
00000000
,
00000000
00010000
00000000
00000000
00001000
00000000
00000000
00010000
,
00001000
00000000
00000000
00011000
00000000
00000000
00000000
00000000
,
00010000
00000100
00010000
00000100
,
00001000
00000010
00000001
00000010
,
00001000
00000100
00010000
00001000
,
00100000
01000000
10000000
00100000
,
02000000
00000000
00000000
00000000
00010000
00000000
00000000
03010000
,
00000000
10000000
01000000
00100000
,
10020000
00000000
20030000
00000000
,
30020000
00000000
10030000
00000000
,
00100000
00000000
01000000
00000000
00002000
00000000
00000000
01000000
,
00000000
01003000
00001000
00010000
,
00000200
00000000
00000320
00000000
,
00000230
00000000
00000320
00000000
,
00000031
00000100
00001000
00000100
,
00000001
00000010
00001000
00000010
,
00000001
00000000
00000000
00000001
00000000
00000000
00000001
00000000
,
00000100
00000000
00000000
00000100
00000000
00000000
00000100
00000000
,
00000020
00000000
00000000
00000000
00010000
00000000
00000000
00010030
,
00000000
00001000
00100000
01000000
,
10010000
00000000
00000000
00000000
,
00000000
00000000
00000000
00000000
,
11000000
00000000
00000000
00000000
,
00000000
00000000
00000000
00000000
,
00011000
00000000
00000000
00000000
,
00000000
00000000
00000000
00000000
,
00000101
00000000
00000000
00000000
,
00000000
00000000
00000000
00000000
,
00000120
00000000
00000000
00000000
,
00000000
00000000
00000000
00000000
,
00000230
00000000
00000000
00000000
,
00000000
00000000
00000000
00000000
,
00000320
00000000
00000000
00000000
,
00000000
00000000
00000000
00000000
,
00000230
00000000
00000000
00000000
,
00000000
00000000
00000000
00000000
,
00000310
00001000
00000100
00001000
,
00000001
00000010
00000100
00001000
,
00010000
00000000
01000000
00000000
00000000
00100000
00000000
00000000
,
10000000
00000000
00000000
01000000
00000000
00000000
00100000
00000000
,
00010000
10000000
00001000
00100000
,
00001000
00010000
00000010
00000000
,
00000100
00000010
00000100
00000010
,
00001000
00000001
00000000
00001000
00000000
00000001
00000000
00000000
,
00000010
00000100
00010000
00001000
,
00100000
01000000
10000000
01000000
,
00100000
00000000
00001000
00000000
00000000
00001000
00000000
00000000
,
00010000
00000000
00000000
00010000
00000000
00000000
00000010
00000000
,
00000100
00000010
00000100
00000001
,
00001000
00000100
00001000
00010000
,
01000000
00000000
00000000
01000000
00000000
00000000
02200000
00000000
,
00000000
00000000
00000000
03300000
,
00100000
00000000
01000000
00000000
10000000
00010000
10000000
00000000
,
01000000
00000000
00100000
00000000
00001000
00010000
00001000
00000000
,
00010000
00000000
00000010
00000000
00001000
00000001
00001000
00000000
,
00000001
00000000
00000010
00000000
00000100
00001000
00000100
00000000
,
00010000
00000000
00000000
00010000
00000000
00000000
00001000
00000000
,
01000000
00000000
00000000
01000000
00000000
00000000
00010000
00000000
,
10000000
00000000
00000000
00020000
00000000
00000000
20000000
00000000
,
00000000
00000000
00000000
30030000
,
10000000
01000000
00100000
01000000
,
10000000
00010000
01000000
00001000
,
00020000
00000000
00032000
00000000
,
00023000
00000000
00032000
00000000
,
00003000
00000000
00010000
00000000
00000000
00000010
00000000
00000000
,
00001000
00000000
00000000
00000001
00000000
00000000
00000010
00000000
,
00000100
00010000
00000100
00010000
,
00002000
00000000
00000000
00003000
,
00011000
00000000
00000000
00001000
00000000
00000000
01000000
00000000
,
00000000
01000000
00000000
00000000
00100000
00000000
00000000
00100000
,
00000000
01000000
00000000
02200000
,
00000000
00000000
00000000
00000000
,
00000000
00000000
00000000
00000000
,
00000000
03300000
00000000
20002000
,
00000000
00000000
00000000
00000000
,
00000000
00000000
00000000
00000000
,
00000000
00000000
00000000
00000000
,
00000000
00000000
00000000
00000000
,
00000000
00000000
00000000
00000000
,
30003000
00000000
00000000
00000000
;

//---------------dance-double - ----------------
#NOTES:
     dance-double:
     :
     Hard:
     15:
     0.782,0.978,0.406,0.166,0.062:
10000000
00000000
00010000
00000000
01000000
00010000
00000000
01000000
,
00000000
00001000
00010000
00001000
,
00010000
00000010
00000000
00000010
00000000
00000100
00000000
00000000
,
00000001
00001000
00000000
00001000
00000000
00000100
00000000
00000000
,
00010000
00000000
00001000
01000000
00000000
00100000
00000000
10000000
,
00000000
01000000
00100000
01000000
,
00100000
00001000
00000000
00010000
00000000
00010000
00000000
00000000
,
00000010
00000100
00000000
00000001
00000000
00000001
00000100
00000000
,
00000001
00000010
00000100
00000010
,
00000001
00000100
00000010
00010000
,
00001000
01000000
00000000
00100000
00000000
01000000
00001000
00000000
,
10000000
00100000
00000000
01000000
00000000
00100000
10000000
00000000
,
01000000
00100000
01000000
10000000
,
00100000
00000000
01000000
00000000
00001000
00000000
00010000
00001000
,
00010000
00001000
00000000
00010000
00000000
00000010
00000000
00000000
,
00000100
00000001
00000000
00000100
00000000
00000010
00000000
00000000
,
00001000
00000100
00000010
00000100
,
00010000
00000000
00001000
01000000
00010000
01000000
00010000
01000000
,
00000000
00100000
10000000
01000000
,
00100000
00000000
00001000
00010000
00000010
00000100
00000010
00000100
,
00000000
00000001
00000010
00000100
,
00000010
00000000
00000001
00000100
00000001
00000100
00000010
00001000
,
00000100
00000000
00000000
00000100
00000000
00000000
00010000
00000000
,
00011000
00000000
00000000
00011000
00000000
00000000
00011000
00000000
,
01001000
00000000
01000000
00100000
01000000
00000000
01000000
00100000
,
01000000
00000000
00010000
00100000
01000000
10000000
01000000
00100000
,
00000000
00000000
00001000
00010000
00001000
00000000
00001000
00010000
,
00001000
00000000
00010000
00000010
00000100
00000001
00000100
00000010
,
00000000
00000000
00000100
00000010
00000100
00000000
00000100
00000010
,
00000100
00000000
00000001
00000010
00000100
00001000
00000100
00000010
,
00000001
00000000
00000000
00000001
00000000
00000000
00000100
00000000
,
00000110
00000000
00000000
00000000
,
00021000
00000000
00000000
00031000
,
01000000
00100000
00000000
10000000
00000000
01000000
00000000
11000000
,
00000000
00000000
00100000
10000000
,
00100000
00000000
01000000
00100000
00000000
01000000
00100000
00000000
,
10010000
00000000
00000000
00000000
00000000
00000000
00010000
01000000
,
00010000
00000000
01000000
00100000
00000000
10000000
00000000
10010000
,
00000000
00000000
01100000
00000000
,
01100000
00000000
01100000
00000000
,
00100000
01000000
00001000
00010000
,
00000100
00000010
00000001
00000010
00000000
00000001
00000000
00000110
,
00000000
00010000
00001000
00010000
,
00001000
00000000
01000000
00010000
10000000
00100000
10000000
00000000
,
10010000
00000000
00000000
10010000
00000000
00000000
01000000
00000000
,
01100000
00000000
00000000
01100000
00000000
00000000
00000000
00000000
,
00001000
00010000
00000000
00010000
00000000
00010000
00000000
00010000
,
00001000
00000000
00011000
00000000
,
00000010
00000100
00000010
00000100
00000010
00000100
00000010
00000100
,
00000020
00000000
00000130
00000000
,
00000001
00000000
00000100
00000001
00000000
00000100
00000001
00000000
,
00000000
00000000
00000010
00000100
00000010
00000100
00000010
00000000
,
00000102
00000000
00020003
00000000
,
00031000
10000000
00000000
10000000
00000000
00100000
00000000
00000000
,
01100000
00000000
00100000
00000000
10000000
01000000
00100000
00002000
,
00000000
00000000
00013000
00000000
00000010
00000100
00000010
00000000
,
00000110
00000000
00000100
00000001
00000000
00000010
00000000
00000100
,
00000000
00010000
00001000
00010000
,
00000000
00000000
00011000
00000000
00000000
01001000
00000000
00000000
,
10100000
00000000
00000000
01100000
00000000
00000000
00011000
00000000
,
00000000
00010010
00000000
00000000
00000110
00000000
00000000
00000000
,
00000200
00000000
00000000
00000320
00000000
00000000
00000030
00000000
,
00000100
00000001
00000010
00000100
,
00000010
00000001
00000100
00000010
,
00001000
00000000
00000100
00010000
00001000
01000000
00000000
00200000
,
00000000
00000000
10300000
00010000
10000000
01000000
00100000
00001000
,
00010000
00000000
00000100
00000010
00000100
00000010
00000001
00000010
,
00000001
00000010
00000100
00000000
00010000
00000000
00001000
00000000
,
00100000
01000000
10000000
00000000
01000000
00100000
00010000
00000000
,
00000010
00000100
00000001
00000000
00000100
00000010
00001000
00000000
,
00000001
00000010
00000001
00000100
,
00000010
00010000
00000000
00001000
00000000
00010000
00000000
00000000
,
00001000
01000000
00001000
01000000
00100000
01000000
00100000
01000000
,
00100000
01000000
00001000
00010000
00001000
00010000
00000001
00010000
,
00000001
00000010
00000100
00000000
00000010
00000100
00010000
00000000
,
00001000
01000000
00100000
00000000
10000000
01000000
00100000
00000000
,
01000000
10000000
01000000
00000000
00100000
01000000
00100000
00000000
,
00001000
00100000
00001000
00000000
00010000
00001000
00010000
00000000
,
00000100
00000010
00000100
00000010
00000100
00000010
00000001
00000100
,
00000010
00000000
00010000
00001000
00000000
01000000
00000000
00000000
,
01100000
00000000
01000000
00000000
,
01000000
00000000
01000000
00000000
,
10010000
00000000
00010000
00000000
,
00010000
00000000
00010000
00000000
,
00010010
00000000
00000010
00000000
,
00000010
00000000
00000010
00000000
,
00000110
00000000
00000100
00000000
,
00000200
00000000
00000000
00000300
,
00001001
00000000
00000000
00000000
00000001
00000000
00001000
00000000
00000000
00000000
00000000
00000000
,
00000100
00000000
00000010
00000000
00000001
00000000
00000010
00000000
00000100
00000000
00010000
00000000
,
00002000
00000000
00000000
00000000
,
00103000
00000000
01000000
00000000
10000000
00000000
00100000
00000000
00000000
00000000
00100000
00000000
,
00000000
00000000
00200000
00000000
00000000
00000000
00000000
00000000
00000000
00000000
00000000
00000000
,
10300000
00010000
10000000
00010000
10000000
00010000
10000000
00010000
,
10000000
00000000
10000000
00000000
,
10000000
00000000
00010000
10000000
00010000
10000000
00010000
10000000
,
00010000
01000000
00100000
01000000
,
00001000
00100000
00000000
01000000
00000000
00100000
00001000
00000000
,
00010000
00000000
00000100
00000010
00000100
00000010
00000001
00000010
,
00000000
00000100
00000010
00000000
00000001
00000000
00000100
00000010
,
00000100
00000000
00000010
00000000
00010000
00001000
00000000
01000000
,
00100000
00000000
10000000
01000000
10000000
01000000
10000000
00000000
,
00010000
01000000
00010000
00000000
10000000
00010000
10000000
00000000
,
00100000
01000000
00000000
01000000
00000000
01000000
00100000
00000000
,
10000000
00000000
01000000
00000000
00100000
00000000
00001000
00010000
,
00001000
00010000
00000100
00000010
00000000
00000001
00000100
00000000
,
00000010
00000000
00000100
00000000
00000001
00000010
00000002
00000000
,
00000000
00000013
00000100
00010000
00002000
00000000
00000000
00000000
,
01003000
00000000
00100000
10000000
00000000
00100000
01000000
00000000
,
00001000
00000000
00010000
00000010
00000000
00000100
00000010
00000000
,
00001001
00000000
00000000
00001000
00000000
00000000
00001000
00000000
,
00001001
00000000
00000000
00000000
00000010
00000100
00000010
00000100
,
00000020
00000000
00000000
00000000
00001030
00000100
00000010
00000001
,
00020000
00000000
00000000
00000000
00031000
00100000
01000000
10000000
,
00002000
00000000
00000000
00000000
00013000
00000100
00000010
00000001
,
00020000
00000000
00000000
00000000
00031000
01000000
00100000
10000000
,
01000000
00000000
10000000
01000000
00000000
10000000
00010000
00000000
,
01000000
00000000
00001000
00010000
00000000
00000100
00000010
00000000
,
00000001
00000100
00000001
00000100
00000001
00000000
00000010
00000000
,
00000100
00010000
00000100
00010000
00000100
00000000
00010000
00000000
,
00001000
01000000
00100000
00000000
01000000
00100000
10000000
00000000
,
01000000
00100000
00010000
00000000
00001000
00010000
00000100
00000000
,
00000010
00000000
00000001
00000000
00000010
00000000
00000100
00000000
00010000
00000000
00001000
00000000
,
00100000
00000000
00000000
00000000
01000000
00000000
00000000
00000000
10000000
00000000
00000000
00000000
00100000
00000000
00000000
01000000
00000000
00000000
00100000
00000000
00000000
01000000
00000000
00000000
,
00100000
00000000
01100000
00000000
00000000
01001000
00000000
00000000
,
00011000
00000000
00000000
00010100
00000000
00000000
00000110
00000000
,
00000010
00000100
00000010
00000100
,
00000010
00000000
00000100
00000010
00000100
00000010
00000100
00000000
,
00000110
00000000
00000000
00010100
00000000
00000000
00011000
00000000
,
00000000
01001000
00000000
00000000
01100000
00000000
00000000
11000000
,
00000000
00110000
00000000
02200000
,
00000000
00000000
00000000
00000000
,
03300000
00000000
00100000
01000000
00100000
01000000
00100000
01000000
,
00100000
01000000
00000000
00000000
00000000
00000000
00012000
00000000
,
00000000
00000000
00000000
00000000
,
00000000
00000000
00000000
00000000
,
00010000
00000000
00000000
00010000
,
00000000
00000000
00000000
00010000
00000000
00000000
00000000
00000000
,
00000000
00000000
00000000
00000000
,
00013000
00000000
00000000
00000000
;

//---------------dance-single - ----------------
#NOTES:
     dance-single:
     :
     Beginner:
     4:
     0.116,0.287,0.091,0.000,0.000:
0000
0000
0000
0000
,
0000
0000
0000
0000
,
0000
0000
0000
0000
,
0000
0000
0000
0000
,
0000
0000
0000
0000
,
0000
0000
0000
0000
,
0000
0000
0000
0000
,
0000
0000
0000
0000
,
1000
0000
0000
0000
,
0001
0000
0000
0000
,
1000
0000
0000
0000
,
1000
0000
0000
0000
,
0001
0000
0000
0000
,
1000
0000
0000
0000
,
0001
0000
0000
0000
,
0000
0000
0000
0000
,
1001
0000
0000
0000
,
0000
0000
0000
0000
,
0010
0000
0000
0000
,
0000
0000
0000
0000
,
0100
0000
0000
0000
,
0000
0000
0000
0000
,
1001
0000
0000
0000
,
0000
0000
0000
0000
,
0100
0000
0000
0000
,
0010
0000
0000
0000
,
0100
0000
0000
0000
,
0010
0000
0000
0000
,
0100
0000
0000
0000
,
0010
0000
0000
0000
,
0110
0000
0000
0000
,
0000
0000
0000
0000
,
0001
0000
0000
0000
,
0000
0000
0000
0000
,
1000
0000
0000
0000
,
0000
0000
0000
0000
,
0100
0000
0000
0000
,
0000
0000
0000
0000
,
0010
0000
0000
0000
,
0000
0000
0000
0000
,
1001
0000
0000
0000
,
1000
0000
0000
0000
,
0001
0000
0000
0000
,
0000
0000
0000
0000
,
1000
0000
0000
0000
,
0010
0000
0000
0000
,
0100
0000
0000
0000
,
0000
0000
0000
0000
,
0000
0000
0000
0000
,
0000
0000
0000
0000
,
0001
0000
0000
0000
,
1000
0000
0000
0000
,
0001
0000
0000
0000
,
1000
0000
0000
0000
,
0100
0000
0000
0000
,
1000
0000
0000
0000
,
0100
0000
0000
0000
,
0000
0000
0000
0000
,
0000
1001
0000
0000
,
0000
0000
0000
0000
,
0000
0000
0000
0000
,
0000
0000
0000
0000
,
0010
0000
0000
0000
,
0100
0000
0000
0000
,
0010
0000
0000
0000
,
0000
0000
0000
0000
,
1000
0000
0000
0000
,
0001
0000
0000
0000
,
1000
0000
0000
0000
,
0000
0000
0000
0000
,
0001
0000
0000
0000
,
1000
0000
0000
0000
,
0001
0000
0000
0000
,
0000
0000
0000
0000
,
0010
0000
0000
0000
,
0010
0000
0000
0000
,
0100
0000
0000
0000
,
0000
0000
0000
0000
,
1000
0000
0000
0000
,
1000
0000
0000
0000
,
1001
0000
0000
0000
,
0000
0000
0000
0000
,
0001
0000
0000
0000
,
0000
0000
0000
0000
,
0001
0000
0000
0000
,
0000
0000
0000
0000
,
0001
0000
0000
0000
,
0000
0000
0000
0000
,
1000
0000
0000
0000
,
0000
0000
0000
0000
,
0100
0000
0000
0000
,
0000
0000
0000
0000
,
0010
0000
0000
0000
,
0000
0000
0000
0000
,
0001
0000
0000
0000
,
0000
0000
0000
0000
,
1000
0000
0000
0000
,
0010
0000
0000
0000
,
1000
0000
0000
0000
,
0000
0000
0000
0000
,
0001
0000
0000
0000
,
1000
0000
0000
0000
,
0001
0000
0000
0000
,
0000
0000
0000
0000
,
0100
0000
0000
0000
,
0010
0000
0000
0000
,
0100
0000
0000
0000
,
0000
0000
0000
0000
,
0001
0000
0000
0000
,
0100
0000
0000
0000
,
0001
0000
0000
0000
,
0000
0000
0000
0000
,
1001
0000
0000
0000
,
1000
0000
0000
0000
,
1001
0000
0000
0000
,
0001
0000
0000
0000
,
0100
0000
0000
0000
,
0010
0000
0000
0000
,
1000
0000
0000
0000
,
0000
0000
0000
0000
,
0010
0000
0000
0000
,
0100
0000
0000
0000
,
0001
0000
0000
0000
,
0100
0000
0000
0000
,
0010
0000
0000
0000
,
0000
0000
0000
0000
,
1001
0000
0000
0000
,
0000
0000
0000
0000
,
0110
0000
0000
0000
,
0000
0000
0000
0000
,
0000
0000
0000
1001
,
0000
0000
0000
0000
,
0000
0000
0000
0000
,
0000
0000
0000
1000
,
0000
0000
0000
0000
,
0000
0000
0000
0000
,
0000
0000
0000
0000
,
0000
0000
0000
0000
,
0000
0000
0000
1000
;
