#TITLE:カグツチ;
#SUBTITLE:;
#ARTIST:Massive New Krew;
#TITLETRANSLIT:KAGUTSUCHI;
#SUBTITLETRANSLIT:;
#ARTISTTRANSLIT:;
#CREDIT:DigiMindAxel;
#BANNER:KAGUTSUCHI.png;
#BACKGROUND:KAGUTSUCHI-bg.png;
#LYRICSPATH:;
#CDTITLE:TAIKO NO TATSUJIN.png;
#MUSIC:KAGUTSUCHI.ogg;
#METERTYPE:DDR X;
#OFFSET:-7.738;
#SAMPLESTART:26.322;
#SAMPLELENGTH:12.000;
#SELECTABLE:YES;
#BPMS:0.000=155.000;
#STOPS:;
#BGCHANGES:;

//---------------dance-single - ----------------
#NOTES:
     dance-single:
     :
     Easy:
     6:
     0.235,0.287,0.050,0.067,0.000:
2002
0000
0000
0000
,
0000
0000
3003
0000
,
2002
0000
0000
0000
,
0000
0000
3003
0000
,
1001
0000
0001
0000
,
0001
0000
1000
0000
,
1000
0000
0001
0000
,
0001
0000
1000
0000
,
1000
0000
0100
0000
,
0010
0000
0001
0000
,
1000
0100
0010
0001
,
2000
0000
0000
0000
,
3010
0000
0100
0000
,
0010
0000
0100
0000
,
0001
0000
1000
0000
,
0100
1000
0100
0010
,
0001
0000
0100
0000
,
0001
0000
0100
0000
,
0010
0000
1000
0000
,
0001
0010
0200
0000
,
0310
0010
0010
0000
,
0001
0001
0001
0000
,
0100
0100
0100
0000
,
0010
0010
0010
0000
,
1000
1000
1000
0000
,
0100
0100
0100
0000
,
0010
0010
0010
0000
,
0001
1000
0001
0000
,
1001
0000
1000
0000
,
0010
0000
0100
0000
,
0001
0000
1000
0000
,
0010
0000
0100
0000
,
0001
0000
0010
0000
,
0100
0000
1000
0000
,
0001
0000
0100
0000
,
0010
0000
1000
0000
,
1001
0000
0001
0000
,
1000
0000
1000
0000
,
0001
0000
0001
0000
,
0010
0000
0010
0000
,
0100
0000
0100
0000
,
1000
0000
1000
0000
,
0001
0010
0100
1000
,
0010
0000
0000
0000
,
0100
0001
0100
0001
,
1000
0100
0010
0000
,
0001
0100
0001
0100
,
0001
0010
0100
0000
,
0010
0001
0010
0001
,
1000
0010
0100
0000
,
0010
1000
0010
1000
,
0001
0010
0100
0000
,
1000
0100
1000
0100
,
0010
0001
0100
0000
,
0010
0100
0010
0100
,
0001
1000
0100
0000
,
0010
0001
0010
0001
,
1000
0010
0100
0000
,
0001
1000
0001
1000
,
0010
0100
0001
0000
,
1000
1000
1000
1000
,
0100
0100
0100
0100
,
1000
1000
1000
1000
,
0001
0001
0001
0001
,
0100
0100
0100
0100
,
0001
0001
0001
0001
,
0010
0010
0100
0100
,
1000
1000
0001
0001
,
2002
0000
0000
0000
,
3003
0000
0000
0000
;

//---------------dance-single - ----------------
#NOTES:
     dance-single:
     :
     Medium:
     10:
     0.473,0.517,0.541,0.216,0.000:
1010
0000
0000
1010
0000
0000
0000
0000
,
0000
0000
0000
0000
,
0101
0000
0000
0000
,
0000
0000
0000
0000
,
1001
1000
1000
1000
,
0001
0001
0001
0001
,
1000
1000
1000
1000
,
0010
0100
0010
0100
0020
0000
0000
0000
,
1030
0000
0100
0000
0010
0001
1000
0000
,
0001
0000
0100
0000
0010
1000
0001
0000
,
0010
0100
0010
0100
1000
0001
1000
0001
,
0200
0000
0000
0310
,
1100
1100
1100
1100
,
1001
1001
1001
1001
,
0101
0101
0101
0101
,
0110
0110
0110
0110
,
1001
0110
1001
0110
,
0101
0110
0101
0110
,
1010
0110
1010
0110
,
2002
0000
0000
3003
,
1000
0010
1000
0010
0100
0001
0010
0000
,
0100
0010
0100
0010
0001
0100
0010
0000
,
1000
0010
1000
0010
0100
0001
0010
0000
,
0100
0010
0100
1000
0010
0100
0010
0000
,
1000
0100
1000
0100
0010
0001
0100
0000
,
0010
0100
0001
0010
0100
0010
0001
0000
,
0100
0010
1000
0100
1000
0010
0100
0000
,
1002
2003
3001
0000
,
0201
0000
0310
0000
,
2000
0000
3100
0010
,
0102
0000
1003
0000
,
0200
1000
1000
1300
,
0120
0000
0130
0000
,
0002
0000
0203
0000
,
0320
0000
1030
0000
,
0002
0000
0023
0000
,
0031
0001
0001
0001
,
0100
0100
0100
0100
,
0010
0010
0010
0010
,
1000
0001
1000
0001
1000
0000
0000
0000
,
0100
1000
0100
0000
0010
0100
0010
0000
,
0001
0010
0001
0000
0100
0010
0100
0000
,
0001
1000
0001
1000
0010
0100
0010
0100
,
0000
0000
0000
0000
0001
1000
0001
0000
,
1001
1010
1001
1010
,
0110
0000
0110
0000
0100
0001
1000
0000
,
1100
1100
0011
0011
,
0100
1000
0010
0100
0002
0000
0000
0003
,
0011
0110
0011
0110
,
1001
0000
1001
0000
1000
0100
0010
0000
,
0001
0100
0010
0000
1010
0000
0000
0000
,
2002
0000
0000
3003
,
0001
0100
0010
0000
1010
0000
1001
0000
,
0110
0000
0110
0000
0100
0010
0001
0000
,
0011
0110
0011
0110
,
0100
1000
0010
0000
0100
0001
0010
0000
,
0100
1000
0100
0000
0010
0100
0010
0000
,
0001
0010
0001
0000
0100
0010
1000
0100
,
0010
0001
0010
0000
0100
0010
0100
0000
,
2200
0000
0000
3300
,
1000
0010
1000
0010
0100
0001
0010
0000
,
0100
0010
0100
1000
0001
0100
0001
0000
,
0010
0100
1000
0100
0010
0001
0010
0000
,
0001
0100
0010
0100
0001
1000
0100
0000
,
0010
0100
1000
0001
0100
0001
1000
0000
,
0100
0010
0001
0010
0100
1000
0010
0000
,
0100
0001
0100
0001
1000
0100
0010
0001
,
0200
2300
3200
0301
,
2002
0000
0000
0000
,
3003
0000
0000
0000
;

//---------------dance-single - ----------------
#NOTES:
     dance-single:
     :
     Hard:
     13:
     0.648,0.717,0.424,0.191,0.445: // measure 1
0101
0000
0000
0101
0000
0000
0202
0000
0000
0000
0000
0000
0000
0000
0000
0000
,  // measure 2
0000
0000
0000
0303
,  // measure 3
0220
0000
0000
0000
,  // measure 4
0000
0000
0330
0000
,  // measure 5
1100
0000
1000
0000
1000
0000
1000
1000
,  // measure 6
0001
0000
0001
0000
0001
0000
0001
0001
,  // measure 7
0100
0000
0100
0000
0100
0000
0100
0100
,  // measure 8
0010
0000
0010
0000
1000
0000
0100
0000
0000
0000
0000
0000
0000
0000
1000
0100
,  // measure 9
0010
0001
1000
0001
0010
0001
1000
0010
,  // measure 10
0100
0001
0010
0100
0010
0001
0100
0001
,  // measure 11
1000
0100
1000
0000
0001
1000
0001
0000
0010
0001
0010
0000
0001
1000
0001
0000
,  // measure 12
0011
0000
0100
0110
0000
0001
0011
0000
,  // measure 13
1100
0000
0000
0010
0000
0000
0001
0000
0000
0010
0000
0000
0100
0000
0000
0000
,  // measure 14
1010
0000
0000
0010
0000
0000
0100
0000
0000
0001
0000
0000
0010
0000
0100
0000
,  // measure 15
1001
0000
0000
0001
0000
0000
0010
0000
0000
0100
0000
0000
0010
0000
0001
0000
,  // measure 16
0101
0000
0000
0100
0000
0000
0010
0000
0000
1000
0000
0000
1100
0000
0000
0000
,  // measure 17
0011
0000
0001
0000
1000
0000
0010
0000
0000
0100
0000
0000
0001
0000
0000
0000
,  // measure 18
0110
0000
0000
0100
0000
0000
1000
0000
0000
0010
0000
0000
0100
0000
0001
0000
,  // measure 19
1001
0000
0000
1000
0000
0000
0100
0000
0000
0010
0000
0000
0100
0000
1000
0000
,  // measure 20
0001
0100
0001
1000
0100
1000
0002
0000
0000
1003
0000
0000
,  // measure 21
0001
0000
1000
0100
1000
0000
0001
0100
0000
0001
0100
0000
0010
0000
1000
0000
,  // measure 22
0001
0010
0001
0000
1000
0000
0100
0010
0000
0100
0010
0000
0002
0000
0000
0000
,  // measure 23
1003
0000
0100
0010
0100
0000
1000
0010
0000
1000
0010
0000
0100
0000
0001
0000
,  // measure 24
0010
0100
0010
0000
0001
0000
0100
0010
0000
0100
0010
0000
1000
0000
0000
0000
,  // measure 25
1001
0000
0001
0100
0001
0000
1000
0100
0000
1000
0100
0000
0010
0000
0001
0000
,  // measure 26
0100
0010
1000
0000
0010
0000
0100
0001
0000
0100
0001
0000
0020
0000
0000
0000
,  // measure 27
0130
0000
1000
0001
1000
0000
0100
0010
0000
0100
0010
0000
0001
0000
0100
0000
,  // measure 28
1020
0000
0000
0130
0001
0010
0100
0000
0100
0000
0100
0000
,  // measure 29
1020
0000
0000
0000
0000
0000
0100
0000
0130
0000
0000
0001
0000
0000
0010
0000
,  // measure 30
0200
0000
2300
0000
3010
0100
1001
0000
,  // measure 31
0201
0000
0000
0000
0000
0000
0010
0000
0310
0000
0000
1000
0000
0000
0100
0000
,  // measure 32
0020
0000
0032
0000
0013
0100
1001
0000
,  // measure 33
0102
0000
0000
0000
0000
0000
1000
0000
1003
0000
0000
0001
0000
0000
0010
0000
,  // measure 34
0200
0000
0320
0000
0031
1000
1010
0000
,  // measure 35
0201
0000
0000
0000
0000
0000
0010
0000
0310
0000
0000
1000
0000
0000
0100
0000
,  // measure 36
0020
0000
0230
0000
1300
0001
0101
0000
,  // measure 37
0100
0000
0100
0000
0100
0000
0100
0100
,  // measure 38
0010
0000
0010
0000
0010
0000
0010
0010
,  // measure 39
0100
0000
0100
0000
0100
0000
0100
0100
,  // measure 40
0001
0000
0001
0000
0010
0000
0100
0000
0000
0000
0000
0000
0000
0000
1000
0001
,  // measure 41
0100
0010
0100
0001
0100
0010
0100
0001
,  // measure 42
0010
1000
0010
0001
0010
1000
0010
0001
,  // measure 43
1000
0010
1000
0000
0001
1000
0001
0000
1000
0010
1000
0000
0001
1000
0001
1000
,  // measure 44
0000
0000
0000
0000
0000
0000
0000
0000
0100
0010
0100
0010
0100
0000
0000
0000
,  // measure 45
1010
0000
0000
1000
0000
0000
0001
0000
0010
0000
0110
0000
0000
0000
0100
0000
,  // measure 46
1100
0000
0000
1000
0000
0000
0010
0000
0100
0000
0001
0000
0010
0000
0000
0000
,  // measure 47
0011
0000
0000
0001
0000
0000
0100
0000
0010
0000
1010
0000
0000
0000
0100
0000
,  // measure 48
0101
0000
0001
0000
0010
0000
0100
0000
1010
0000
0000
1010
0000
0000
0010
0000
,  // measure 49
0110
0000
0000
0100
0000
0000
0001
0000
0010
0000
0110
0000
0000
0000
1000
0000
,  // measure 50
1100
0000
0000
0100
0000
0000
0010
0000
0001
0000
1000
0000
0010
0000
0000
0000
,  // measure 51
0101
0000
0000
0001
0000
0000
0010
0000
0100
0000
1100
0000
0000
0000
0011
0000
,  // measure 52
0000
0000
1001
0000
0000
0000
1000
0000
0010
0000
0000
0100
0000
0000
0001
0000
,  // measure 53
1001
1000
0010
0100
0001
0101
0000
0110
,  // measure 54
0010
0000
0000
1000
0000
0000
0100
0000
0010
0000
0001
0000
1000
0000
0010
1000
,  // measure 55
0001
0000
0000
0001
0000
0000
0010
0000
0100
0000
1100
0000
0000
0000
0010
0000
,  // measure 56
0001
1000
0001
0000
1000
0010
1000
0000
0010
0000
0000
0100
0000
0000
0001
0000
,  // measure 57
1001
0000
1000
0000
0010
0000
0100
0000
0101
0000
0001
0000
1000
0100
0010
0000
,  // measure 58
0011
0000
0001
0000
0100
0000
0001
0000
1000
0100
0010
0100
1000
0000
0001
0000
,  // measure 59
0100
0001
0100
0000
0010
0100
0010
0000
1000
0010
1000
0000
0010
0100
0010
0000
,  // measure 60
1000
0100
0010
0001
0200
0000
0000
0000
,  // measure 61
0310
0000
1000
0010
1000
0000
0100
0010
0000
0100
0010
0000
0001
0000
1000
0000
,  // measure 62
0100
0010
0100
0000
0010
0000
0001
0100
0000
0001
0100
0000
0010
0000
0010
0000
,  // measure 63
1000
0000
0001
0010
0001
0000
1000
0010
0000
1000
0010
0000
0100
0000
0001
0000
,  // measure 64
0010
0100
1000
0000
0001
0000
0100
0001
0000
0100
0001
0000
1000
0000
0100
0000
,  // measure 65
0011
0000
0001
1000
0001
0000
0100
0010
0000
0100
0010
0000
1000
0000
0100
0000
,  // measure 66
0010
0100
1000
0000
0001
0000
0100
0001
0000
0100
0001
0000
1000
0000
0000
0000
,  // measure 67
1001
0000
0001
0100
0000
0001
0100
0000
0001
1000
0100
1000
0001
0000
0010
0000
,  // measure 68
0100
0010
0100
0000
1000
0010
1000
0000
0001
0010
0001
0100
0010
0000
0000
0000
,  // measure 69
2020
0000
0000
0000
,  // measure 70
3030
0000
0000
0000
;

//---------------dance-single - ----------------
#NOTES:
     dance-single:
     :
     Challenge:
     17:
     0.892,0.861,0.907,0.108,0.815: // measure 1
1001
0000
0000
1001
0000
0000
0011
0000
0000
0000
0100
0000
1000
0000
0100
0000
,  // measure 2
0000
0010
0100
0010
0001
1000
0010
0000
,  // measure 3
1001
0000
0000
1000
0000
0010
1000
0000
0001
0010
0000
0001
0010
0000
0100
1000
,  // measure 4
0000
0000
0000
0100
0000
0000
1000
0000
0000
0000
0000
0000
0010
0000
0000
0000
0000
0000
0100
0000
0000
0000
0000
0000
0001
0000
0000
0000
1000
0000
0000
0000
0010
0000
0000
0000
0001
0000
0000
0000
0010
0000
0000
0000
1000
0000
0000
0000
,  // measure 5
1010
0000
0110
0000
1010
0000
0110
0100
,  // measure 6
0101
0000
1001
0000
0101
0000
1001
1000
,  // measure 7
1100
0000
0110
0000
1100
0000
0110
0010
,  // measure 8
0011
0000
0001
0000
1001
0000
1000
0010
0100
0001
0000
0100
0001
0000
1000
0100
,  // measure 9
1000
0010
0100
0001
1000
0010
0001
0010
,  // measure 10
1000
0100
0010
0001
1000
0100
0001
0100
,  // measure 11
1000
0010
1000
0010
0100
0001
0100
0001
1000
0100
0010
0100
1000
0001
0100
0001
,  // measure 12
1000
0000
0000
1000
0010
0000
1010
0000
0000
0100
0001
0000
0101
0000
0000
0000
,  // measure 13
1001
0000
0000
1000
0010
0000
0100
0000
0000
0100
0001
0000
1001
0000
0000
0000
,  // measure 14
0011
0000
0000
0010
0100
0000
1000
0000
0000
1000
0010
0000
0110
0000
0100
0000
,  // measure 15
0101
0000
0000
0001
1000
0000
0100
0000
0000
0100
0010
0000
0011
0000
0001
0000
,  // measure 16
0101
0000
0000
0100
0010
0000
1000
0000
0000
1000
0010
0000
0110
0000
0000
0000
,  // measure 17
0101
0000
0110
0000
0101
0000
0001
0000
0000
0100
0010
0000
1010
0000
0000
0000
,  // measure 18
1001
0000
0000
0001
0010
0000
0100
0000
0000
0100
1000
0000
1010
0000
0010
0000
,  // measure 19
0110
0000
0000
0100
0001
0000
0010
0000
0000
0010
0100
0000
1100
0000
1000
0000
,  // measure 20
0001
0100
1000
0001
0010
1000
0002
0000
0000
0013
0000
0000
,  // measure 21
1100
0000
1000
0100
0010
0000
0001
0100
0000
0100
0001
0000
1000
0000
0100
0010
,  // measure 22
0001
0010
0100
0000
1000
0000
0010
0100
0000
0100
0010
0000
2000
0000
0000
0000
,  // measure 23
3001
0000
1000
0010
0100
0000
0001
1000
0000
1000
0001
0000
0010
0000
0100
1000
,  // measure 24
0010
0000
0000
1000
0000
0000
0100
0000
0000
0000
0000
0000
0010
0000
0000
0000
0000
0000
0001
0000
0000
0100
0000
0000
0000
0000
0000
0100
0000
0000
0001
0000
1000
0000
0001
0000
2000
0000
0000
0000
0000
0000
0000
0000
0000
0000
0000
0000
,  // measure 25
3100
0000
1000
0001
0010
0000
0100
0010
0000
0010
0100
0000
1000
0000
0010
0100
,  // measure 26
0001
0100
0010
0000
1000
0000
0001
0010
0000
0010
0001
0000
0200
0000
0000
0000
,  // measure 27
0310
0000
1000
0100
0010
0000
0001
0100
0000
0100
0001
0000
0010
0000
0100
1000
,  // measure 28
0001
0100
0001
0100
0001
0100
0001
0000
0010
0000
0100
0000
1100
0000
0000
0000
0011
0000
0000
0000
1100
0000
0000
0000
,  // measure 29
0012
0000
0000
0000
0000
0000
1003
0100
0010
0001
0000
0010
0001
0000
0100
0010
,  // measure 30
1000
0000
1000
0000
0001
0000
0001
0100
0010
0000
1010
0000
1001
0000
0000
0000
,  // measure 31
0201
0000
0000
0000
0000
0000
0310
1000
0100
0010
0000
0100
0010
0000
0001
0100
,  // measure 32
0010
0000
0010
0000
1000
0000
1000
0100
0010
0000
0011
0000
0110
0000
0000
0000
,  // measure 33
2100
0000
0000
0000
0000
0000
3010
0100
0001
0010
0000
0100
0010
0000
0001
0100
,  // measure 34
0010
0000
0010
0000
1000
0000
1000
0100
0010
0000
0011
0000
1001
0000
0000
0000
,  // measure 35
2100
0000
0000
0000
0000
0000
3001
0100
0010
1000
0000
0010
1000
0000
0100
0010
,  // measure 36
0001
0000
0001
0000
0100
0000
0100
0010
1000
0000
0010
0100
0001
0000
0101
0000
,  // measure 37
1001
0000
1100
0000
1001
0000
1100
1000
,  // measure 38
1001
0000
0101
0000
1001
0000
0101
0001
,  // measure 39
1001
0000
1010
0000
1001
0000
1010
1000
,  // measure 40
1001
0000
0001
0000
0011
0000
0020
0000
0000
0000
0000
0000
0030
0000
0100
1000
,  // measure 41
0001
0100
0010
1000
0001
0010
1000
0010
,  // measure 42
0001
1000
0100
1000
0001
0100
1000
0100
,  // measure 43
0001
1000
0001
1000
0100
0010
0100
0010
0001
0100
0010
1000
0001
0010
0001
0010
,  // measure 44
0000
0000
0000
0000
0000
0000
0000
0000
0001
1000
0010
1000
0002
0000
0000
0000
,  // measure 45
1003
0000
0010
1000
0000
0001
0010
0000
1100
0000
1001
0000
0001
0000
0100
0000
,  // measure 46
0110
0000
0010
1000
0000
0001
0010
0000
1100
0000
1000
0000
1001
0000
0001
0100
,  // measure 47
0010
0000
1000
0100
0000
0010
0001
0000
0110
0000
1010
0000
1000
0000
0010
0000
,  // measure 48
0101
0000
1000
0000
0101
0000
1000
0000
0101
0000
0000
0110
0000
0000
1010
0000
,  // measure 49
1001
0000
0001
1000
0000
0010
1000
0000
0110
0000
0011
0000
0001
0000
1000
0000
,  // measure 50
1010
0000
0010
0100
0000
0001
0010
0000
1100
0000
1000
0000
1001
0000
0001
0000
,  // measure 51
0101
0000
0100
0010
0000
1000
0100
0000
0011
0000
1001
0000
0000
0000
0110
0000
,  // measure 52
0000
0000
0100
0010
1000
0000
0010
0000
1010
0000
1000
0001
0010
0000
0010
0000
,  // measure 53
1001
0000
0110
0000
1001
0000
1000
0000
0100
0010
0001
0000
0100
0000
1010
0000
,  // measure 54
1001
0000
0001
0010
0000
0100
0010
0000
0101
0000
0100
0000
1010
0000
1000
0100
,  // measure 55
0010
0000
0001
0010
0000
0001
1000
0000
0010
0100
0001
0000
0100
0000
1010
0000
,  // measure 56
1000
0100
0010
0000
0001
0010
0100
0000
1100
0000
0000
0110
0000
0000
0011
0000
,  // measure 57
0001
1000
0100
1000
0001
0000
1000
0100
0010
0100
1000
0000
0010
0100
0001
0100
,  // measure 58
0010
0000
1000
0001
0100
0001
1000
0000
0001
0010
0100
0010
0001
0000
1000
0010
,  // measure 59
0100
0010
0100
0010
1000
0001
1000
0001
0010
0100
0010
0001
1000
0010
0100
0010
,  // measure 60
1000
0000
0001
0010
0001
0000
1000
0100
2000
0000
0001
0000
0001
0000
3001
0000
,  // measure 61
1001
0000
1000
0100
0010
0000
0001
0100
0000
0100
0010
0000
1010
0000
1000
0100
,  // measure 62
0010
0000
0001
0000
0010
0000
0001
0000
0000
1000
0000
0000
0010
0000
0000
0000
0000
0000
0100
0000
0000
0001
0000
0000
0000
0000
0000
0001
0000
0000
1000
0000
0000
0100
0000
0000
0010
0000
0000
0000
0000
0000
0011
0000
0000
0000
0000
0000
,  // measure 63
1001
0000
1000
0100
0010
0000
0001
0100
0000
0100
0010
0000
1000
0000
0100
0010
,  // measure 64
0001
1000
0010
0000
0110
0000
0100
0001
0000
0001
1000
0000
0100
0010
0001
0000
,  // measure 65
1001
0000
1000
0100
0010
0000
0001
1000
0000
1000
0010
0000
0110
0000
0100
0001
,  // measure 66
1000
0100
0010
0000
0110
0000
0001
0010
0000
0010
0100
0000
1000
0100
0010
0001
,  // measure 67
0100
0000
0000
0000
0000
0000
0100
0000
0000
0010
0000
0000
0000
0000
0000
0010
0000
0000
1000
0000
0000
0000
0000
0000
0100
0000
0010
0000
0100
0000
0010
0000
0000
0001
0000
0000
0100
0000
0000
0000
0000
0000
1010
0000
0000
0000
0000
0000
,  // measure 68
1000
0000
0001
0000
1000
0000
0001
0000
0000
0010
0000
0000
0100
0000
1000
0000
0100
0000
1000
0000
0000
0010
0000
0000
0100
0000
0000
0001
0000
0000
1000
0000
0000
0100
0000
0000
0010
0000
0000
0000
0000
0000
0000
0000
0000
0000
0000
0000
,  // measure 69
0220
0000
0000
0000
,  // measure 70
0330
0000
0000
0000
;

//---------------dance-single - ----------------
#NOTES:
     dance-single:
     :
     Beginner:
     3:
     0.154,0.226,0.191,0.000,0.000:
1000
0000
0000
0000
,
0000
0000
0000
0000
,
1000
0000
0000
0000
,
0000
0000
0000
0000
,
1001
0000
0000
0000
,
0001
0000
0000
0000
,
1000
0000
0000
0000
,
0001
0000
0000
0000
,
0100
0000
0100
0000
,
0100
0000
0100
0000
,
0010
0000
0010
0000
,
0110
0000
0000
0000
,
1001
0000
0000
0000
,
1000
0000
0000
0000
,
0001
0000
0000
0000
,
0010
0000
0000
0000
,
0100
0000
0000
0000
,
0010
0000
0000
0000
,
0001
0000
0000
0000
,
1000
1000
1000
0000
,
1001
0000
0001
0000
,
0100
0000
0010
0000
,
0100
0000
0001
0000
,
1000
0000
0100
0000
,
1000
0000
0001
0000
,
1000
0000
0010
0000
,
0100
0000
0001
0000
,
1000
0000
1001
0000
,
1001
0000
0000
0000
,
0001
0000
0000
0000
,
1001
0000
0000
0000
,
1000
0000
0000
0000
,
1001
0000
0000
0000
,
0010
0000
0000
0000
,
1001
0000
0000
0000
,
0100
0000
0000
0000
,
1001
0000
0000
0000
,
0001
0000
0000
0000
,
1000
0000
0000
0000
,
0001
0000
0000
0000
,
0010
0000
0010
0000
,
0100
0000
0100
0000
,
0010
0000
0010
0000
,
0100
0000
0000
0000
,
1001
0000
1000
0000
,
0001
1000
0001
0000
,
1001
0000
0001
0000
,
1000
0001
1000
0000
,
1001
0000
0001
0000
,
1000
0001
1000
0000
,
1001
0000
1000
0000
,
0001
0000
0000
0000
,
0100
0000
0010
0000
,
1000
0010
1000
0000
,
0010
0000
0100
0000
,
0001
0100
0001
0000
,
0010
0000
0100
0000
,
1000
0100
1000
0000
,
0100
0000
0010
0000
,
0001
0010
0001
0000
,
1001
0000
0000
0000
,
0110
0000
0000
0000
,
1001
0000
0000
0000
,
0110
0000
0000
0000
,
1001
0000
0000
0000
,
0110
0000
0000
0000
,
1001
0000
0000
0000
,
1001
1000
1000
0000
,
0110
0000
0000
0000
;
