#TITLE:KAGEKIYO;
#SUBTITLE:源平討魔伝メドレー;
#ARTIST:増渕裕二;
#TITLETRANSLIT:;
#SUBTITLETRANSLIT:GENPEI TOMA DEN MEDLEY;
#ARTISTTRANSLIT:YUUJI MASUBUCHI;
#CREDIT:DigiMindAxel;
#BANNER:KAGEKIYO GENPEI TOMA DEN MEDLEY.png;
#BACKGROUND:KAGEKIYO GENPEI TOMA DEN MEDLEY-bg.png;
#LYRICSPATH:;
#CDTITLE:TAIKO NO TATSUJIN.png;
#MUSIC:KAGEKIYO GENPEI TOMA DEN MEDLEY.ogg;
#METERTYPE:DDR X;
#OFFSET:-8.131;
#SAMPLESTART:42.287;
#SAMPLELENGTH:12.000;
#SELECTABLE:YES;
#BPMS:0.000=65.000,7.000=130.000;
#STOPS:;
#BGCHANGES:;

//---------------dance-single - ----------------
#NOTES:
     dance-single:
     :
     Easy:
     6:
     0.264,0.260,0.253,0.165,0.000:
2000
0000
3200
0000
,
0320
0000
0032
1003
,
0100
1000
0100
0010
,
0001
0100
0000
0110
,
0000
1001
0000
0110
,
0000
0010
0100
1001
,
0000
0110
0000
1001
,
0000
0010
0100
0001
,
0001
2000
0000
0000
,
0000
3200
0000
0310
,
0001
2000
0000
0000
,
0000
3020
0000
0130
,
0001
1000
1000
0001
,
0000
0010
0100
1000
,
0001
0001
0000
0001
,
0000
0010
0100
1000
,
0001
0001
0000
1001
,
0000
0110
0000
1001
,
0000
0010
0100
1001
,
0000
0110
0000
1001
,
0000
0100
0010
1000
,
1000
0002
0000
0000
,
0000
0203
0000
0000
,
0000
0301
0001
1000
,
1000
0001
1000
0001
,
1000
0001
0001
1000
,
1000
0010
0010
0100
,
0100
0010
0010
0100
,
0100
0000
0002
0000
0000
2003
0000
0000
,
3000
0001
0010
0100
,
1000
0001
0001
1000
,
1000
0100
0010
0001
,
1000
0010
0100
0010
,
1000
0001
0100
0010
,
0100
0001
0010
0100
,
1000
0100
0010
0100
,
1000
0010
0100
0001
,
0010
0110
0000
0010
,
0100
0110
0000
0020
,
0000
0230
0000
0320
,
0000
1030
1000
1001
,
0000
0110
0000
1001
,
0000
0100
0110
0110
,
0000
1001
0000
0110
,
0000
0001
1001
1000
,
0100
0010
1001
0001
,
0010
0100
1001
0100
,
0010
0100
1001
0010
,
0100
0220
0330
0000
;

//---------------dance-single - ----------------
#NOTES:
     dance-single:
     :
     Medium:
     9:
     0.429,0.425,0.107,0.068,0.044:
0002
0100
0010
0103
0020
0000
0130
0000
,
2000
0010
0100
3010
0200
0000
0310
0000
,
0110
0000
0000
0000
1000
0000
0000
0000
1001
0000
0000
0000
0010
0000
0000
0100
,
0000
0001
0000
1000
0000
0001
0000
0000
0000
1001
0000
0000
0001
0000
0010
0000
,
0001
0000
0010
0100
0010
0000
0100
1000
,
0100
0000
1000
0100
0010
0001
1000
0100
,
1000
0000
0100
0010
0100
0000
0010
0001
,
0010
0000
0001
0010
0100
1000
0010
0100
,
0010
0100
0010
0000
0010
0000
0010
0000
,
0010
0000
0010
0000
0010
0000
1000
0100
,
0001
0100
1000
0000
0100
0000
0100
0000
,
0100
0000
0100
0000
0100
0000
1000
0010
,
0001
0010
2000
0000
0000
0000
3001
0000
,
0000
0000
0100
0001
0100
0001
1000
0000
,
0100
0001
0100
1000
,
0000
0000
0010
0100
0010
0100
0001
0000
,
0010
0000
1000
0000
0010
0000
0001
0100
,
0001
0000
0010
0100
0010
0000
0001
0100
,
0001
0000
0010
0100
1000
0001
1000
0010
,
1000
0000
0100
0010
0100
0000
1000
0010
,
1000
0000
0100
0010
0001
1000
0001
0100
,
0010
1000
0001
0001
0001
0000
0010
0000
,
0100
0000
1000
1000
1000
0000
0100
0000
,
0010
0000
0001
0001
0001
0000
0100
0000
,
0010
0000
1000
1000
1000
0000
0010
0000
,
0100
0000
0001
0001
0001
0000
0100
0001
,
0100
0000
0010
1000
0010
0000
0100
0010
,
0100
0000
0001
0010
0001
0000
1000
0100
,
1000
0010
0100
0001
0010
0100
1000
0000
,
0000
0000
0001
0100
0001
0010
0001
0100
,
0001
0010
0001
1000
0010
0100
0010
1000
,
0010
0100
0010
1000
0100
0001
0100
1000
,
0010
0100
0001
0010
1000
0010
0001
0100
,
0010
1000
0100
0010
0100
1000
0100
0010
,
0001
0010
0100
0010
0001
0100
0010
1000
,
0010
0100
0001
0010
0100
1000
0001
0010
,
0100
1000
0010
0100
0020
0000
0000
0000
,
0030
1001
0000
0110
,
0110
0000
0100
0001
0100
0001
1000
0100
,
1000
0100
0010
0001
0010
0001
1000
0010
,
1000
0010
0100
0100
0100
0100
0001
0100
,
0001
0000
0010
0100
0010
0000
0001
0100
,
0001
0000
0100
0000
0110
0000
1000
0010
,
1000
0000
0100
0010
0100
0000
1000
0010
,
1000
0000
0010
0000
0110
0000
0001
0100
,
0010
0000
0000
0100
0001
0000
0000
0000
0101
0000
0000
0000
1000
0000
0010
0000
,
0100
0000
0000
0010
1000
0000
0000
0000
1010
0000
0000
0000
0100
0000
0001
0000
,
0010
0000
0000
0001
1000
0000
0000
0000
1001
0000
0000
0000
0010
0000
1000
0000
,
0100
0000
0000
1000
0002
0000
0000
0000
0003
0000
0000
0000
0000
0000
0000
0000
;

//---------------dance-single - ----------------
#NOTES:
     dance-single:
     :
     Hard:
     14:
     0.688,0.661,0.165,0.243,0.730:
2000
0000
3001
0100
0001
1000
0100
1000
0020
0000
0000
0130
0020
0000
0000
0000
,
2030
0000
3001
0010
0001
1000
0010
1000
0002
0000
0013
0100
1000
0000
0000
0000
,
1100
0000
0000
0000
0010
0000
0000
0000
0110
0000
0000
0000
0001
0000
0100
0010
,
0000
0010
0000
1000
0000
0001
1000
0000
0000
1001
0000
0000
1000
0000
0000
1000
,
0010
0000
0000
0010
0100
0000
0000
0100
0001
0000
0000
0001
1000
0000
0000
1000
,
0010
0000
0000
0010
0100
0000
0001
0000
1000
0000
0100
0000
0010
0000
0000
0010
,
0001
0000
0000
0001
0010
0000
0000
0010
0100
0000
0000
0100
1000
0000
0000
1000
,
0001
0000
0000
0001
1000
0000
0100
0000
0010
0000
0001
0000
1000
0000
0010
1000
,
0010
1000
0001
0010
0001
0000
0100
0000
2000
0000
0000
0000
3100
0000
0001
0000
,
2000
0000
0000
0000
3100
0000
0010
0000
0002
0000
0000
0000
0103
0001
0100
0000
,
0010
1000
0010
0000
1000
0000
0100
0000
0002
0000
0000
0000
0103
0000
1000
0000
,
0002
0000
0000
0000
0103
0000
0010
0000
2000
0000
0000
0000
3100
1000
0100
0000
,
0010
0001
0010
0000
0001
0010
0100
0000
1000
0001
1000
0001
2000
0000
0000
0000
,
0100
0000
3001
0100
0010
0001
0010
1000
,
0001
0000
0200
0000
0000
0310
2000
0000
0000
0000
0000
0000
3002
0000
0000
0000
,
0010
0000
1003
0100
0010
1000
0010
0001
,
1000
0000
0020
0000
0000
0130
0001
0000
1001
0000
0000
0000
1000
0000
0001
0100
,
0001
1000
0000
0000
0001
0000
1000
0100
1000
0001
0000
0000
0100
0000
0010
0100
,
0010
1000
0000
0000
0100
0000
0001
0000
0100
0000
1000
0000
0001
0000
1000
0010
,
1000
0001
0000
0000
1000
0000
0001
0010
0001
1000
0000
0000
0100
0000
0010
0100
,
0010
0001
0000
0000
0010
0000
1000
0000
0010
0000
0001
0000
1000
0000
0010
0100
,
0010
0100
0010
0100
0001
0000
0010
0000
0001
0000
1000
0100
0010
0001
1000
0010
,
1000
0000
0001
1000
0002
0000
0000
0103
0020
0000
0000
1000
0000
1030
0000
1000
,
0001
0000
0100
0000
0001
0100
0010
1000
0002
0000
0000
0100
0000
0103
0000
0100
,
0010
0000
1000
0001
1000
0000
0010
0100
0002
0000
0000
0000
1003
0100
1000
0020
,
0000
0000
0130
0000
1001
0000
1000
0010
1000
0000
0010
0100
0001
0010
0001
0010
,
0100
0000
1000
0010
0100
0000
0000
0001
0200
0000
0000
0010
0000
0310
0000
0010
,
1000
0000
0001
0000
0100
0001
0100
0010
1000
0000
0001
0000
1000
0100
0010
0001
,
0100
0000
0001
0100
0001
1000
0100
0000
0010
0001
0100
0010
0200
0000
0000
0000
,
0000
0000
0000
0000
0310
0000
1000
0000
0001
0010
0001
0010
0100
1000
0100
1000
,
0100
0000
1000
0010
0100
0000
0010
0100
0010
0000
1000
0000
0100
0000
0001
0000
,
0100
0000
1000
0000
0001
0100
0010
1000
0001
0000
0010
0000
1000
0000
0010
0000
,
0001
0000
1000
0010
0100
0000
0001
1000
0001
0000
0100
0000
1000
0000
0100
0000
,
0001
1000
0001
1000
0001
0010
0001
0000
1000
0100
1000
0100
0010
0001
0010
0001
,
0010
0000
0001
0100
0010
0000
0100
0010
0100
0000
0001
0000
0010
0000
1000
0000
,
0010
0000
0001
0000
1000
0010
0100
0001
1000
0000
0100
0000
0001
0000
0100
0000
,
1000
0000
0001
0010
0100
0000
0010
0000
0001
1000
0001
1000
0001
1000
0001
1000
,
0001
1000
0001
1000
0200
0000
0000
0000
0300
0000
0000
0000
0110
0000
0000
0000
,
0001
1000
0001
0000
1000
0000
0010
0000
0100
0000
1000
0000
0100
0000
0001
0000
,
1000
0000
0100
0000
0010
0000
1000
0000
0010
0000
0001
0000
1000
0100
1000
0000
,
0001
1000
0001
1000
0001
0000
1001
0000
0100
0010
0100
0010
0100
0000
0010
1000
,
0100
0010
0000
0010
0100
0000
0010
0100
0010
1000
0000
1000
0001
0000
0010
0001
,
0010
0100
0000
0100
0010
0000
0000
0000
1001
0000
0000
0000
0110
0000
0010
0100
,
0001
0100
0000
0100
0010
0000
1000
0010
1000
0001
0000
0001
0100
0000
0001
0100
,
0001
1000
0000
1000
0100
0000
0000
0000
1001
0000
0000
0000
1100
0000
1000
0100
,
0010
0001
0000
0001
0100
0000
0000
0000
1001
0000
0000
0000
0011
0000
0001
0010
,
0100
1000
0000
1000
0010
0000
0000
0000
1001
0000
0000
0000
1010
0000
1000
0010
,
0100
0001
0000
0001
1000
0000
0000
0000
1001
0000
0000
0000
0101
0000
0001
0100
,
0010
1000
0000
1000
0002
0000
0000
0000
0003
0000
0000
0000
0000
0000
0000
0000
;

//---------------dance-single - ----------------
#NOTES:
     dance-single:
     :
     Beginner:
     2:
     0.093,0.117,0.088,0.000,0.000:
0000
0000
0000
0000
,
0000
0000
0000
1001
,
0000
0000
0000
1000
,
0000
0000
0000
0001
,
0000
0001
0000
0001
,
0000
0001
0000
1000
,
0000
1000
0000
1000
,
0000
1000
0000
0010
,
0000
0010
0000
0000
,
0000
0000
0000
0010
,
0000
1001
0000
0000
,
0000
0000
0000
0100
,
0000
1001
0000
1000
,
0000
0000
0000
0000
,
0000
0000
0000
0001
,
0000
0000
0000
0000
,
0000
0000
0000
1001
,
0000
1000
0000
1000
,
0000
1000
0000
0001
,
0000
0001
0000
0001
,
0000
0001
0000
0100
,
0000
0110
0000
0000
,
0000
0000
0000
0000
,
0000
0010
0000
0000
,
0000
0000
0000
0000
,
0000
0100
0000
0000
,
0000
0000
0000
0000
,
0000
0010
0000
0000
,
0000
0000
0000
0000
,
0000
1001
0000
0000
,
0000
1000
0000
0000
,
0000
0001
0000
0000
,
0000
1000
0000
0000
,
0000
0001
0000
0000
,
0000
1000
0000
0000
,
0000
0001
0000
0000
,
0000
1000
0000
0000
,
0000
1001
0000
0000
,
0000
0001
0000
0000
,
0000
0100
0000
0000
,
0000
0010
0000
0010
,
0000
1000
0000
1000
,
0000
1000
0000
0001
,
0000
0001
0000
0001
,
0000
0000
0000
1000
,
0000
1000
0000
0001
,
0000
0001
0000
0100
,
0000
0110
0000
1000
,
0000
1001
0000
0000
;

//---------------dance-double - ----------------
#NOTES:
     dance-double:
     :
     Easy:
     6:
     0.270,0.260,0.282,0.185,0.000:
10000000
00000000
00010000
00000000
,
10000000
00000000
00100000
01200000
,
01000000
00000000
01300000
10000000
,
01000000
00100000
00000000
00011000
,
00000000
10001000
00000000
00011000
,
00000000
00010000
00000010
00000110
,
00000000
00001001
00000000
00000110
,
00000000
00000010
00000001
00000100
,
00000010
00000200
00000000
00000302
,
00000000
00020003
00000000
00031000
,
00001000
00200000
00000000
02300000
,
00000000
23000000
00000000
30010000
,
00010000
01000000
01000000
00200000
,
00000000
10300000
01000000
00100000
,
00001000
00010000
00000000
00000200
,
00000000
00000310
00000001
00000100
,
00000010
00010000
00000000
00011000
,
00000000
10001000
00000000
00011000
,
00000000
00100000
01000000
01100000
,
00000000
10010000
00000000
01100000
,
00000000
10000000
01000000
00100000
,
00010000
00002000
00000000
00013000
,
00000010
00000200
00000000
00000000
,
00000000
00000301
00000020
00000000
,
00000000
00010030
00001000
02000000
,
00000000
03100000
00100000
01000000
,
01000000
00001000
00001000
00010000
,
00010000
00000100
00000100
00000010
,
00000010
00000000
00000001
00000000
00000000
00001001
00000000
00000000
,
00000000
00000100
00000010
00000100
,
00000001
00000010
00000100
00000010
,
00000001
00010000
00000010
00000100
,
00000010
00010000
00001000
10000000
,
01000000
00100000
00010000
01000000
,
00100000
01000000
00001000
00010000
,
00000010
00010000
00001000
00010000
,
00000010
00000100
00000001
00000001
,
00000001
00001001
00000000
00000100
,
00000000
00000120
00000000
00020030
,
00000000
00032000
00000000
02003000
,
00000000
03100000
00100000
01100000
,
00000000
10010000
00000000
01100000
,
00000000
00001000
00011000
00010001
,
00000000
00011000
00000000
00010001
,
00000000
00000010
00000110
00001001
,
00000001
00000100
00000110
00000010
,
00000100
00010000
00011000
00001000
,
01000000
00100000
01100000
10000000
,
00010000
20020000
30030000
00000000
;

//---------------dance-double - ----------------
#NOTES:
     dance-double:
     :
     Medium:
     10:
     0.432,0.401,0.117,0.058,0.044:
10000000
00010000
00100000
01000000
20000000
00000000
30010000
00000000
,
01000000
00001000
00010000
00000100
00000010
00000000
00000010
00000000
,
00001001
00000000
00000000
00000000
00000010
00000000
00000000
00000000
00001001
00000000
00000000
00000000
00000001
00000000
00000000
00000100
,
00000000
00000001
00000000
00000100
00000000
00000010
00000000
00000000
00000000
00000110
00000000
00000000
00010000
00000000
00000100
00000000
,
00010000
00000000
00001000
00010000
00001000
00000000
00010000
01000000
,
00010000
00000000
01000000
00100000
10000000
00100000
01000000
00010000
,
10000000
00000000
01000000
10000000
01000000
00000000
00100000
01000000
,
00100000
00000000
00001000
00010000
00000100
00000010
00000001
00000100
,
00000001
00000100
00000001
00000000
00000001
00000000
00000001
00000000
,
00000001
00000000
00000001
00000000
00000001
00000000
00000010
00000100
,
00001000
00010000
00100000
00000000
00100000
00000000
00100000
00000000
,
00100000
00000000
00100000
00000000
00100000
00000000
01000000
10000000
,
00100000
01000000
00002000
00000000
00000000
00000000
00023000
00000000
,
00000000
00000000
00030100
00000010
00000001
00000010
00000100
00000000
,
00010000
00001000
00100000
02000000
,
00000000
00000000
13000000
00100000
01000000
00100000
10000000
00000000
,
01000000
00000000
00100000
00000000
00011000
00000000
00001000
00010000
,
00001000
00000000
00010000
00000010
00010000
00000000
00000010
00000100
,
00000010
00000000
00000100
00000001
00000010
00000100
00010000
00001000
,
00010000
00000000
00001000
01000000
00001000
00000000
01000000
00100000
,
01000000
00000000
00010000
10000000
01000000
00100000
00010000
00001000
,
00000010
00000100
00000010
00000010
00000010
00000000
00000100
00000000
,
00000001
00000000
00000010
00000010
00000010
00000000
00000100
00000000
,
00001000
00000000
00010000
00010000
00010000
00000000
01000000
00000000
,
00100000
00000000
10000000
10000000
10000000
00000000
00100000
00000000
,
01000000
00000000
00001000
00001000
00001000
00000000
00010000
00001000
,
00010000
00000000
00000010
00010000
00000010
00000000
00000100
00000010
,
00000100
00000000
00000001
00000100
00000001
00000000
00010000
00000010
,
00010000
00001000
00100000
01000000
00100000
00001000
01000000
00000000
,
00000000
00000000
00100000
01000000
00100000
10000000
01000000
00100000
,
00010000
00100000
01000000
10000000
00001000
01000000
00001000
00010000
,
00001000
01000000
00001000
00010000
00000100
00000010
00000001
00000010
,
00000100
00010000
00000010
00010000
00001000
00010000
00000010
00010000
,
00001000
01000000
00100000
10000000
00100000
01000000
00001000
00010000
,
00001000
00100000
00001000
00010000
00001000
00100000
00001000
00010000
,
00000010
00000100
00000001
00000100
00000010
00010000
00001000
00010000
,
00000001
00010000
00001000
00010000
00000002
00000000
00000000
00000000
,
00000003
00000110
00000000
00001001
,
00001001
00000000
00000001
00000010
00000001
00000010
00000100
00010000
,
00000100
00010000
00001000
00100000
00001000
00100000
01000000
10000000
,
01000000
10000000
00010000
00010000
00010000
00010000
10000000
01000000
,
00100000
00000000
01000000
00100000
00001000
00000000
00010000
00000010
,
00000100
00000001
00000010
00000000
00000011
00000000
00000001
00000100
,
00000010
00000000
00000100
00000010
00010000
00000000
00001000
00100000
,
01000000
10000000
00100000
00000000
10100000
00000000
01000000
00100000
,
10000000
00000000
00000000
00010000
10000000
00000000
00000000
00000000
10010000
00000000
00000000
00000000
00100000
00000000
01000000
00000000
,
00001000
00000000
00000000
00010000
00001000
00000000
00000000
00000000
00011000
00000000
00000000
00000000
00010000
00000000
00000100
00000000
,
00000010
00000000
00000000
00000001
00000100
00000000
00000000
00000000
00000101
00000000
00000000
00000000
00000010
00000000
00001000
00000000
,
00010000
00000000
00000000
01000000
00200000
00000000
00000000
00000000
00300000
00000000
00000000
00000000
00000000
00000000
00000000
00000000
;

//---------------dance-double - ----------------
#NOTES:
     dance-double:
     :
     Hard:
     14:
     0.687,0.637,0.165,0.214,0.730: // measure 1
10000000
00000000
10000000
00100000
10000000
00100000
01000000
00010000
00002000
00000000
00000000
00013000
00002000
00000000
00000000
00000000
,  // measure 2
00003100
00000000
00000100
00000010
00000100
00000010
00000001
00000100
00000020
00000000
00000130
00000001
00001000
00000000
00000000
00000000
,  // measure 3
00001001
00000000
00000000
00000000
00000010
00000000
00000000
00000000
00000110
00000000
00000000
00000000
00000100
00000000
00001000
00000010
,  // measure 4
00000000
00000010
00000000
00010000
00000000
00001000
00010000
00000000
00000000
00011000
00000000
00000000
01000000
00000000
00000000
01000000
,  // measure 5
00100000
00000000
00000000
00100000
10000000
00000000
00000000
10000000
01000000
00000000
00000000
01000000
00100000
00000000
00000000
00100000
,  // measure 6
00001000
00000000
00000000
00001000
00010000
00000000
00000010
00000000
00000100
00000000
00000010
00000000
00010000
00000000
00000000
00000001
,  // measure 7
00000010
00000000
00000000
00000010
00000100
00000000
00000000
00000100
00001000
00000000
00000000
00001000
00000001
00000000
00000000
00000001
,  // measure 8
00000100
00000000
00000000
00000100
00000010
00000000
00010000
00000000
00001000
00000000
00010000
00000000
00000010
00000000
00010000
00001000
,  // measure 9
00010000
00001000
00100000
01000000
00100000
00000000
00001000
00000000
02000000
00000000
00000000
00000000
03100000
00000000
10000000
00000000
,  // measure 10
02000000
00000000
00000000
00000000
03100000
00000000
00010000
00000000
02000000
00000000
00000000
00000000
03010000
10000000
00010000
00000000
,  // measure 11
10000000
01000000
10000000
00000000
01000000
00000000
00100000
00000000
00002000
00000000
00000000
00000000
00013000
00000000
00000010
00000000
,  // measure 12
00002000
00000000
00000000
00000000
00003010
00000000
00010000
00000000
00002000
00000000
00000000
00000000
00013000
00000010
00010000
00000000
,  // measure 13
00000010
00000100
00000010
00000000
00000100
00000001
00000100
00000000
00000001
00001000
00000001
00001000
00000002
00000000
00000000
00000000
,  // measure 14
00001000
00000000
00001003
00000001
00000010
00001000
00000010
00000001
,  // measure 15
00000100
00000000
00000020
00000000
00000000
00010030
00002000
00000000
00000000
00000000
00000000
00000000
02003000
00000000
00000000
00000000
,  // measure 16
00100000
00000000
03100000
10000000
01000000
00010000
01000000
10000000
,  // measure 17
00010000
00000000
02000000
00000000
00000000
03001000
00010000
00000000
00011000
00000000
00000000
00000000
00000010
00000000
00000100
00000001
,  // measure 18
00000100
00000001
00000000
00000000
00000010
00000000
00000100
00010000
00000100
00010000
00000000
00000000
00001000
00000000
01000000
00100000
,  // measure 19
01000000
00100000
00000000
00000000
10000000
00000000
00100000
00000000
00010000
00000000
00100000
00000000
10000000
00000000
01000000
00100000
,  // measure 20
01000000
00100000
00000000
00000000
00001000
00000000
00010000
00000010
00010000
00000010
00000000
00000000
00000100
00000000
00000001
00000010
,  // measure 21
00000001
00000010
00000000
00000000
00000001
00000000
00000010
00000000
00001000
00000000
00000010
00000000
00000001
00000000
00000100
00000010
,  // measure 22
00000100
00000010
00000100
00000010
00000100
00000000
00000001
00000000
00001000
00000000
00000001
00000010
00000100
00001000
00000010
00000100
,  // measure 23
00000010
00000000
00010000
00001000
00010000
00000000
00001000
00010000
00002000
00000000
00000000
01000000
00000000
01000000
00000000
01003000
,  // measure 24
00100000
00000000
10000000
00000000
00010000
00100000
01000000
00100000
00020000
00000000
00000000
10000000
00000000
10000000
00000000
10030000
,  // measure 25
00100000
00000000
01000000
00100000
01000000
00000000
00001000
00100000
00002000
00000000
00000000
00000000
00013000
00001000
00010000
00000200
,  // measure 26
00000000
00000000
00000310
00000000
00001001
00000000
00000001
00000100
00000001
00000000
00001000
00000100
00000010
00000001
00000100
00000010
,  // measure 27
00000100
00000000
00000001
00000100
00000001
00000000
00010000
00001000
00020000
00000000
00000000
00000100
00000000
00000100
00000000
00030100
,  // measure 28
00000010
00000000
00000001
00000000
00000100
00000010
00000100
00000010
00010000
00000000
00001000
00000000
00100000
01000000
10000000
01000000
,  // measure 29
00100000
00000000
00010000
01000000
00100000
01000000
00010000
00000000
10000000
01000000
00100000
00001000
00020000
00000000
00000000
00000000
,  // measure 30
00000000
00000000
00000000
00000000
00030010
00000000
00000100
00000000
00000001
00000100
00000001
00000100
00000010
00000100
00000010
00000100
,  // measure 31
00000010
00000000
00000100
00000001
00000010
00000000
00000100
00000010
00000100
00000000
00010000
00000000
00001000
00000000
00100000
00000000
,  // measure 32
00010000
00000000
01000000
00000000
00100000
10000000
01000000
00100000
01000000
00000000
10000000
00000000
00100000
00000000
10000000
00000000
,  // measure 33
01000000
00000000
00100000
00001000
00010000
00000000
00000010
00010000
00000010
00000000
00000100
00000000
00000001
00000000
00000010
00000000
,  // measure 34
00000100
00010000
00000100
00010000
00001000
00010000
00001000
00000000
01000000
00010000
01000000
00010000
10000000
01000000
10000000
01000000
,  // measure 35
10000000
00000000
00100000
01000000
00010000
00000000
01000000
00100000
01000000
00000000
00001000
00000000
00010000
00000000
00000010
00000000
,  // measure 36
00000100
00000000
00000001
00000000
00000010
00000100
00001000
00000100
00000010
00000000
00000001
00000000
00000100
00000000
00000010
00000000
,  // measure 37
00001000
00000000
00010000
00100000
01000000
00000000
10000000
00000000
00100000
01000000
00100000
01000000
00100000
01000000
00100000
01000000
,  // measure 38
00100000
01000000
00100000
01000000
00200000
00000000
00000000
00000000
00300000
00000000
00000000
00000000
10010000
00000000
00000000
00000000
,  // measure 39
10000000
00010000
10000000
00000000
00010000
00000000
00100000
00000000
10000000
00000000
00100000
00000000
00010000
00000000
10000000
00000000
,  // measure 40
01000000
00000000
00100000
00000000
01000000
00000000
10000000
00000000
00010000
00000000
01000000
00000000
00001000
01000000
00001000
00000000
,  // measure 41
00010000
00001000
00010000
00001000
00010000
00000000
00011000
00000000
00000010
00000100
00000010
00000100
00000010
00000000
00000100
00000001
,  // measure 42
00000100
00000010
00000000
00010000
00000100
00000000
00000010
00000001
00000010
00000100
00000000
00010000
00000010
00000000
00010000
00001000
,  // measure 43
00100000
01000000
00000000
10000000
00100000
00000000
00000000
00000000
01100000
00000000
00000000
00000000
10010000
00000000
00010000
01000000
,  // measure 44
00010000
10000000
00000000
00001000
01000000
00000000
00001000
00010000
00000100
00000010
00000000
00000001
00000100
00000000
00000010
00000100
,  // measure 45
00000010
00010000
00000000
00001000
00010000
00000000
00000000
00000000
00011000
00000000
00000000
00000000
01100000
00000000
01000000
00010000
,  // measure 46
10000000
00100000
00000000
10000000
00001000
00000000
00000000
00000000
10001000
00000000
00000000
00000000
00011000
00000000
00010000
00000010
,  // measure 47
00000100
00000001
00000000
00000010
00000100
00000000
00000000
00000000
00000110
00000000
00000000
00000000
11000000
00000000
01000000
10000000
,  // measure 48
00010000
00100000
00000000
00001000
00010000
00000000
00000000
00000000
00011000
00000000
00000000
00000000
00000110
00000000
00000100
00000010
,  // measure 49
00000001
00001000
00000000
00000010
00020000
00000000
00000000
00000000
00030000
00000000
00000000
00000000
00000000
00000000
00000000
00000000
;
