#TITLE:Invitation from Mr.C;
#SUBTITLE:;
#ARTIST:C-Show;
#TITLETRANSLIT:;
#SUBTITLETRANSLIT:;
#ARTISTTRANSLIT:;
#CREDIT:DigiMindAxel;
#BANNER:Invitation from Mr.C.png;
#BACKGROUND:Invitation from Mr.C-bg.png;
#LYRICSPATH:;
#CDTITLE:SOUND VOLTEX.png;
#MUSIC:Invitation from Mr.C.ogg;
#METERTYPE:DDR X;
#OFFSET:-5.326;
#SAMPLESTART:46.007;
#SAMPLELENGTH:12.000;
#SELECTABLE:YES;
#BPMS:0.000=230.000,56.000=115.000,60.000=230.000,68.000=115.000,72.000=230.000,116.000=115.000,132.000=230.000,196.000=115.000,199.000=230.000,219.000=115.000,243.000=230.000;
#STOPS:198.000=0.521739
;
#BGCHANGES:;

//---------------dance-single - ----------------
#NOTES:
     dance-single:
     :
     Easy:
     6:
     0.296,0.350,0.155,0.191,0.000:
2002
0000
0000
0000
,
0000
0000
0000
3003
,
2002
0000
0000
0000
,
0000
0000
0000
3003
,
1000
0000
0001
0000
,
1000
0000
0100
0000
,
0010
0000
0001
0000
,
0010
0000
0001
0000
,
0100
0000
0010
0000
,
0100
0000
0010
0000
,
1000
0001
1000
0001
,
1000
0000
0000
0000
,
2002
0000
0000
0000
,
0000
0000
0000
3003
,
0001
0010
0001
0100
,
2002
0000
0000
0000
,
0000
0000
0000
3003
,
1000
0100
1000
0010
,
2002
0000
0000
0000
,
0000
0000
0000
3003
,
0220
0000
0000
0000
,
0000
0000
0000
0330
,
2002
0000
0000
0000
,
0000
0000
0000
3003
,
0220
0000
0000
0000
,
0000
0000
0000
0000
,
0000
0000
0000
0000
,
0000
0000
0000
0000
,
0330
0000
0000
0000
,
0001
0100
0001
1000
,
0100
1000
0020
0000
,
0130
0001
1000
0100
,
1000
0001
0010
0000
,
0100
1000
0100
0000
,
1000
0001
1000
0000
,
0100
1000
0100
0000
,
1000
0001
1000
0000
,
0001
0100
0001
0000
,
0100
0010
0100
0000
,
0001
0100
0001
0000
,
0200
0000
0000
0000
,
0310
0100
0010
0000
,
1000
0010
1000
0000
,
0001
1000
0001
0000
,
0010
0001
0010
0000
,
0001
1000
0001
0000
,
1000
0100
1000
0000
,
0010
0100
0010
0000
,
0200
0000
0000
0000
,
0310
1000
0100
2002
,
0000
0000
0000
0000
,
0000
0000
0000
0000
,
0000
0000
0000
0000
,
0000
0000
0000
3003
,
0000
0000
0000
0001
,
0010
0001
0001
1000
,
0010
1000
1000
0100
,
0010
0001
0001
0100
,
0010
0100
0100
1001
,
0000
1001
0000
0110
,
0000
0110
0000
1001
,
0000
1000
0000
1000
,
0000
1000
0000
0001
,
0000
0001
0000
0001
,
0000
0000
0000
1000
,
0000
0100
0000
0010
,
0001
0010
0001
1000
,
0000
0010
0000
0100
,
0001
0100
0001
1000
,
0000
0100
0000
0010
,
0001
0010
0001
0100
,
0000
0010
0000
1000
,
0010
1000
0010
1000
,
0001
0010
0100
1000
,
0001
0010
0100
1000
,
0001
0100
0001
1000
,
0100
0010
0001
1000
,
0100
1000
0100
1000
,
0001
0100
0010
1000
,
0001
0100
0010
1000
,
0100
0010
0001
1000
,
0000
1000
0000
0001
,
0000
0001
0000
0100
,
0000
0100
0000
0010
,
1000
0010
0000
1001
,
0000
1001
0000
0000
1001
0000
0000
0000
;

//---------------dance-single - ----------------
#NOTES:
     dance-single:
     :
     Medium:
     10:
     0.610,0.933,0.427,0.264,0.073:
1001
0000
0000
1000
0000
0100
0000
1000
,
0000
0001
0000
0010
0000
0000
0000
0000
,
1001
0000
0000
0001
0000
0100
0000
0001
,
0000
1000
0000
0100
0000
0000
0000
0000
,
1000
0100
1000
0100
,
1000
0001
1000
0001
,
0100
0001
0100
0001
,
0010
0100
0010
0100
,
1000
0010
0100
0001
,
1000
0010
0100
0001
,
1000
0000
0001
1000
0000
0001
0000
0200
,
0000
0000
0000
0310
,
1001
0000
0000
0011
0000
0000
0110
0000
,
0000
1100
0000
0000
1001
0000
1000
0000
,
0002
0000
0013
0000
0100
1000
0001
0001
,
1001
0000
0000
1010
0000
0000
0110
0000
,
0000
0101
0000
0000
1001
0000
0001
0000
,
2000
0010
3020
0100
0130
0001
1000
1000
,
1001
0000
0000
0011
0000
0000
0110
0000
,
0000
1100
0000
0000
1001
0000
0001
0000
,
1001
0000
0000
1100
0000
0000
0110
0000
,
0000
0011
0000
0000
1001
0000
1000
0000
,
1001
0000
0000
0101
0000
0000
0110
0000
,
0000
1010
0000
0000
1001
0000
0001
0000
,
2002
0000
0000
0003
,
0200
0000
0000
3000
,
0020
0000
0000
0300
,
0002
0000
0000
0030
,
2000
0000
0000
3003
,
0001
1001
0000
1100
0000
0011
0100
1000
,
0001
0101
0000
0110
0000
1010
1000
0001
,
0010
0110
0000
1100
0000
0011
0100
1000
,
0001
0101
0000
0110
0000
1010
1001
0000
,
0001
1000
0000
0010
0000
1000
0001
0000
,
0010
0100
0010
0000
0001
0100
0001
0000
,
1000
0100
0000
0010
0000
0100
1000
0000
,
0001
0100
0001
0100
0001
0000
0000
0000
,
1000
0001
0000
0010
0000
0001
1000
0000
,
0010
0100
0010
0000
1000
0001
1000
0000
,
0001
1000
0000
0100
0000
1000
0001
0000
,
0100
0100
0010
0010
,
1000
0001
0000
0010
0000
0100
1000
0000
,
0010
0100
0010
0000
0100
0001
0010
0000
,
0100
1000
0000
0010
0000
0100
0001
0000
,
1000
0100
0010
0100
1000
0000
0000
0000
,
0001
1000
0000
0010
0000
0100
0001
0000
,
1000
0100
0010
0000
0001
0100
0001
0000
,
0010
0100
2000
0000
0000
0000
3001
0000
,
0220
0000
0330
0000
,
0010
0100
1000
0001
0200
0300
1001
0000
,
1000
0001
1000
0001
,
0100
0001
0100
0001
,
1000
0001
1000
0100
,
0010
0100
0010
0001
,
0001
0000
0000
0000
1000
0000
0000
0000
1000
0000
0000
0000
0001
0100
0001
0100
,
0020
0000
1000
0000
2030
0000
0001
0000
3001
0000
0000
0000
1000
0100
1000
0100
,
0020
0000
0001
0000
0032
0000
1000
0000
1003
0000
0001
0000
0100
0010
0100
0010
,
2000
0000
0001
0000
3002
0000
0010
0000
0013
0000
0000
0000
0100
1000
0100
1000
,
0020
0000
0100
0000
0230
0000
0001
0000
0301
0000
0000
0000
1000
0100
0010
0100
,
1000
0000
0000
0000
0001
0010
0100
0010
0001
0000
0000
0000
1000
0010
0100
0010
,
1000
0000
0000
0000
0001
0100
0010
0100
0001
0000
0000
0000
2000
0000
0000
0000
,
0001
0001
0001
0001
,
0001
0001
0001
0001
,
0001
0001
0001
3001
,
0000
0000
0000
0000
0000
0000
1000
0010
,
0000
1000
0000
0001
0010
0100
0000
1000
,
0001
0100
0001
0100
0001
0000
1000
0010
,
0000
0100
0000
0001
1000
0000
0100
1000
,
0100
0000
0010
0001
1000
0000
0001
1000
,
0000
0010
0000
0100
0001
1000
0000
0100
,
0010
0001
0010
0001
0010
0000
0100
1000
,
0000
0010
0000
0100
0001
0000
2000
0000
,
0100
0000
3200
0000
0010
0000
0310
0001
,
0000
0100
0000
0010
1000
0010
0000
1000
,
0001
0010
0001
0010
0100
0000
1000
0001
,
0000
0010
0000
0100
0000
1000
0001
0100
,
0001
0000
0100
0010
1000
0000
0001
1000
,
0000
0100
0000
0010
0100
0010
0000
0001
,
1000
0010
1000
0010
1000
0000
0010
0100
,
0000
0001
0000
1000
0100
0000
0010
0100
,
0010
0000
0001
0100
0010
0000
2000
0000
,
0100
0100
3100
0020
,
0001
0031
0000
0210
,
0010
0010
0310
2000
,
0001
3001
0000
1100
,
0000
0011
0000
0000
1001
0000
0000
0000
;

//---------------dance-single - ----------------
#NOTES:
     dance-single:
     :
     Hard:
     14:
     0.895,1.000,0.327,0.918,0.218: // measure 1
1000
0001
0100
0002
0003
0002
0003
0002
,  // measure 2
0003
2002
3003
1000
0010
0100
0001
1000
,  // measure 3
0100
1000
0100
0020
0030
0020
0030
0020
,  // measure 4
0030
0022
0033
0001
1000
0000
1001
0000
,  // measure 5
0001
0100
0000
0010
0000
0100
0000
0001
,  // measure 6
0000
2000
0000
3001
0010
0100
1000
0001
,  // measure 7
0100
0001
0000
0010
0000
0100
0000
2000
,  // measure 8
3000
2000
3000
0001
2000
0000
3001
0000
,  // measure 9
1000
0100
1000
0100
0010
0100
0010
0001
,  // measure 10
1000
0001
1000
0010
0100
0010
0100
0000
,  // measure 11
0101
0000
0100
0110
0000
0110
0000
2020
,  // measure 12
0000
0000
3030
1001
,  // measure 13
0002
0000
0010
0023
0000
0100
0230
0000
,  // measure 14
1000
2300
0000
0010
3010
0000
0110
0000
,  // measure 15
0100
0000
0001
0010
0100
0000
0010
0000
0001
1000
0010
1000
0001
0000
1001
0000
,  // measure 16
2000
0000
0010
3020
0000
0100
0230
0000
,  // measure 17
0001
0302
0000
1000
1003
0000
1001
0000
,  // measure 18
0001
0000
0101
0000
0100
0010
0100
0010
1000
0100
0010
0000
0011
0000
1001
0000
,  // measure 19
2000
0000
0001
3002
0000
0010
0023
0000
,  // measure 20
0100
0230
0000
1000
1300
0000
1001
0000
,  // measure 21
0002
0000
1000
2003
0000
0010
3020
0000
,  // measure 22
0100
0230
0000
0001
0301
0000
1001
0000
,  // measure 23
2000
0000
0010
3020
0000
0100
0230
0000
,  // measure 24
0001
0302
0000
1000
1003
0000
1001
0000
,  // measure 25
0002
0023
0032
0203
,  // measure 26
0320
2030
3200
0320
,  // measure 27
0032
0203
0320
0230
,  // measure 28
0302
2003
3200
0320
,  // measure 29
0032
0000
0000
0003
,  // measure 30
1000
0010
0100
0000
0100
0010
1000
0000
0001
0010
0100
0000
1100
0000
1001
0000
,  // measure 31
1000
0100
0010
0000
0010
0100
1000
0000
0001
0100
0010
0100
0010
0100
0001
0000
,  // measure 32
1000
0001
0010
0000
0010
0001
1000
0000
0010
0100
0001
0000
0101
0000
1001
0000
,  // measure 33
1000
0010
0100
0000
0100
0010
1000
0000
0001
0010
0100
0010
0001
0000
0001
0000
,  // measure 34
1000
0010
1000
0001
1000
0010
1000
0001
,  // measure 35
0100
1000
0100
0001
0100
0010
0100
0000
,  // measure 36
0010
1000
0100
0010
0100
1000
0100
0010
,  // measure 37
0001
1000
0010
0001
0000
0010
1000
0001
,  // measure 38
0010
0100
0010
0001
0100
0010
0100
0001
,  // measure 39
0010
1000
0010
0001
0100
0010
0100
0000
,  // measure 40
0001
1000
0100
1000
0001
1000
0100
1000
,  // measure 41
0002
1000
2003
0001
,  // measure 42
3001
0100
0001
1000
0001
0100
0001
1000
,  // measure 43
0001
0010
1000
0010
0001
0100
0001
0000
,  // measure 44
0010
0100
0010
0001
1000
0100
0010
0100
,  // measure 45
1000
0010
0001
0010
2000
0000
0001
0000
,  // measure 46
3001
0010
0001
1000
0001
0010
0001
1000
,  // measure 47
0001
0100
1000
0100
0001
1000
0100
0000
,  // measure 48
0010
0001
0200
0000
0320
0000
2030
0000
,  // measure 49
0002
0000
3003
0000
,  // measure 50
0011
0100
1000
0100
0020
0030
1002
0000
,  // measure 51
2003
3020
0230
0302
,  // measure 52
2003
3200
2300
3002
,  // measure 53
0203
0320
2030
3002
,  // measure 54
0023
0230
0320
0031
,  // measure 55
1001
0000
0000
0000
1000
0000
0000
0000
1001
0000
0000
0000
0001
1000
0100
1000
,  // measure 56
0001
0000
0100
0010
1000
0000
0010
0100
0002
0000
0000
0000
0013
0100
1000
0100
,  // measure 57
0010
0000
0100
1000
0001
0100
0010
1000
0001
0100
0010
0000
1000
0001
0010
0001
,  // measure 58
1000
0000
0100
0010
0001
0000
0100
0010
2000
0000
0000
0000
3001
0010
0100
0010
,  // measure 59
0001
0000
0100
0010
1000
0001
0010
0100
2000
0000
3001
0000
1000
0010
0001
0010
,  // measure 60
1000
0000
0000
0000
0001
0010
1000
0010
0001
0000
0000
0000
1000
0100
0001
0100
,  // measure 61
1000
0000
0000
0000
0001
0100
1000
0100
0001
0000
0000
0000
0020
0000
0000
0000
,  // measure 62
0230
2300
3002
0203
,  // measure 63
0320
2030
3002
2003
,  // measure 64
3200
0320
0032
2003
,  // measure 65
0000
0000
0000
0000
3000
0000
0001
1000
,  // measure 66
0010
1000
0001
0010
0100
0010
0000
0010
,  // measure 67
0001
0100
1000
0100
0001
0010
0100
0010
,  // measure 68
0001
1000
0000
1000
0010
0100
0001
0100
,  // measure 69
1000
0001
0010
1000
0001
0100
0001
1000
,  // measure 70
0100
0010
0100
1000
0010
0100
0000
0100
,  // measure 71
0001
0010
1000
0010
0001
1000
0100
0010
,  // measure 72
0000
0010
0001
0100
1000
0100
0002
0000
,  // measure 73
0010
0000
0023
0000
0100
0000
0130
1000
,  // measure 74
0010
0100
0001
1000
0100
0010
0000
0010
,  // measure 75
0001
0100
1000
0100
0001
0010
0100
0010
,  // measure 76
0001
1000
0000
1000
0100
0010
0001
0100
,  // measure 77
1000
0001
0010
1000
0001
0100
0010
0100
,  // measure 78
0001
1000
0010
0100
0010
1000
0000
1000
,  // measure 79
0001
0100
1000
0100
0001
0010
0100
0010
,  // measure 80
0001
0100
0010
0100
0001
1000
0001
0100
,  // measure 81
1000
0001
0010
1000
0001
0010
0100
0000
,  // measure 82
1100
1000
1001
0001
,  // measure 83
0011
1100
1001
1010
,  // measure 84
0110
0000
0010
0100
0001
0100
0010
0000
,  // measure 85
1000
0001
0010
0000
0011
0000
2002
0000
,  // measure 86
3003
2020
0000
3030
0202
0000
0303
0000
;

//---------------dance-single - ----------------
#NOTES:
     dance-single:
     :
     Challenge:
     16:
     1.000,1.000,0.345,1.000,0.591: // measure 1
1000
0000
0001
0100
0001
0000
0101
0000
0000
0000
0101
0000
0000
0000
0101
0000
,  // measure 2
0000
2001
0000
3001
1000
0100
0010
0001
,  // measure 3
1000
0000
0100
1000
0100
0000
1100
0000
0000
0000
1100
0000
0000
0000
1100
0000
,  // measure 4
0000
1002
0000
1003
0020
0000
0130
0000
,  // measure 5
1001
1000
0010
1000
0001
0010
0100
1000
,  // measure 6
0000
2000
0000
3001
1000
0010
0001
0010
,  // measure 7
1000
0000
0100
1000
0100
0000
0010
0000
0100
0000
1000
0000
0010
0000
0110
0000
,  // measure 8
0000
0110
0000
0200
0002
0000
0303
0000
,  // measure 9
0001
0000
1000
0100
1000
0000
0001
0000
0100
0000
1000
0000
0100
0000
0010
0000
,  // measure 10
1000
0000
0001
0000
0100
0000
1000
0000
0100
0000
0001
0000
0010
0100
0010
0100
,  // measure 11
0010
0000
0110
0101
0000
1010
0000
1001
,  // measure 12
0000
0000
0001
0100
0001
0000
0010
0000
0100
0000
0000
0000
1001
0000
0000
0000
,  // measure 13
1000
0100
0010
0001
1000
0100
0010
0001
,  // measure 14
1000
0100
0010
0001
1000
0100
0010
0000
,  // measure 15
0101
0000
0100
0010
1000
0000
1001
0000
0010
0100
1000
0100
0010
0000
0001
0001
,  // measure 16
1000
0010
0100
0001
1000
0010
0100
0001
,  // measure 17
1000
0010
0100
0001
1000
0010
0100
0000
,  // measure 18
1001
0000
1001
0000
0001
0010
1000
0010
0001
1000
0100
0010
0110
0000
0001
0001
,  // measure 19
1000
0010
0001
0010
1000
0010
0001
0010
,  // measure 20
1000
0010
0001
0010
1000
0000
1001
0000
,  // measure 21
1000
0100
0001
0100
1000
0100
0001
0100
,  // measure 22
1000
0100
0001
0100
1000
0000
1001
0000
,  // measure 23
0001
0100
1000
0100
0001
0100
1000
0100
,  // measure 24
0001
0100
1000
0100
0001
0000
1001
0000
,  // measure 25
0002
0023
0230
2300
3002
0203
0320
2030
,  // measure 26
3002
0023
0032
2003
3200
2300
3020
0230
,  // measure 27
0320
2030
3200
0320
0032
2003
3020
0230
,  // measure 28
0302
2003
3200
2300
3002
0023
0230
2300
,  // measure 29
3020
0000
0000
0130
,  // measure 30
0001
0000
1000
0100
1000
0100
1000
0000
0001
0000
1000
0000
0100
0000
0001
0000
1000
0000
0010
0000
0001
0000
1000
0000
1001
0000
0000
0000
1001
0000
0000
0000
,  // measure 31
0001
0000
0100
0010
0100
0010
0100
0000
0001
0000
1000
0000
0100
0000
0001
0000
1000
0000
0010
0000
0001
0000
1000
0000
0100
0000
0010
0000
0001
0000
0000
0000
,  // measure 32
1000
0000
0001
0100
0001
0100
0001
0000
1000
0000
0001
0000
0100
0000
1000
0000
0001
0000
0010
0000
1000
0000
0001
0000
1001
0000
0000
0000
1001
0000
0000
0000
,  // measure 33
1000
0000
0001
0010
0001
0010
0001
0000
1000
0000
0001
0000
0100
0000
1000
0000
0001
0000
0010
0000
1000
0000
0001
0000
0010
0000
0000
0000
0011
0000
0000
0000
,  // measure 34
0001
0000
1000
0000
0100
0000
0010
0000
0100
0000
1000
0010
1000
0000
0001
0000
,  // measure 35
0010
1000
0010
0001
1000
0100
1000
0100
,  // measure 36
1000
0000
0001
0000
0100
0000
0010
0100
0010
0000
1000
0000
0001
0000
0100
0000
,  // measure 37
1000
0000
0100
0000
0001
0000
1000
0000
0000
0000
1000
0001
1000
0000
0010
0000
,  // measure 38
0100
0000
0010
0000
1000
0000
0001
0000
0010
0000
0100
0000
0010
0000
0001
1000
,  // measure 39
0001
0100
1000
0100
0001
0010
0001
0010
,  // measure 40
0001
0000
0100
0000
0010
0000
1000
0100
1000
0000
0001
0000
1000
0000
0100
0000
,  // measure 41
0010
0001
1000
0010
0000
0010
0100
0001
,  // measure 42
1000
0000
0010
0000
0100
0000
0010
0000
1000
0000
0001
0000
0010
0000
0100
0010
,  // measure 43
0100
1000
0100
0001
1000
0010
0001
1000
,  // measure 44
0001
0000
0010
0000
0100
0000
0010
0001
0010
0000
0100
0000
1000
0000
0001
0000
,  // measure 45
0100
1000
0001
0010
1000
0000
1001
0000
,  // measure 46
1000
0000
0001
0000
0010
0000
0001
0000
1000
0000
0010
0000
0100
0010
0100
0000
,  // measure 47
0001
0100
1000
0001
0010
1000
0001
1000
,  // measure 48
0100
0000
1000
0000
0001
1000
0001
1000
0001
0000
0010
0000
0100
0000
1000
0000
,  // measure 49
2020
0000
3030
0000
,  // measure 50
1001
0001
0011
0110
2200
3300
2000
3020
,  // measure 51
0230
0302
2003
3020
0230
0302
2003
3200
,  // measure 52
0320
0230
2300
3020
0032
0023
2030
3200
,  // measure 53
0320
0032
2003
3200
0320
0032
2003
3020
,  // measure 54
0230
0320
2030
3200
0302
0203
2300
0001
,  // measure 55
3001
0000
0000
0000
0000
0000
0000
0000
0101
0000
0000
0000
0000
0000
0000
0000
1001
0000
0000
0000
0000
0000
0000
0000
1000
0000
0001
0100
0001
0000
1000
0000
,  // measure 56
0200
1000
1300
0001
0020
0100
0130
1000
0002
0200
0000
0303
0001
1000
0200
1000
,  // measure 57
1300
0000
0020
0000
0100
0000
0130
0000
0001
0000
1000
0000
0010
0000
0001
0000
0010
0000
1000
0000
0100
0000
0010
0000
0001
0000
1000
0010
1000
0000
0001
0000
,  // measure 58
0020
0100
0130
1000
0002
0100
0103
0010
2000
0002
0000
3003
2000
0010
3010
0100
,  // measure 59
0002
0000
1000
0000
1003
0000
0001
0000
1000
0100
1000
0000
0100
0000
0010
0000
0002
0000
1000
0000
1003
0000
0001
0000
0010
0001
0010
0000
0100
0000
1000
0000
,  // measure 60
0002
0000
0100
0000
0103
0000
0000
0000
0001
1000
0001
0000
0100
0000
0010
0000
2000
0000
0001
0000
3001
0000
0000
0000
1000
0100
1000
0000
0001
0000
0100
0000
,  // measure 61
0020
0000
0100
0000
0130
0000
0000
0000
0001
1000
0001
0000
1000
0000
0010
0000
0200
0000
0001
0000
0302
0000
1000
0000
2003
0000
0000
0000
3200
0000
0000
0000
,  // measure 62
0320
0032
2003
3020
0032
0023
2030
3002
,  // measure 63
0203
0302
2003
3020
0032
0023
0230
0302
,  // measure 64
2003
3200
2300
3002
0203
0320
2030
0000
,  // measure 65
0001
0000
0000
0000
0001
0000
0000
0000
3001
0000
0000
0000
1000
0000
0010
0100
,  // measure 66
0010
0000
0100
0000
0001
0000
1000
0000
0100
0000
0010
0000
0000
0000
0001
1000
,  // measure 67
0001
0100
1000
0100
0001
1000
0001
0100
,  // measure 68
0010
0000
0100
0010
0100
0000
0001
0000
1000
0000
0010
0000
0001
0000
0010
0000
,  // measure 69
1000
0000
0100
0000
0001
0000
0100
0000
1000
0000
0001
0000
1000
0000
0100
0010
,  // measure 70
0100
0000
0010
0000
0001
0000
1000
0000
0010
0000
1000
0000
0000
0000
0001
1000
,  // measure 71
0001
0010
1000
0010
0001
0100
0010
1000
,  // measure 72
0001
0000
1000
0001
1000
0000
0010
0000
0100
0000
0001
0000
1000
0000
0010
0000
,  // measure 73
0001
0000
0010
0000
1000
0000
0100
0000
0001
0000
0100
0000
1000
0000
0001
0100
,  // measure 74
0001
0000
1000
0000
0001
0000
0010
0000
0100
0000
0010
0000
0000
0000
0001
1000
,  // measure 75
0001
0100
1000
0100
0001
0010
0100
0010
,  // measure 76
0001
0000
1000
0010
1000
0000
0001
0000
0100
0000
0010
0000
1000
0000
1000
0000
,  // measure 77
0100
0000
0100
0000
0010
0000
0010
0000
0001
0000
0001
0000
1000
0000
0001
0100
,  // measure 78
0001
0000
0100
0000
0010
0000
1000
0000
0001
0000
0100
0000
0000
0000
0010
0100
,  // measure 79
0010
1000
0100
0001
0100
1000
0001
0010
,  // measure 80
0100
0000
1000
0001
1000
0000
0001
0000
0100
0000
0010
0000
1000
0000
1000
0000
,  // measure 81
0001
0001
0100
0100
0010
0010
1000
0001
,  // measure 82
0010
0001
0010
0001
0010
0000
0100
0000
1000
0000
0010
0000
0100
0010
0100
0010
,  // measure 83
0100
0010
2000
0001
3001
0000
1000
0001
,  // measure 84
0100
0010
0100
0010
0100
0000
0001
0000
0010
0000
0100
0000
1000
0001
1000
0000
,  // measure 85
0001
0010
0001
0000
1000
0010
1000
0000
1001
0000
0000
0000
2000
0000
0002
0000
,  // measure 86
3003
0002
0200
0303
0200
0020
0330
0000
;

//---------------dance-single - ----------------
#NOTES:
     dance-single:
     :
     Beginner:
     3:
     0.140,0.194,0.127,0.000,0.000:
1000
0000
0000
0000
,
0000
0000
0000
0000
,
1000
0000
0000
0000
,
0000
0000
0000
0000
,
1001
0000
0001
0000
,
0001
0000
0000
0000
,
1000
0000
1000
0000
,
1000
0000
0000
0000
,
0001
0000
1000
0000
,
0001
0000
1000
0000
,
0001
0000
0000
0000
,
0000
0000
0000
0000
,
1001
0000
0000
0000
,
0000
0000
0000
0000
,
0110
0000
0010
0000
,
1001
0000
0000
0000
,
0000
0000
0000
0000
,
0110
0000
0100
0000
,
1001
0000
0000
0000
,
0000
0000
0000
0000
,
1001
0000
0000
0000
,
0000
0000
0000
0000
,
1001
0000
0000
0000
,
0000
0000
0000
0000
,
1001
0000
0000
0000
,
0001
0000
0000
0000
,
1000
0000
0000
0000
,
0001
0000
0000
0000
,
1000
0000
0000
0000
,
1001
0000
0000
0000
,
0001
0000
0000
0000
,
0100
0000
0000
0000
,
0010
0000
0000
0000
,
1000
0000
0001
0000
,
1000
0000
0000
0000
,
0001
0000
1000
0000
,
0001
0000
0000
0000
,
0010
0000
0001
0000
,
0010
0000
0000
0000
,
0100
0000
1000
0000
,
0100
0000
0000
0000
,
1000
0000
0001
0000
,
1000
0000
0000
0000
,
0001
0000
1000
0000
,
0001
0000
0000
0000
,
0100
0000
0001
0000
,
0100
0000
0000
0000
,
0010
0000
0000
0000
,
1000
0000
0000
0000
,
1001
0000
0000
0001
,
0000
0000
0000
0000
,
0000
0000
0000
0010
,
0000
0000
0000
0000
,
0000
0000
0000
0100
,
0000
0000
0000
1000
,
0000
0010
0000
1000
,
0000
0001
0000
1000
,
0000
0010
0000
1000
,
0000
0001
0000
0010
,
0000
0010
0000
0010
,
0000
0010
0000
1001
,
0000
0000
0000
0000
,
0000
0000
0000
1000
,
0000
0000
0000
0000
,
0000
0000
0000
0001
,
0000
0000
0000
0100
,
0000
0000
0000
0001
,
0000
0000
0000
1000
,
0000
0000
0000
0100
,
0000
0000
0000
1000
,
0000
0000
0000
0100
,
0000
0000
0000
0010
,
0000
0000
0000
0001
,
0000
0000
0000
0100
,
0000
0000
0000
0001
,
0000
0000
0000
1000
,
0000
0000
0000
0100
,
0000
0000
0000
1000
,
0000
0000
0000
0100
,
0000
0000
0000
0010
,
0000
0000
0000
0001
,
0000
0000
0000
0001
,
0000
0000
0000
1000
,
0000
0000
0000
1000
,
0000
0000
0000
1001
,
0000
0000
1001
0000
;
