#TITLE:Into the Cave;
#SUBTITLE:;
#ARTIST:Jerico;
#TITLETRANSLIT:;
#SUBTITLETRANSLIT:;
#ARTISTTRANSLIT:;
#CREDIT:DigiMindAxel;
#BANNER:Into the Cave.png;
#BACKGROUND:Into the Cave-bg.png;
#LYRICSPATH:;
#CDTITLE:CROSSxBEATS.png;
#MUSIC:Into the Cave.ogg;
#METERTYPE:DDR X;
#OFFSET:-9.439;
#SAMPLESTART:16.895;
#SAMPLELENGTH:12.000;
#SELECTABLE:YES;
#BPMS:0.000=128.000,128.000=64.000,146.000=128.000;
#STOPS:;
#BGCHANGES:;

//---------------dance-single - ----------------
#NOTES:
     dance-single:
     :
     Easy:
     4:
     0.189,0.196,0.081,0.278,0.000:
2000
0000
0000
0000
,
3200
0000
0000
0000
,
0320
0000
0230
0000
,
2300
0000
0000
3000
,
1001
0000
1001
0000
,
0002
0000
1003
0000
,
1001
0000
1001
0000
,
2000
0000
3001
0000
,
0210
0000
0000
0000
,
0320
0000
0000
0000
,
0230
0000
0000
0000
,
0320
0000
0000
0000
,
1030
0100
0010
0000
,
0001
0010
0100
0000
,
1000
0001
1000
0001
,
2000
0000
0000
0000
,
3001
0000
0100
0000
,
0010
0000
1000
0000
,
0001
0000
0100
0000
,
0010
0000
1000
0000
,
0002
0000
1003
0000
,
0020
0000
0130
0000
,
0002
0000
1003
0000
,
0020
0000
0130
0000
,
0001
1000
0001
0000
,
1000
0001
1000
0000
,
0001
1000
0001
0000
,
1000
0001
1000
0000
,
0010
0100
0010
0000
,
1000
0100
1000
0000
,
0001
0010
0001
0000
,
0100
0010
0100
0000
,
0002
0000
0023
0000
,
0230
0000
2300
0000
,
3020
0000
0230
0000
,
0302
0000
2003
0000
,
3001
0000
1001
0000
,
1001
0000
0020
0000
,
0130
0000
1001
0000
,
1001
0000
0200
0000
,
0310
0000
1000
0100
,
0010
0000
0001
0100
,
0010
0000
1000
0010
,
0100
0000
0001
0010
,
0100
0000
0020
0000
,
0032
0000
0203
0000
,
0320
0000
1030
0001
,
1000
0001
2000
0000
,
0000
0000
3001
0000
;

//---------------dance-single - ----------------
#NOTES:
     dance-single:
     :
     Medium:
     8:
     0.359,0.370,0.233,0.296,0.009:
1001
0000
0100
0100
,
0110
0000
0010
0010
,
1001
0000
0010
0010
,
0110
1000
0100
0010
,
1001
0000
0000
1000
0001
0000
1000
0100
,
1000
0010
0100
0010
,
1001
0000
0000
0001
1000
0000
0100
0010
,
0100
1000
0010
0100
,
1002
0100
1000
0100
,
2003
0100
0001
0100
,
3002
0010
1000
0010
,
2003
0010
0100
3010
,
2001
3200
0320
0031
,
1002
0023
0230
1300
,
0010
0100
0010
0100
0010
0100
0010
0000
,
0120
0000
0000
0130
,
0001
0100
0000
0100
0000
0100
0000
0000
,
0001
1000
0000
1000
0000
1000
0000
0000
,
0100
0010
0000
0010
0000
0010
0000
0000
,
0001
1000
0000
1000
0000
1000
0000
0000
,
0100
0010
0100
0010
0100
0010
0001
0000
,
0010
0100
0010
0100
0010
0100
1000
0000
,
0010
0100
0010
0100
0010
0100
0001
0000
,
0100
0010
0100
0010
1000
0000
0000
0000
,
0201
0000
0301
1000
0002
0000
1000
0000
,
2003
0000
3010
0000
0110
0000
0100
0001
,
0010
0000
0200
0000
0310
0000
0001
0001
,
0200
0000
0310
1000
0100
0000
0010
0000
,
1001
0000
1000
0100
0020
0000
0001
0000
,
0032
0000
1000
0000
1003
0000
0001
0100
,
0010
0000
2000
0000
3010
0000
0100
0100
,
0002
0000
0013
0100
1000
0000
1010
0000
,
0110
0000
0000
0010
0000
0000
0020
0000
2000
0000
0000
0000
0000
0000
3030
0000
,
2000
0000
0000
0000
0200
0000
0000
3300
,
0010
0000
0000
0010
0000
0000
0002
0000
0200
0000
0000
0000
0000
0000
0303
0000
,
0100
0010
0001
0010
0200
0000
0000
0000
,
0310
0000
0000
0000
0110
0000
0100
1000
,
0010
0000
0110
0000
0010
0000
0001
0100
,
0001
0000
0010
0000
0110
0000
0100
1000
,
0010
0000
1000
0001
1000
0000
0100
0000
,
0022
0000
0033
0000
1001
0000
0001
0010
,
0200
0000
1000
0000
0310
0000
1000
0100
,
0020
0000
0001
0000
0130
0000
0001
1000
,
0020
0000
0100
0000
0031
0000
1000
0010
,
0200
0001
1300
1001
,
0010
0110
0001
0011
,
0100
0000
0110
0000
1000
0001
1000
0001
,
1000
0001
1000
0000
1001
0000
0010
0000
,
0100
1000
0110
0000
;

//---------------dance-single - ----------------
#NOTES:
     dance-single:
     :
     Hard:
     10:
     0.472,0.414,0.162,0.314,0.216:
2001
0000
0000
0000
0000
0000
3001
0000
0001
0100
0000
0100
,
0020
0000
0000
0000
0000
0000
1030
0100
0010
0001
0000
0001
,
0200
0000
0000
0000
0000
0000
0301
0000
0001
1000
0000
1000
,
0001
0000
0001
0100
0000
0100
1000
0000
1000
0100
0000
0000
,
1002
0000
0103
0010
2010
0000
3100
0010
,
0001
0100
0001
2000
0000
0000
3100
0000
,
0210
0000
0301
1000
1020
0000
1030
0001
,
1000
0100
1000
0002
0000
0000
0103
0000
,
0110
0000
0000
0000
0010
0000
0100
0000
1000
0000
0000
1000
0000
0000
1000
0000
,
0010
0000
0000
0000
0100
0000
0001
0000
0010
0000
0000
0010
0000
0000
0010
0000
,
0100
0000
0000
0000
1000
0000
0010
0000
0100
0000
0000
0100
0000
0000
0100
0000
,
0001
0000
0000
0000
0010
0000
0100
0000
1000
0000
0000
1000
0000
0000
1000
0000
,
0010
0100
0010
0100
0001
0001
1000
1000
,
0100
0010
0100
0010
0001
0001
1000
1000
,
0001
0100
1000
0100
0001
0100
1000
0100
,
0002
0000
0000
1003
,
0001
0100
0001
1000
0001
0100
0001
0100
,
1000
0100
0010
0100
1000
0100
0001
1000
,
0010
0100
0010
1000
0010
0100
0001
0010
,
1000
0010
0100
0010
1000
0010
0001
0000
,
0110
0010
0001
0010
0100
0010
0001
1000
,
0010
0100
0001
0100
0010
0100
0001
1000
,
0010
0001
0010
1000
0010
0001
0010
1000
,
0100
0001
0100
1000
2002
0000
3003
0000
,
0101
0000
0000
0000
0100
0010
0100
0010
0200
0000
0000
0000
0001
0000
0000
0000
,
0301
0000
0000
0000
0000
0000
0000
0000
1000
0000
0000
0000
0100
0000
0000
0000
0000
0000
0000
0000
0100
0000
0000
0000
0010
0000
0000
0000
0000
0000
0000
0000
0000
0000
0000
0000
0001
0000
0000
1000
0000
0000
0001
0000
0000
1000
0000
0000
,
0001
0000
0000
0000
0100
0001
0000
0001
0000
0000
0000
1000
0000
1000
0000
0001
,
0200
0000
0000
0000
1300
0010
1000
0010
2000
0000
0000
0000
3001
0000
0000
0000
,
0110
0000
0000
0000
0100
1000
0100
1000
0200
0000
0000
0000
0010
0000
0000
0000
,
0310
0000
0000
0000
0000
0000
0000
0000
0001
0000
0000
0000
0100
0000
0000
0000
0000
0000
0000
0000
0100
0000
0000
0000
0010
0000
0000
0000
0000
0000
0000
0000
0000
0000
0000
0000
1000
0000
0000
0001
0000
0000
1000
0000
0000
0001
0000
0000
,
1000
0000
0000
0000
0100
1000
0000
1000
0000
0000
0000
0001
0000
0001
0000
0100
,
0010
0000
1000
0000
0001
1000
0001
1000
0001
0000
0000
0000
1001
0000
0000
0000
,
0210
0000
0000
0302
0000
0000
2003
0000
3200
0000
0000
0000
0000
0320
0000
0000
,
0032
0000
0000
0000
0200
0000
0000
0303
,
0200
0000
0000
0320
0000
0000
0032
0000
2003
0000
0000
0000
0000
3020
0000
0000
,
1030
0001
0010
0100
2000
0000
0000
3000
,
1001
0000
0000
0100
1002
0000
0013
0100
,
2100
0000
3001
0100
0010
0100
0001
2000
,
0000
0000
3100
0000
1002
0000
1003
0001
,
0201
0000
0310
1000
0100
0010
0100
1000
,
0002
0000
1000
0000
1003
0001
0010
0100
,
1000
0000
0000
0010
0000
0000
1000
0000
0001
0000
0010
0000
0100
0000
1000
0000
,
0001
0000
0000
0100
0000
0000
0001
0000
1000
0000
0010
0000
0001
0000
0010
0000
,
1000
0000
0000
0100
0000
0000
0010
0000
0001
0000
0100
0000
1000
0000
0100
0000
,
0001
0000
0000
0010
0000
0000
0100
0000
0010
0000
0001
0000
0100
0000
0001
0000
,
1000
1000
0001
0001
1000
0100
1000
0010
,
0100
0100
0001
0001
1000
0010
0001
0010
,
1000
0010
0001
0010
1000
0000
0100
0000
,
0010
0001
1010
0000
;

//---------------dance-single - ----------------
#NOTES:
     dance-single:
     :
     Challenge:
     13:
     0.600,0.719,0.189,0.180,0.552:
1000
0100
1000
0100
0010
0001
0100
0000
0100
0010
0000
1000
,
0001
0100
0001
0100
0010
1000
0100
0001
0100
1000
0000
1000
,
0001
0100
0010
0100
0000
0100
0001
1000
0100
0010
0001
1000
,
0001
0100
0001
0100
0010
1000
0100
1000
0100
0010
0000
0000
,
1001
0000
1000
0000
0010
0000
0010
0000
1001
0000
0001
0000
0100
0010
0000
0000
,
1000
0000
0010
0000
1000
0000
1000
0000
0100
0000
0010
0000
0001
1000
0000
0000
,
1001
0000
0001
0000
0100
0000
0100
0000
1001
0000
1000
0000
0010
0100
0000
0000
,
0001
0100
0001
0001
0010
0100
1000
0002
,
1003
0000
0100
0000
1000
0000
0010
0000
0100
0000
0001
0100
0000
0001
0100
0000
,
0001
0000
1000
0000
0100
0000
0010
0000
0001
0000
1000
0010
0000
1000
0010
0000
,
1000
0000
0001
0000
1000
0000
0100
0000
1000
0000
0010
0100
0000
0010
0100
0000
,
0001
0000
1000
0000
0001
0000
0010
0000
0100
0000
1000
0010
0000
1000
0010
0000
,
0100
0000
0000
0001
0000
0000
0100
0000
0000
0010
0000
0000
1000
0000
1000
0001
0000
1000
0001
0000
1000
0001
0000
0000
,
0010
0000
0000
0100
0000
0000
0010
0000
0000
0001
0000
0000
0100
0000
0100
0010
0000
0100
0010
0000
0100
0010
0000
0000
,
1000
0010
0001
0010
1000
0001
0100
0001
,
0020
0000
0000
0130
,
1001
0000
1000
0000
0001
0000
0001
0000
1000
0000
1000
0000
0010
0100
0000
0001
,
0000
0000
0000
1000
0000
0000
1000
0000
0000
0001
0000
0000
0001
0000
0000
0100
0000
0000
0100
0000
0001
1000
0000
0000
,
0001
0000
0001
0000
1000
0000
1000
0000
0100
0000
0100
0000
0010
0001
0000
0100
,
0000
0000
0000
0001
0000
0000
0001
0000
0000
1000
0000
0000
1000
0000
0000
0010
0000
0000
0010
0000
0100
0001
0000
0000
,
1001
0000
1000
0000
0001
0000
0001
0000
0100
0000
0100
0000
0001
1000
0000
0010
,
0000
0000
0000
1000
0000
0000
1000
0000
0000
0001
0000
0000
0001
0000
0000
0010
0000
0000
0010
0000
0100
1000
0000
0000
,
0001
0000
0001
0000
0100
0000
0100
0000
0001
0000
0001
0000
1000
0010
0000
1000
,
0000
0000
0000
0100
0000
0000
0100
0000
0000
1000
0000
0000
1001
0000
0000
0000
0000
0000
0001
0000
1000
0001
0000
0000
,
0201
0000
0000
0000
0301
1000
0100
0010
0001
0000
0100
0000
0010
0000
0100
0000
,
0001
0000
0000
0000
0000
0000
0000
0000
1000
0000
0000
0000
0100
0000
0000
0000
0000
0000
0000
0000
0010
0000
0000
0000
0100
0000
0000
1000
0000
0000
0000
0000
0000
0010
0000
0000
1000
0000
0000
0100
0000
0000
0010
0000
0000
0001
0000
0000
,
1000
0000
0000
0000
0001
0100
0000
0001
0000
0000
0100
0010
0000
1000
0000
0100
,
0020
0000
0031
0000
0100
1000
0010
0100
0002
0000
0000
0000
1003
0000
0000
0000
,
2001
0000
0000
0000
3001
1000
0100
0010
0001
0000
0100
0000
0010
0000
1000
0000
,
0100
0000
0000
0000
0000
0000
0000
0000
0010
0000
0000
0000
0001
0000
0000
0000
0000
0000
0000
0000
0001
0000
0000
0000
1000
0000
0000
0010
0000
0000
0000
0000
0000
1000
0000
0000
0001
0000
0000
0010
0000
0000
0100
0000
0000
1000
0000
0000
,
0002
0000
0000
0000
0103
0001
0000
1000
0000
0000
0010
0100
0000
0001
0000
0100
,
0002
0000
1003
0000
0001
0010
0100
0010
0002
0000
0000
0000
1003
0000
0000
0000
,
2001
0000
0000
3020
0000
0000
0230
0000
0302
0000
0000
0000
0000
2003
0000
0000
,
3020
0000
0000
0000
2000
0000
0000
3030
,
0010
0100
0010
0100
0001
0010
0001
0010
0100
1000
0100
1000
0001
0100
0010
0100
,
0001
1000
0100
0010
0001
1000
0100
0010
0001
0100
1000
0100
0001
0100
1000
0100
,
0002
0000
0000
0000
0000
0000
1003
1000
1001
0000
0001
0000
1000
0010
0100
0000
,
1001
0000
1000
0000
0001
0100
0010
0000
1000
0000
0001
0000
0010
0000
0100
0000
,
1000
0000
0001
0000
0100
0001
0000
0000
1001
0000
1000
0000
0001
0010
0100
0000
,
1001
0000
0001
0000
1000
0100
0010
0000
0001
0000
1000
0000
0100
0000
1000
0000
,
1002
0000
0100
0103
0001
0010
1000
0010
,
0001
0000
1000
0010
0000
0010
0100
0000
0001
0000
1000
0000
0100
0000
0001
0000
,
0100
0000
1000
0000
0010
0000
0200
0000
0000
0000
0000
0000
0301
0000
0000
0100
0000
0000
1000
0000
0000
0100
0000
0000
,
0001
0000
0010
0100
0000
0100
1000
0000
0010
0000
0001
0000
0100
0000
0001
0000
,
0010
0000
1000
0000
0100
0000
0020
0000
0000
0000
0000
0000
0031
0000
0000
0100
0000
0000
0010
0000
0000
1000
0000
0000
,
0100
0000
0100
0010
0000
0100
0010
0000
0100
0010
0000
0000
0001
0000
0000
1000
0000
0000
0100
0000
0000
1000
0000
0000
,
0001
0000
0001
1000
0000
0001
1000
0000
0001
1000
0000
0000
1100
0000
0000
0100
0000
0000
0110
0000
0000
0010
0000
0000
,
0011
0001
1001
1000
0110
0000
0100
0000
,
0001
1000
1001
0000
;

//---------------dance-double - ----------------
#NOTES:
     dance-double:
     :
     Easy:
     4:
     0.191,0.218,0.108,0.269,0.000:
20010000
00000000
00000000
00000000
,
30020000
00000000
00000000
00000000
,
00230000
00000000
02300000
00000000
,
23000000
00000000
00000000
30000000
,
10010000
00000000
10010000
00000000
,
02000000
00000000
03100000
00000000
,
00011000
00000000
00011000
00000000
,
00020000
00000000
00030010
00000000
,
00000210
00000000
00000000
00000000
,
00000320
00000000
00000000
00000000
,
00000230
00000000
00000000
00000000
,
00000320
00000000
00000000
00000000
,
00000130
00000010
00000100
00000000
,
00000001
00001000
00000001
00000000
,
00010000
00000100
00010000
00000100
,
00020000
00000000
00000000
00000000
,
00031000
00000000
01000000
00000000
,
00100000
00000000
10000000
00000000
,
00010000
00000000
01000000
00000000
,
00100000
00000000
10000000
00000000
,
00002000
00000000
00013000
00000000
,
00000200
00000000
00000310
00000000
,
00000002
00000000
00000013
00000000
,
00000200
00000000
00001300
00000000
,
00010000
00001000
00010000
00000000
,
00001000
01000000
00001000
00000000
,
10000000
01000000
10000000
00000000
,
00010000
10000000
00010000
00000000
,
00100000
01000000
00100000
00000000
,
00001000
01000000
00001000
00000000
,
00010000
00001000
00010000
00000000
,
00000010
00000100
00000010
00000000
,
00002001
00000000
00003020
00000000
,
00002030
00000000
00003020
00000000
,
00020030
00000000
00032000
00000000
,
00023000
00000000
00032000
00000000
,
01003000
00000000
10010000
00000000
,
10010000
00000000
00200000
00000000
,
01300000
00000000
00011000
00000000
,
00011000
00000000
00020000
00000000
,
00030100
00000000
00000010
00000001
,
00000010
00000000
00000100
00000010
,
00000100
00000000
00010000
00001000
,
00010000
00000000
00001000
01000000
,
00001000
00000000
20000000
00000000
,
30200000
00000000
02300000
00000000
,
03020000
00000000
01030000
00100000
,
01000000
00100000
10000000
00000000
,
00000000
00000000
00011000
00000000
;

//---------------dance-double - ----------------
#NOTES:
     dance-double:
     :
     Medium:
     8:
     0.371,0.370,0.341,0.198,0.009: // measure 1
10010000
00000000
01000000
01000000
,  // measure 2
11000000
00000000
00100000
01000000
,  // measure 3
01001000
00000000
00010000
00010000
,  // measure 4
00011000
00001000
00000010
00000100
,  // measure 5
00001001
00000000
00000000
00000001
00001000
00000000
00000001
00001000
,  // measure 6
00000001
00000010
00000100
00001000
,  // measure 7
00011000
00000000
00000000
01000000
00100000
00000000
01000000
00100000
,  // measure 8
01000000
00010000
10000000
01000000
,  // measure 9
10020000
00100000
10000000
00130000
,  // measure 10
00012000
01000000
00010000
01003000
,  // measure 11
00021000
00000100
00001000
00030100
,  // measure 12
00020001
00000010
00000001
00030010
,  // measure 13
00000110
00000101
00000110
00000101
,  // measure 14
00010001
00010100
00010001
00010100
,  // measure 15
00010000
00001000
00010000
00001000
01000000
00100000
10000000
00010000
,  // measure 16
20000000
00000000
00000000
30010000
,  // measure 17
00100000
00001000
00000000
00001000
00000000
00001000
00000000
00000000
,  // measure 18
00010000
00000010
00000000
00000010
00000000
00000010
00000000
00000000
,  // measure 19
00000100
00000001
00000000
00000001
00000000
00000001
00000000
00000000
,  // measure 20
00000010
00000100
00000000
00000100
00000000
00000100
00000000
00000000
,  // measure 21
00010000
00001000
00010000
00001000
00100000
01000000
10000000
00000000
,  // measure 22
01000000
10000000
01000000
10000000
00100000
01000000
00001000
00000000
,  // measure 23
00010000
00000100
00010000
00000100
00001000
00000010
00000100
00000000
,  // measure 24
00000001
00000010
00000001
00000010
00000100
00000000
00000000
00000000
,  // measure 25
00011000
00000000
00001000
01000000
00200000
00000000
01000000
00000000
,  // measure 26
01300000
00000000
11000000
00000000
10010000
00000000
00010000
00100000
,  // measure 27
01000000
00000000
10000000
10000000
10000000
00000000
00100000
01000000
,  // measure 28
00002000
00000000
00013000
00001000
00010000
00000000
00010010
00000000
,  // measure 29
00000110
00000000
00000100
00000010
00000002
00000000
00000100
00000000
,  // measure 30
00000203
00000000
00000010
00000000
00000310
00000000
00001000
00000100
,  // measure 31
00010000
00000000
00001000
00001000
00001000
00000000
00100000
00100000
,  // measure 32
02000000
00000000
13000000
00010000
01000000
00000000
01010000
00000000
,  // measure 33
10010000
00000000
00000000
10000000
00000000
00000000
20000000
00000000
02000000
00000000
00000000
00000000
00000000
00000000
33000000
00000000
,  // measure 34
00200000
00000000
00000000
00000000
02000000
00000000
00000000
03300000
,  // measure 35
00001000
00000000
00000000
00001000
00000000
00000000
00002000
00000000
00020000
00000000
00000000
00000000
00000000
00000000
00033000
00000000
,  // measure 36
00010000
00000100
00000010
00000001
00000010
00000100
00010000
00000010
,  // measure 37
00000100
00000000
00000000
00000000
00001001
00000000
00000001
00000010
,  // measure 38
00000100
00000000
00010000
00001000
01000000
00000000
00100000
01000000
,  // measure 39
01000000
00000000
01100000
00000000
10010000
00000000
10000000
01000000
,  // measure 40
00100000
00000000
00001000
00001000
00010000
00000000
00000100
00000000
,  // measure 41
00000220
00000000
00000330
00000000
00001001
00000000
00000001
00000010
,  // measure 42
00000002
00000000
00000010
00000000
00000103
00000000
00000010
00010000
,  // measure 43
00002000
00000000
00100000
00000000
01003000
00000000
00010000
10000000
,  // measure 44
02000000
00000000
00100000
00000000
03010000
00000000
00100000
00001000
,  // measure 45
00020000
00001000
00030100
00010100
,  // measure 46
00010100
00010001
00010001
00000110
,  // measure 47
00000110
00000000
00000101
00000000
00000100
00000001
00000100
00000001
,  // measure 48
00000010
00000100
00000010
00000100
00010000
00000000
00001000
00000000
,  // measure 49
00100000
01000000
10010000
00000000
;

//---------------dance-double - ----------------
#NOTES:
     dance-double:
     :
     Hard:
     10:
     0.481,0.436,0.296,0.314,0.224:
20010000
00000000
00000000
00000000
00000000
00000000
31000000
00000000
01000000
00100000
00000000
00100000
,
00002000
00000000
00000000
00000000
00000000
00000000
00013000
00001000
00010000
00000010
00000000
00000010
,
00000200
00000000
00000000
00000000
00000000
00000000
00000301
00000000
00000001
00001000
00000000
00001000
,
00000100
00000000
00000100
00010000
00000000
00010000
00001000
00100000
01000000
10000000
00000000
00000000
,
12000000
00000000
13000000
00100000
01200000
00000000
01300000
00001000
,
00010000
00000100
00000010
00000002
00000000
00000000
00001003
00000000
,
00000021
00000000
00000031
00000100
00000210
00000000
00000310
00001000
,
00010000
00100000
01000000
20000000
00000000
00000000
30100000
00000000
,
01100000
00000000
00000000
00000000
00100000
00000000
01000000
00000000
10000000
00000000
00000000
10000000
00000000
00000000
10000000
00000000
,
00100000
00000000
00000000
00000000
01000000
00000000
00001000
00000000
00010000
00000000
00000000
00010000
00000000
00000000
00010000
00000000
,
00000100
00000000
00000000
00000000
00000010
00000000
00000001
00000000
00000100
00000000
00000000
00000100
00000000
00000000
00000100
00000000
,
00000010
00000000
00000000
00000000
00001000
00000000
00010000
00000000
01000000
00000000
00000000
01000000
00000000
00000000
01000000
00000000
,
00100000
10000000
01000000
00100000
00001000
00001000
00010000
00010000
,
00000100
00000010
00000001
00000100
00000010
00000010
00010000
00010000
,
00001000
01000000
10000000
01000000
00001000
01000000
10000000
01000000
,
00002000
00000000
00000000
00013000
,
00000010
00001010
00000000
00000101
00000000
00001010
00000000
00000110
,
00000010
00011000
00000000
01100000
00000000
00011000
00000000
01100000
,
00100000
10100000
00000000
01001000
00000000
10100000
00000000
01001000
,
00001000
00011000
00000000
00000110
00000000
00011000
00001000
00010000
,
00000110
00000010
00000100
00000001
00000100
00000010
00001000
00000100
,
00010000
00001000
01000000
00100000
01000000
00001000
00010000
00001000
,
01000000
00100000
10000000
01000000
10000000
00100000
10000000
01000000
,
00100000
00001000
00010000
00000010
00000220
00000000
00000330
00000000
,
00000011
00000000
00000000
00000000
00000001
00001000
00000001
00001000
00000002
00000000
00000000
00000000
00000010
00000000
00000000
00000000
,
00000013
00000000
00000000
00000000
00000000
00000000
00000000
00000000
00000100
00000000
00000000
00000000
00000010
00000000
00000000
00000000
00000000
00000000
00000000
00000000
00010000
00000000
00000000
00000000
00001000
00000000
00000000
00000000
00000000
00000000
00000000
00000000
00000000
00000000
00000000
00000000
00100000
00000000
00000000
01000000
00000000
00000000
00100000
00000000
00000000
01000000
00000000
00000000
,
00100000
00000000
00000000
00000000
00010000
10000000
00000000
10000000
00000000
00000000
00000000
00010000
00000000
00010000
00000000
10000000
,
00200000
00000000
00000000
00000000
01300000
00100000
01000000
00100000
02000000
00000000
00000000
00000000
03100000
00000000
00000000
00000000
,
10010000
00000000
00000000
00000000
10000000
01000000
10000000
01000000
20000000
00000000
00000000
00000000
01000000
00000000
00000000
00000000
,
31000000
00000000
00000000
00000000
00000000
00000000
00000000
00000000
00100000
00000000
00000000
00000000
01000000
00000000
00000000
00000000
00000000
00000000
00000000
00000000
00001000
00000000
00000000
00000000
00010000
00000000
00000000
00000000
00000000
00000000
00000000
00000000
00000000
00000000
00000000
00000000
00000010
00000000
00000000
00000100
00000000
00000000
00000010
00000000
00000000
00000100
00000000
00000000
,
00000010
00000000
00000000
00000000
00001000
00000001
00000000
00000001
00000000
00000000
00000000
00001000
00000000
00001000
00000000
00000001
,
00001000
00000000
00000010
00000000
00010000
00001000
00010000
00001000
00010000
00000000
00000000
00000000
00011000
00000000
00000000
00000000
,
01200000
00000000
00000000
20300000
00000000
00000000
32000000
00000000
03200000
00000000
00000000
00000000
00000000
00302000
00000000
00000000
,
00023000
00000000
00000000
00000000
00002000
00000000
00000000
00033000
,
00000020
00000000
00000000
00000230
00000000
00000000
00000302
00000000
00000023
00000000
00000000
00000000
00000000
00000230
00000000
00000000
,
00010300
00001000
00100000
01000000
20000000
00000000
00000000
30000000
,
01100000
00000000
00000000
00000000
00000000
00000000
01000000
01000000
10200000
00000000
00000000
00000000
01300000
00000000
00001000
00000000
,
00012000
00000000
00013000
00000100
00000010
00000001
00000010
00000200
,
00000000
00000000
00010300
00000000
00000201
00000000
00000310
00001000
,
00012000
00000000
00103000
01000000
10000000
01000000
00100000
00001000
,
00020000
00000000
00001000
00000000
00031000
00010000
00000100
00000001
,
00000100
00000000
00000000
00010000
00000000
00000000
00010000
00000000
00001000
00000000
01000000
00000000
10000000
00000000
01000000
00000000
,
00001000
00000000
00000000
00010000
00000000
00000000
00010000
00000000
00000100
00000000
00010000
00000000
00000100
00000000
00000001
00000000
,
00000100
00000000
00000000
00010000
00000000
00000000
00010000
00000000
00001000
00000000
00100000
00000000
10000000
00000000
00100000
00000000
,
00001000
00000000
00000000
00010000
00000000
00000000
00010000
00000000
00000010
00000000
00000100
00000000
00000001
00000000
00000100
00000000
,
00000010
00000010
00010000
00010000
00001000
00100000
01000000
10000000
,
00010000
00010000
00100000
00100000
00001000
01000000
10000000
01000000
,
00001000
01000000
10000000
01000000
00001000
00000000
00010000
00000000
,
00000100
00000010
00000011
00000000
;

//---------------dance-double - ----------------
#NOTES:
     dance-double:
     :
     Challenge:
     13:
     0.604,0.719,0.198,0.207,0.552:
10000000
00010000
10000000
00010000
00100000
01000000
10000000
00000000
10000000
00001000
00000000
00001000
,
00010000
00000100
00010000
00000100
00001000
00000010
00000001
00000010
00001000
00000100
00000000
00000100
,
00010000
00001000
00010000
00001000
00000000
00001000
01000000
00100000
10000000
00100000
01000000
00001000
,
00010000
00001000
00010000
00000000
00000100
00000001
00000100
00010000
00001000
00010000
00000000
00000000
,
01100000
00000000
00100000
00000000
10000000
00000000
10000000
00000000
01100000
00000000
00100000
00000000
01000000
00001000
00000000
00000000
,
00010000
00000000
00000010
00000000
00000100
00000000
00000100
00000000
00000001
00000000
00000010
00000000
00000100
00000010
00000000
00000000
,
00001001
00000000
00000001
00000000
00000010
00000000
00000010
00000000
00011000
00000000
00001000
00000000
00100000
01000000
00000000
00000000
,
10000000
00100000
01000000
01000000
00001000
00010000
00001000
00020000
,
00030010
00000000
00000100
00000000
00000001
00000000
00000010
00000000
00000100
00000000
00010000
00001000
00000000
00010000
00001000
00000000
,
00100000
00000000
01000000
00000000
10000000
00000000
01000000
00000000
00100000
00000000
00001000
00010000
00000000
00001000
00010000
00000000
,
00000010
00000000
00000100
00000000
00000001
00000000
00000100
00000000
00000010
00000000
00010000
00001000
00000000
00010000
00001000
00000000
,
01000000
00000000
00100000
00000000
01000000
00000000
00010000
00000000
10000000
00000000
00010000
00001000
00000000
00010000
00001000
00000000
,
00000010
00000000
00000000
00000100
00000000
00000000
00000001
00000000
00000000
00000010
00000000
00000000
00000100
00000000
00010000
00001000
00000000
00010000
00001000
00000000
00010000
00001000
00000000
00000000
,
00100000
00000000
00000000
01000000
00000000
00000000
00100000
00000000
00000000
00001000
00000000
00000000
01000000
00000000
00001000
00010000
00000000
00001000
00010000
00000000
00001000
00010000
00000000
00000000
,
00000100
00000001
00000100
00010000
00000010
00000001
00000010
00010000
,
00022000
00000000
00030000
00013000
,
01100000
00000000
00100000
00000000
01000000
00000000
01000000
00000000
00100000
00000000
00100000
00000000
10000000
01000000
00000000
00100000
,
00000000
00000000
00000000
00010000
00000000
00000000
00010000
00000000
00000000
00001000
00000000
00000000
00001000
00000000
00000000
00000010
00000000
00000000
00000010
00000000
00000100
00000001
00000000
00000000
,
00010000
00000000
00010000
00000000
00001000
00000000
00001000
00000000
01000000
00000000
01000000
00000000
00100000
10000000
00000000
00010000
,
00000000
00000000
00000000
01000000
00000000
00000000
01000000
00000000
00000000
00001000
00000000
00000000
00001000
00000000
00000000
00010000
00000000
00000000
00010000
00000000
00000010
00000100
00000000
00000000
,
00000110
00000000
00000010
00000000
00000100
00000000
00000100
00000000
00000001
00000000
00000001
00000000
00000010
00000100
00000000
00010000
,
00000000
00000000
00000000
00001000
00000000
00000000
00001000
00000000
00000000
01000000
00000000
00000000
01000000
00000000
00000000
00010000
00000000
00000000
00010000
00000000
10000000
00100000
00000000
00000000
,
01000000
00000000
01000000
00000000
00001000
00000000
00001000
00000000
00010000
00000000
00010000
00000000
00000010
00000100
00000000
00000001
,
00000000
00000000
00000000
00000010
00000000
00000000
00000010
00000000
00000000
00000100
00000000
00000000
00000110
00000000
00000000
00000000
00000000
00000000
00010000
00000000
00001000
00010000
00000000
00000000
,
02001000
00000000
00000000
00000000
03100000
10000000
01000000
00100000
00010000
00000000
01000000
00000000
00010000
00000000
00100000
00000000
,
00001000
00000000
00000000
00000000
00000000
00000000
00000000
00000000
00010000
00000000
00000000
00000000
00000010
00000000
00000000
00000000
00000000
00000000
00000000
00000000
00000100
00000000
00000000
00000000
00000010
00000000
00000000
00001000
00000000
00000000
00000000
00000000
00000000
00000001
00000000
00000000
00000010
00000000
00000000
00000100
00000000
00000000
00010000
00000000
00000000
00001000
00000000
00000000
,
00100000
00000000
00000000
00000000
02000000
00100000
00000000
03100000
00000000
00000000
00010000
10000000
00000000
10000000
00000000
10000000
,
00200000
00000000
01300000
00000000
00010000
00100000
00001000
00010000
00000200
00000000
00000000
00000000
00000310
00000000
00000000
00000000
,
00002001
00000000
00000000
00000000
00003001
00000010
00000100
00010000
00001000
00000000
01000000
00000000
00100000
00000000
01000000
00000000
,
00001000
00000000
00000000
00000000
00000000
00000000
00000000
00000000
00100000
00000000
00000000
00000000
01000000
00000000
00000000
00000000
00000000
00000000
00000000
00000000
10000000
00000000
00000000
00000000
00100000
00000000
00000000
01000000
00000000
00000000
00000000
00000000
00000000
00100000
00000000
00000000
01000000
00000000
00000000
00010000
00000000
00000000
00100000
00000000
00000000
01000000
00000000
00000000
,
10000000
00000000
00000000
00000000
00200000
01000000
00000000
01300000
00000000
00000000
00001000
00100000
00000000
00100000
00000000
00100000
,
00002000
00000000
00013000
00000000
00000100
00000010
00000001
00000010
00000200
00000000
00000000
00000000
00001300
00000000
00000000
00000000
,
00012000
00000000
00000000
00203000
00000000
00000000
20300000
00000000
30200000
00000000
00000000
00000000
00000000
00302000
00000000
00000000
,
00023000
00000000
00000000
00000000
00000020
00000000
00000000
00030030
,
00000010
00000100
00000010
00000100
00000001
00000010
00000001
00000010
00000100
00010000
00000100
00010000
00100000
01000000
10000000
01000000
,
00100000
00001000
01000000
00100000
01000000
00001000
00010000
00000100
00000010
00000001
00000010
00000100
00001000
00010000
01000000
00100000
,
02000000
00000000
00000000
00000000
00000000
00000000
03100000
00100000
01100000
00000000
01000000
00000000
00010000
00100000
01000000
00000000
,
00011000
00000000
00001000
00000000
00000100
00000010
00000001
00000000
00000100
00000000
00000010
00000000
00000100
00000000
00000002
00000000
,
00000013
00000000
00000100
00000000
00010000
00001000
00000000
00000000
01100000
00000000
00100000
00000000
01000000
00100000
10000000
00000000
,
01100000
00000000
01000000
00000000
00001000
00010000
00000100
00000000
00000010
00000000
00000001
00000000
00000010
00000000
00000100
00000000
,
00021000
00000000
00001000
00031000
01000000
00010000
00100000
00010000
,
01000000
00000000
00001000
10000000
00000000
10000000
00001000
00000000
00010000
00000000
00000100
00000000
00000010
00000000
00000001
00000000
,
00000100
00000000
00000010
00000000
00010000
00000000
00002000
00000000
00000000
00000000
00000000
00000000
00103000
00000000
00000000
01000000
00000000
00000000
00100000
00000000
00000000
00001000
00000000
00000000
,
01000000
00000000
00100000
10000000
00000000
10000000
00001000
00000000
00010000
00000000
00000100
00000000
00000010
00000000
00000100
00000000
,
00010000
00000000
00000010
00000000
00000100
00000000
00000002
00000000
00000000
00000000
00000000
00000000
00001003
00000000
00000000
00000100
00000000
00000000
00010000
00000000
00000000
00001000
00000000
00000000
,
01000000
00000000
01000000
00100000
00000000
01000000
00100000
00000000
01000000
00100000
00000000
00000000
10000000
00000000
00000000
00010000
00000000
00000000
00100000
00000000
00000000
00001000
00000000
00000000
,
00010000
00000000
00010000
00001000
00000000
00010000
00001000
00000000
00010000
00001000
00000000
00000000
00010010
00000000
00000000
00000010
00000000
00000000
00000110
00000000
00000000
00000100
00000000
00000000
,
00000101
00000001
00000110
00010000
00011000
00000000
00100000
00000000
,
01000000
10000000
01100000
00000000
;

//---------------dance-single - ----------------
#NOTES:
     dance-single:
     :
     Beginner:
     2:
     0.078,0.109,0.108,0.000,0.000:
1001
0000
0000
0000
,
1000
0000
0000
0000
,
0001
0000
0000
0000
,
1000
0000
0000
0000
,
1001
0000
0000
0000
,
0010
0000
0000
0000
,
1001
0000
0000
0000
,
0100
0000
0000
0000
,
1001
0000
0000
0000
,
0001
0000
0000
0000
,
1000
0000
0000
0000
,
0001
0000
0000
0000
,
0010
0000
0000
0000
,
0100
0000
0000
0000
,
0010
0000
0000
0000
,
0100
0000
0000
0000
,
1000
0000
0000
0000
,
0100
0000
0000
0000
,
0010
0000
0000
0000
,
0001
0000
0000
0000
,
1000
0000
0000
0000
,
0100
0000
0000
0000
,
0010
0000
0000
0000
,
0001
0000
0000
0000
,
1001
0000
0001
0000
,
0000
0000
0000
0000
,
1000
0000
0000
1000
,
0000
0000
0000
0000
,
1001
0000
1000
0000
,
0000
0000
0000
0000
,
0001
0000
0000
0001
,
0000
0000
0000
0000
,
0100
0000
0000
0000
,
0100
0000
0000
0000
,
0100
0000
0000
0000
,
0100
0000
0000
0000
,
0000
0000
1001
0000
,
0001
0000
0000
0000
,
0000
0000
1001
0000
,
1000
0000
0000
0000
,
0000
0000
0100
0000
,
0000
0000
0010
0000
,
0000
0000
0100
0000
,
0000
0000
0010
0000
,
0000
0000
1001
0000
,
0000
0000
1001
0000
,
0000
0000
1001
0000
,
0000
0000
0100
0000
,
0000
0000
0110
0000
;
