#TITLE:Innocence;
#SUBTITLE:;
#ARTIST:ZERO+ZIBA;
#TITLETRANSLIT:;
#SUBTITLETRANSLIT:;
#ARTISTTRANSLIT:;
#GENRE:;
#CREDIT:DigiMindAxel+Pandemonium X;
#BANNER:Innocence.png;
#BACKGROUND:Innocence-bg.png;
#LYRICSPATH:;
#CDTITLE:pop'n music.png;
#MUSIC:Innocence.ogg;
#METERTYPE:DDR X;
#OFFSET:-1.032000;
#SAMPLESTART:35.693001;
#SAMPLELENGTH:12.000000;
#SELECTABLE:YES;
#BPMS:0.000000=180.000000
,328.000000=174.000000
,336.000000=168.000000
,340.000000=164.000000
,348.000000=160.000000
,352.000000=154.000000
,356.000000=147.000000
,358.500000=120.000000
;
#STOPS:
;
#BGCHANGES:;
#KEYSOUNDS:;
#ATTACKS:;

//---------------dance-single - ----------------
#NOTES:
     dance-single:
     :
     Easy:
     6:
     0.292519,0.345442,0.030791,0.069281,0.000000,266.000000,262.000000,4.000000,9.000000,0.000000,0.000000,0.292519,0.345442,0.030791,0.069281,0.000000,266.000000,262.000000,4.000000,9.000000,0.000000,0.000000:
0000
0000
0000
0000
,
0000
0000
0000
0000
,
0000
0000
0000
0000
,
0000
0000
0000
0000
,
0000
0000
0000
0000
,
0000
0000
0000
0000
,
0000
0000
0000
0000
,
0000
0000
0000
0000
,
0000
0000
0000
0000
,
0000
0000
0000
0000
,
1001
0000
1000
0000
,
0001
0010
0001
0010
,
0100
0000
0100
0000
,
1000
0001
1000
0001
,
0100
0000
0100
0000
,
0010
0100
0010
0100
,
0001
0000
0001
0000
,
0010
0001
0010
0001
,
0100
0100
0100
0100
,
0010
0010
0010
0010
,
0100
0100
0100
0100
,
0010
0010
0010
0010
,
1000
0100
0010
0001
,
1000
0100
0010
0001
,
2000
0000
3002
0000
,
1003
0000
0000
0000
,
1001
0010
0100
1000
,
0001
0001
0001
0001
,
1000
0100
0010
0001
,
1000
1000
0001
0001
,
1000
0100
0010
0100
,
1000
1000
1000
1000
,
0010
0100
0001
0100
,
0010
0010
0010
0010
,
1000
0100
0010
0001
,
1000
0100
0010
0001
,
1000
0100
0010
0001
,
1000
0100
0010
0001
,
0100
0010
1000
0010
,
0100
0001
0100
0010
,
1000
0010
0100
0001
,
2000
0000
0000
0000
,
3001
0100
0010
0100
,
0001
1000
0100
0010
,
0001
1000
0100
1000
,
0001
0010
0100
1000
,
0010
0100
0001
0100
,
0010
1000
0001
1000
,
0002
0000
0000
0000
,
1003
0000
1001
1001
,
0200
0000
0000
0000
,
0320
0000
0000
0000
,
2030
0000
0000
0000
,
3002
0000
0000
0000
,
1003
0000
1000
0000
,
0001
0000
0001
0000
,
1000
0000
1000
0000
,
0001
0000
0001
0000
,
0100
0010
0100
0010
,
1000
0100
1000
0100
,
1000
0001
1000
0001
,
1000
0001
0100
0001
,
1000
0100
1000
0100
,
0010
0001
0010
0001
,
0100
0010
1000
0010
,
0200
0000
0000
0000
,
0310
1000
0100
0010
,
0001
0001
1000
1000
,
0100
1000
0010
0100
,
0001
0001
0100
0100
,
0010
1000
0100
0010
,
0001
0001
1000
1000
,
0100
0010
0001
0010
,
0100
0100
1000
1000
,
0010
0100
0001
0100
,
0010
0010
1000
1000
,
0001
0010
0100
0010
,
0001
0001
1000
1000
,
0010
0100
0001
0100
,
0010
1000
0010
0100
,
0001
0010
0100
1000
,
0001
0100
0010
0100
,
0001
0000
0010
0000
,
0100
1000
0010
0000
,
0100
0000
0100
0000
,
0100
0000
0000
0000
,
0010
0000
0001
0000
,
0100
0000
0010
0000
,
1000
0000
1000
0000
,
0001
0000
0100
0010
;

//---------------dance-single - ----------------
#NOTES:
     dance-single:
     :
     Challenge:
     16:
     0.771987,1.120810,0.277123,0.153957,0.619679,702.000000,666.000000,36.000000,20.000000,0.000000,0.000000,0.771987,1.120810,0.277123,0.153957,0.619679,702.000000,666.000000,36.000000,20.000000,0.000000,0.000000:
0000
0000
0000
0000
,
0000
0000
0000
0000
,
0000
0000
0000
0000
,
0000
0000
0000
0000
,
0000
0000
0000
0000
,
0000
0000
0000
0000
,
0000
0000
0000
0000
,
0000
0000
0000
0000
,
0000
0000
0000
0000
,
0000
0000
0000
0000
,
1001
0100
0011
0100
,
2000
0000
0000
0001
3002
0000
0103
0000
,
1001
0010
1100
0010
,
0002
0000
0100
0100
0000
0100
0103
0000
,
0001
1000
0110
0001
,
2000
0100
3200
0310
,
0101
0000
0100
0010
1000
0100
0010
0000
,
0002
0000
0100
0100
0000
0100
0103
0000
,
0010
0100
0010
1000
0100
0010
0100
1000
,
0001
0100
0001
1000
0100
0010
0100
1000
,
0001
0000
0000
0100
0001
0000
0000
0100
0010
0000
0000
1000
0100
0000
0000
0000
,
1000
0000
0000
0010
0100
0000
0000
0001
0010
0000
0000
0100
0010
0000
0000
0000
,
0001
0000
1000
0010
1000
0010
1000
0010
1000
0000
0100
0000
0010
0000
0001
0000
,
0100
0000
0010
0100
0010
0100
0010
0100
0010
0000
1000
0000
0100
0000
0010
0000
,
0100
1000
0100
1000
0100
1000
0100
1000
0010
0100
0010
0100
0010
0100
0010
0100
,
0002
0000
0000
1003
,
0110
0100
0001
0100
0010
1000
0100
0010
,
0002
0000
0100
0100
0100
0100
0103
0000
,
0010
1000
0100
0010
0100
1000
0010
1000
,
0100
0001
0010
0001
0100
1000
0001
0000
,
0110
0010
0001
1000
0010
0100
0010
1000
,
0200
0000
0010
0010
0010
0010
0310
0000
,
0001
0100
0010
0100
0001
1000
0100
0010
,
0001
0100
1000
0100
0001
0100
1000
0100
,
0001
0000
0010
0000
0010
0000
0100
0000
0100
0000
1000
0000
0010
0100
0010
0100
,
0010
0000
1000
0000
1000
0000
0100
0000
0100
0000
0010
0000
0001
1000
0001
1000
,
0001
0000
0100
0000
0100
0000
0001
0000
0001
0000
0010
0000
0100
1000
0100
1000
,
0100
0000
0010
0000
0010
0000
0100
0000
0100
0000
1000
0000
0001
0100
0001
0100
,
0001
0000
1001
0000
1000
0000
1100
0000
0100
0000
0110
0000
0010
0001
0010
0001
,
0010
0000
1001
0000
0001
0000
0101
0000
0100
0000
0110
0000
0010
1000
0010
1000
,
0010
1001
1000
1100
0100
0110
0010
0001
,
2001
0000
0100
3100
,
1001
0000
0000
0000
0001
0100
0001
0100
0001
0000
0000
0000
1000
0100
1000
0100
,
1000
0000
0000
0000
0001
1000
0001
1000
0001
0000
0010
0000
0100
0000
0000
0000
,
1001
0000
0000
0000
0100
0001
0100
0001
0100
0000
0000
0000
0010
0100
0010
0100
,
0010
0000
0000
0000
1000
0001
1000
0001
1000
0000
0100
0000
0010
0000
0000
0000
,
1001
0000
0000
0000
0100
0001
0100
0001
0100
0000
0000
0000
0010
0100
0010
0100
,
0010
0000
0000
0000
1000
0100
1000
0100
1000
0000
0010
0000
0100
0000
0000
0000
,
0020
0000
0000
0000
0000
0000
0000
0000
0000
0000
0000
0000
0130
0001
0100
0001
,
1000
0000
0000
0000
0100
0010
0100
0010
0001
0000
0010
0000
0100
0000
0000
0000
,
2001
0000
0000
0000
3002
0000
1003
0100
,
0010
0000
0100
0010
0001
0000
0000
0000
,
0200
0000
0000
0001
0301
0000
1000
0000
,
0100
0010
0001
0100
,
1010
0000
0010
0100
0110
0000
0110
0000
,
0010
0000
0001
1000
1001
0000
1001
0000
,
1000
0000
0100
0010
0110
0000
0110
0000
,
0001
0000
0100
0001
0100
0000
0010
0000
0100
0000
0000
0000
0110
0000
0000
0000
,
0001
0000
1000
0100
1000
0000
0001
0000
1000
0100
1000
0000
0001
0000
1000
0100
,
1000
0000
0001
0000
1000
0100
1000
0000
0010
0100
0010
0100
0001
0010
0100
0000
,
1000
0000
0001
0100
0001
0000
1000
0000
0001
0100
0001
0000
1000
0000
0001
0100
,
0001
0000
1000
0000
0001
0100
0001
0000
0010
0100
0010
0100
1000
0010
1000
0000
,
0001
1000
0001
1000
0001
0000
0100
0001
0100
0001
1000
0000
0100
0010
0100
0010
,
0001
0000
0100
0000
0010
0000
1000
0000
0001
0000
0010
0000
0100
1000
0001
0000
,
1000
0010
1000
0010
1000
0010
1000
0010
0100
0001
0100
0001
0100
0001
1000
0100
,
0020
0001
0000
0001
0031
0000
1001
0000
,
0001
0100
0001
0100
0010
0000
1000
0100
0010
0000
0010
0000
0001
0100
0010
0000
,
1000
0001
1000
0001
0010
0000
0010
0000
0100
1000
0100
0000
0010
0100
0010
0000
,
0001
0100
0001
0100
0010
0000
1000
0100
0010
0000
0001
0100
0001
0100
0001
0000
,
0010
0100
0010
0100
1000
0100
1000
0100
0010
0100
0010
0100
1000
0010
0100
0001
,
1000
0000
0100
0010
0001
0000
0001
0000
0100
0000
0100
0010
1000
0000
0100
0010
,
0001
0000
1000
0100
1000
0000
0100
0010
0100
0000
1000
0010
1000
0010
1000
0000
,
0001
0000
0010
0100
1000
0000
1000
0000
0001
0010
0100
1000
0001
0010
0100
1000
,
0001
0000
0100
0001
0010
0000
0100
0000
1000
0000
1000
0000
0001
0000
0001
0000
,
0100
0001
0100
0001
1000
0000
0001
1000
0100
0010
0001
1000
0100
0010
0001
0000
,
0100
0010
0100
0010
1000
0000
0001
0000
0100
0001
0010
0000
0100
1000
0010
0000
,
0100
0001
0100
0001
1000
0000
0100
0010
0001
0010
0100
0010
0001
0010
0100
0000
,
1000
0010
1000
0010
0100
0010
0100
0010
1000
0100
0010
0001
0010
0100
1000
0000
,
0001
0100
0010
0100
0001
0000
1000
0000
1000
0000
0010
0000
0010
0000
0100
0000
,
0001
0010
0100
0000
1000
0001
0100
0000
0010
1000
0001
0000
0010
0100
1000
0000
,
0010
0100
0001
0100
0010
0100
0001
1000
0100
0010
0100
1000
0100
0010
0100
0000
,
1000
0010
1000
0010
0001
0010
0001
0010
1000
0100
0001
0100
1000
0100
0010
0000
,
0201
0001
0010
0310
,
1100
0000
0100
1000
0010
0000
0010
0000
,
0011
0100
1000
0010
,
0202
0000
0000
0303
,
0120
0100
1000
1030
,
0001
0100
1000
0100
,
0001
0001
1000
1000
,
0001
0100
0010
2000
,
0000
0000
0000
0000
,
3000
0000
0000
0000
;

//---------------dance-single - ----------------
#NOTES:
     dance-single:
     :
     Beginner:
     4:
     0.167154,0.276354,0.115468,0.000000,0.000000,152.000000,137.000000,15.000000,0.000000,0.000000,0.000000,0.167154,0.276354,0.115468,0.000000,0.000000,152.000000,137.000000,15.000000,0.000000,0.000000,0.000000:
0000
0000
0000
0000
,
0000
0000
0000
0000
,
0000
0000
0000
0000
,
0000
0000
0000
0000
,
0000
0000
0000
0000
,
0000
0000
0000
0000
,
0000
0000
0000
0000
,
0000
0000
0000
0000
,
0000
0000
0000
0000
,
0000
0000
0000
0000
,
1000
0000
0001
0000
,
1000
0000
0000
0000
,
0001
0000
0100
0000
,
0001
0000
0000
0000
,
1000
0000
0010
0000
,
1000
0000
0000
0000
,
0001
0000
1000
0000
,
0001
0000
0000
0000
,
1001
0000
1000
0000
,
1000
0000
1000
0000
,
0001
0000
0001
0000
,
0001
0000
0001
0000
,
0010
0000
0100
0000
,
0010
0000
0100
0000
,
0010
0000
0000
0000
,
1001
0000
0000
0000
,
1001
0000
0001
0000
,
1000
0001
1000
0000
,
0001
0000
0100
0000
,
0010
0000
1000
0000
,
0001
0000
0001
0000
,
1000
0001
1000
0000
,
0100
0000
0010
0000
,
0001
0000
1000
0000
,
0010
0000
0010
0000
,
0110
0000
0100
0000
,
0110
0000
0010
0000
,
0110
0000
0100
0000
,
1001
0000
0001
0000
,
1001
0000
1000
0000
,
0110
0000
0100
0000
,
0110
0000
0000
0000
,
0001
0000
0100
0000
,
0010
0000
0100
0000
,
0001
0000
0100
0000
,
0010
0000
0100
0000
,
0001
0000
1000
0000
,
0100
0000
1000
0000
,
0001
0000
0000
0000
,
1001
0000
1000
0000
,
1001
0000
0000
0000
,
0000
0000
0000
0000
,
0000
0000
0000
0000
,
0000
0000
0000
0000
,
0110
0000
0000
0000
,
0100
0000
0000
0000
,
0010
0000
0000
0000
,
0100
0000
0000
0000
,
0001
0000
0001
0000
,
0001
0000
0001
0000
,
1000
0000
1000
0000
,
1000
0000
1000
0000
,
0001
0000
0001
0000
,
0001
0000
0001
0000
,
1000
0000
1000
0000
,
1001
0000
0000
0000
,
0010
0000
0100
0000
,
0001
0000
0100
0000
,
0010
0000
1000
0000
,
0100
0000
1000
0000
,
0001
0000
1000
0000
,
0100
0000
1000
0000
,
0001
0000
0100
0000
,
0010
0000
0000
0000
,
1001
0000
0100
0000
,
0010
0000
0001
0000
,
0100
0000
0010
0000
,
1000
0000
0001
0000
,
1000
0001
1000
0000
,
0001
1000
0001
0000
,
1000
0001
1000
0000
,
0001
1000
0001
1000
,
0001
0000
0000
0000
,
0000
0000
0000
0000
,
0010
0000
0000
0000
,
0000
0000
0000
0000
,
0100
0000
0000
0000
,
1000
0000
0000
0000
,
0001
0000
0000
0000
,
1000
0000
0000
0100
;

//---------------dance-single - ----------------
#NOTES:
     dance-single:
     :
     Medium:
     11:
     0.502561,0.621796,0.577340,0.384894,0.000000,457.000000,382.000000,75.000000,50.000000,0.000000,0.000000,0.502561,0.621796,0.577340,0.384894,0.000000,457.000000,382.000000,75.000000,50.000000,0.000000,0.000000:
0000
0000
0000
0000
,
0000
0000
0000
0000
,
0000
0000
0000
0000
,
0000
0000
0000
0000
,
0001
0010
0001
1000
,
0100
1000
0010
0100
,
0001
0010
0001
1000
,
0100
0010
0100
2000
,
0000
0000
0000
0000
,
3000
0000
0000
0000
,
0001
1000
1010
1010
,
1000
0000
0010
0100
0010
0000
0100
0000
,
0001
0010
0110
0011
,
0001
0000
1000
0001
0000
0001
1000
0000
,
0100
0010
0011
0011
,
0001
0000
1000
0100
1000
0000
1000
0000
,
0010
1010
1000
1100
,
1000
0100
0100
1000
0010
0010
0100
0000
,
0001
0110
0010
1010
,
1000
1001
0001
0011
,
0100
1100
1000
1010
,
0010
0110
0101
0001
,
1002
0013
2100
3010
,
0102
0013
2100
3010
,
0102
0023
0230
2300
,
3001
0200
0000
1300
0200
0000
0310
0000
,
1000
0000
0010
0000
0000
0100
0001
0000
,
0010
0000
0100
0010
0100
0010
0100
0000
,
1000
0000
0001
0000
0000
1000
0001
0000
,
0200
0301
0020
0130
,
1000
0000
0001
0000
0000
1000
0010
0000
,
1000
0000
0100
0010
0100
0010
0100
0000
,
0010
0000
0001
0000
0000
0010
0001
0000
,
0010
0100
1000
0001
,
0000
1000
0010
0100
0001
1000
0010
1000
,
0000
1000
0010
0100
0001
1000
0010
1000
,
0000
0010
1000
0001
0100
0010
1000
0010
,
0000
1000
0100
0010
0001
0010
0100
1000
,
0000
0001
1000
0001
1000
0001
0100
0100
,
0000
0001
1000
0001
1000
0001
0100
0100
,
0000
0001
1000
0001
1000
0001
0100
0100
,
0000
0001
1000
0001
1000
0100
0010
0001
,
2001
3010
1002
0103
,
1002
1003
1100
0011
,
0102
1003
2100
3010
,
1200
0310
0011
1100
,
1002
0013
2100
3010
,
0102
0013
1001
0110
,
0001
0000
1000
0100
0001
0000
0001
0100
,
1000
0000
1000
0010
0100
0000
0010
0000
,
1001
0000
0000
0000
0001
0000
1000
0010
,
1000
0000
0010
1000
0010
0000
0000
0000
,
1000
0000
0000
0001
0010
0000
0100
0000
,
0010
0001
1000
0001
,
1001
0001
0011
0010
,
0110
0100
1100
0000
,
1001
0001
0101
0100
,
1010
0101
1010
1100
,
1001
0000
1000
0001
0000
1000
0001
0000
,
1000
0001
0000
1000
0001
0000
1001
0000
,
0010
0000
0100
0010
0000
0100
0010
0000
,
0100
0010
0000
0100
0010
0000
0110
0000
,
1000
0000
0010
1000
0000
1000
0001
0000
,
0001
0010
0000
0010
0100
0000
1100
0000
,
1000
0000
1000
0100
0000
0010
0001
0000
,
0001
0200
0000
1300
0200
0000
0310
0000
,
1002
0023
0032
0203
,
0320
0000
1030
0100
0002
0000
0203
0000
,
0320
0230
2300
3020
,
0200
0000
0000
0330
,
0102
0103
2010
3010
,
2100
3100
0021
0031
,
2000
3010
0200
0301
,
0010
0100
1000
0010
0100
0001
1001
0000
,
0201
0310
1200
0310
,
0210
0000
1300
0100
0002
0000
0103
0000
,
0021
0130
1020
0130
,
2002
0000
0000
3003
,
0101
1010
1100
0011
,
0110
1100
0110
0011
,
1001
0101
1010
1001
,
0001
0010
0100
1000
0100
0010
0100
1000
,
0001
0010
0001
0100
,
0010
0000
1000
0100
1000
0000
0100
0000
,
1000
0010
1000
0001
,
1000
0000
0000
0000
,
0010
1000
0100
0010
,
0001
0010
0100
1000
,
0100
1000
0010
0100
,
0001
0010
0001
1000
;

//---------------dance-single - ----------------
#NOTES:
     dance-single:
     :
     Hard:
     16:
     0.720301,1.070871,0.192447,0.115468,0.531153,655.000000,630.000000,25.000000,15.000000,0.000000,0.000000,0.720301,1.070871,0.192447,0.115468,0.531153,655.000000,630.000000,25.000000,15.000000,0.000000,0.000000:
0000
0000
0000
0000
,
0000
0000
0000
0000
,
0000
0000
0000
0000
,
0000
0000
0000
0000
,
1000
0010
0100
0001
,
0010
1000
0010
0100
,
1000
0010
0100
0001
,
0010
0001
0020
0200
,
0000
0000
0000
0000
,
0000
0000
0000
0030
0000
0300
0000
0000
,
1001
0021
0100
0130
,
0001
0000
1000
0010
1000
0000
0100
0000
,
1100
1020
0100
0130
,
0001
0000
1000
0001
1000
0000
0001
0000
1000
0001
1000
0000
0020
0000
0000
0000
,
0130
2010
0001
3001
,
0010
0000
0100
0010
0002
0000
2003
0000
,
3010
0000
1000
0100
0010
0100
1000
0001
,
1000
0000
0001
1000
0001
0000
1000
0000
0001
1000
0001
0000
0200
0000
0000
0000
,
0301
0000
0000
1000
0100
0000
1000
0000
0001
0000
0000
0010
0001
0000
0100
0000
,
0001
0000
0000
0100
0001
0000
0010
0000
0001
0000
0000
1000
0100
0000
1000
0000
,
0001
0000
0000
0010
0001
0000
0100
0000
0010
0000
0000
0100
0010
0000
1000
0000
,
0100
0000
0000
0010
0100
0000
1000
0000
0001
0000
0000
1000
0010
0000
0100
0000
,
0001
1000
0010
0000
0100
0000
0001
0000
0010
0100
1000
0000
0100
0000
0010
0000
,
0001
0100
0010
0000
1000
0000
0100
0000
0010
0001
0100
0000
0010
0000
1000
0000
,
0100
0010
0100
0010
0100
0001
1000
0001
1000
0001
0100
0001
0010
0001
0100
0010
,
2000
3020
0000
0100
0200
0330
1001
0000
,
0100
0000
0001
0000
0100
0010
1000
0000
,
0101
0000
0100
0100
0100
0100
0001
0000
,
1000
0100
0001
0100
,
0010
0001
0100
1000
0100
0010
1000
0001
,
0010
0000
0100
0000
1000
0010
1000
0000
,
0101
0000
0001
0001
0001
0001
1000
0000
,
0001
0010
1000
0010
,
0100
0010
0001
0100
0001
1000
0100
1000
,
0000
0000
0001
0000
0010
0000
0010
0000
0100
0000
0100
0000
1000
0010
1000
0000
,
0000
0000
1000
0000
0001
0000
0001
0000
0100
0000
0100
0000
0010
1000
0010
0000
,
0000
0000
0010
0000
0100
0000
0100
0000
0001
0000
0001
0000
1000
0100
1000
0000
,
0000
1000
0100
0001
0100
0010
0100
0010
,
0000
0000
0100
0000
0010
0000
0010
0000
0001
0000
0001
0000
1000
0001
0100
0000
,
0000
0000
0010
0000
1000
0000
1000
0000
0100
0000
0100
0000
0010
0001
1000
0000
,
0000
0000
0001
0000
0100
0000
0100
0000
0010
0000
0010
0000
1000
0001
0100
0000
,
0000
0010
0100
0100
0010
1000
0001
0100
,
1001
0000
0000
0000
1000
0100
1000
0100
0010
0000
0000
0000
0001
1000
0001
1000
,
0010
0000
0000
0000
0100
0001
0010
0001
1000
0000
0000
0000
1001
0000
0000
0000
,
0101
0000
0000
0000
0100
0010
0100
0010
1000
0000
0000
0000
0001
1000
0001
1000
,
0010
0000
0000
0000
0100
0001
0010
0100
0010
0000
0000
0000
1100
0000
0000
0000
,
1001
0000
0000
0000
0001
0010
0001
0010
0100
0000
0000
0000
1000
0001
1000
0001
,
0100
0000
0000
0000
0010
1000
0100
1000
0001
0000
0000
0000
1001
0000
0000
0000
,
0001
0000
0000
0000
1000
0100
0010
0001
1000
0000
0000
0000
0001
0010
0100
1000
,
0010
0000
0000
0000
0100
0010
1000
0001
0020
0000
0000
0000
0130
0000
0000
0000
,
1001
0000
0000
0000
1000
0000
0001
0100
,
0010
0000
0100
0010
1000
0000
0000
0000
,
0010
0000
0000
1000
0010
0000
0100
0000
,
0001
0010
0001
1000
,
1001
0000
0001
0100
0110
0000
1000
0001
,
0101
0000
0001
1000
1001
0000
1000
0000
,
1001
0000
0001
0010
0011
0000
0101
0000
,
0001
0000
0100
0010
0100
0000
0010
0000
1000
0000
0000
0000
0011
0000
0000
0000
,
0001
0100
0001
0100
0010
0000
0100
0010
0100
0010
1000
0000
0001
0010
0001
0010
,
0100
0000
1000
0100
1000
0100
0010
0000
0001
0010
0001
0100
0010
1000
0001
0010
,
0100
0010
0100
0010
0001
0000
1000
0001
1000
0001
0010
0000
0100
1000
0100
1000
,
0001
0000
1000
0010
1000
0010
0100
0000
0001
0100
0010
1000
0001
0010
0100
1000
,
0001
0100
0001
0100
0001
0000
1000
0010
1000
0010
1000
0000
0001
0100
0001
0100
,
0010
1000
0100
0010
0001
1000
0100
0010
0001
1000
0100
0010
0001
0010
0100
0010
,
0001
1000
0010
1000
0001
0000
1000
0001
0100
0001
1000
0000
0001
1000
0010
1000
,
0100
0000
0020
0000
0000
0000
0100
0000
0200
0000
0330
0000
1001
0000
0000
0001
,
1000
0000
0000
1000
0010
0000
0000
0010
0100
0000
0000
0100
0001
0000
0010
0000
,
0100
0000
0000
0010
0001
0000
1000
0000
0001
0000
0000
0000
0100
0000
0000
0001
,
1000
0000
0000
1000
0001
0000
0000
0010
0100
0000
0000
0100
1000
0000
0000
1000
,
0001
1000
0010
1000
0100
0010
0001
1000
,
0001
0000
0000
1000
0010
0000
0000
0100
0001
0000
0000
0001
0010
0000
0000
0100
,
1000
0000
0000
1000
0001
0000
0000
0001
0100
0000
0000
0100
0010
0000
0000
0010
,
1000
0000
0000
1000
0001
0000
0000
0001
0010
0000
0000
0010
0001
0000
0000
0001
,
1000
0000
0001
0100
0001
0000
1000
0000
0100
1000
0100
0000
1001
0000
0000
0000
,
0001
0100
0010
1000
0100
1000
0001
0010
,
0001
0100
0010
0001
0010
1000
0100
1000
,
0001
0100
0010
0100
0001
1000
0010
1000
,
0100
1000
0100
1000
0100
0010
0001
1000
,
0010
0000
1000
0010
1000
0000
0010
0100
0010
0000
0100
0001
0100
0000
0001
1000
,
0001
0000
1000
0100
1000
0000
0100
0010
0100
0000
0010
0001
0010
0000
0001
0000
,
1000
0010
0001
0010
0100
1000
0100
0001
,
1000
0100
1000
0100
0010
0100
0010
0001
1000
0100
0010
0100
1000
0100
0010
0001
,
1000
0010
1000
0100
,
0010
0000
0001
0010
0001
0000
0100
0000
,
0010
1000
0010
0100
,
0001
0000
0000
0000
,
0010
1000
0010
0001
,
0100
1000
0100
0010
,
1000
0100
1000
0001
,
1000
0010
0001
0100
;

//---------------dance-double - ----------------
#NOTES:
     dance-double:
     :
     Easy:
     6:
     0.293619,0.345442,0.030791,0.115468,0.000000,267.000000,263.000000,4.000000,15.000000,0.000000,0.000000,0.293619,0.345442,0.030791,0.115468,0.000000,267.000000,263.000000,4.000000,15.000000,0.000000,0.000000:
00000000
00000000
00000000
00000000
,
00000000
00000000
00000000
00000000
,
00000000
00000000
00000000
00000000
,
00000000
00000000
00000000
00000000
,
00000000
00000000
00000000
00000000
,
00000000
00000000
00000000
00000000
,
00000000
00000000
00000000
00000000
,
00000000
00000000
00000000
00000000
,
00000000
00000000
00000000
00000000
,
00000000
00000000
00000000
00000000
,
20010000
00000000
31000000
00000000
,
00100000
01000000
00100000
00010000
,
00002000
00000000
00013000
00000000
,
00001000
00100000
01000000
00100000
,
00002000
00000000
00013000
00000000
,
00000010
00000100
00000001
00000100
,
00000020
00000000
00000130
00000000
,
00000001
00000001
00001000
00001000
,
00000001
00000010
00000001
00000010
,
00000100
00010000
00000100
00010000
,
00001000
00010000
00001000
00010000
,
01000000
00100000
01000000
00100000
,
10000000
01000000
00100000
01000000
,
10000000
00001000
01000000
00001000
,
00020000
00000000
00032000
00000000
,
00013000
00000000
00000000
00000000
,
00011000
00010000
00000010
00010000
,
00000001
00000001
00000001
00000001
,
00000010
00000100
00000010
00000001
,
00010000
00010000
00000100
00000100
,
00010000
00001000
00100000
01000000
,
10000000
10000000
10000000
10000000
,
01000000
00100000
00010000
00100000
,
01000000
01000000
01000000
01000000
,
10000000
00100000
01000000
00001000
,
10000000
00100000
01000000
00001000
,
00010000
00001000
00010000
00001000
,
00010000
00000100
00000010
00000100
,
00010000
00000010
00000100
00000001
,
00010000
00000010
00000100
00000001
,
00000010
00000100
00000010
00000001
,
00002002
00000000
00000000
00003003
,
00000001
00000010
00000001
00000100
,
00000010
00000100
00000001
00000010
,
00000001
00010000
00000010
00000100
,
00000010
00010000
00000010
00000100
,
00000010
00010000
00001000
00100000
,
01000000
00100000
00001000
01000000
,
00200000
00000000
00000000
00000000
,
01300000
00000000
10010000
10000000
,
00020000
00000000
00000000
00000000
,
20030000
00000000
00000000
00000000
,
32000000
00000000
00000000
00000000
,
03200000
00000000
00000000
00000000
,
00301000
00000000
00001000
00000000
,
00010000
00000000
00010000
00000000
,
00000100
00000000
00000100
00000000
,
00000010
00000000
00000010
00000000
,
00000001
00001000
00000001
00001000
,
00000001
00000010
00000001
00000010
,
00000100
00010000
00000100
00010000
,
00001000
01000000
00001000
01000000
,
00100000
01000000
00100000
01000000
,
00010000
00100000
01000000
00100000
,
00010000
10000000
00100000
10000000
,
00002000
00000000
00000000
00013000
,
00000010
00010000
00001000
00010000
,
00000010
00000010
00000100
00000100
,
00000001
00000010
00000100
00000010
,
00000001
00000001
00001000
00001000
,
00000010
00000100
00000001
00010000
,
00001000
00001000
01000000
01000000
,
00100000
10000000
01000000
00100000
,
00001000
00001000
00010000
00010000
,
00000100
00000010
00000100
00010000
,
00000001
00000001
00000100
00000100
,
00000001
00000010
00000100
00000010
,
00000001
00000001
00000100
00000100
,
00000010
00010000
00001000
00010000
,
00001000
01000000
00100000
01000000
,
00001000
10000000
01000000
00100000
,
01000000
10000000
00100000
01000000
,
00001000
00000000
00001000
00000000
,
00001000
00010000
00000010
00000000
,
00000100
00000000
00000100
00000000
,
00000200
00000000
00000000
00000000
,
00000301
00000000
00000010
00000000
,
00000100
00000000
00010000
00000000
,
00001000
00000000
00001000
00000000
,
01000000
00000000
00100000
10000000
;

//---------------dance-double - ----------------
#NOTES:
     dance-double:
     :
     Challenge:
     17:
     0.779685,1.155836,0.269426,0.177051,0.642772,709.000000,674.000000,35.000000,23.000000,0.000000,0.000000,0.779685,1.155836,0.269426,0.177051,0.642772,709.000000,674.000000,35.000000,23.000000,0.000000,0.000000:
00000000
00000000
00000000
00000000
,
00000000
00000000
00000000
00000000
,
00000000
00000000
00000000
00000000
,
00000000
00000000
00000000
00000000
,
00000000
00000000
00000000
00000000
,
00000000
00000000
00000000
00000000
,
00000000
00000000
00000000
00000000
,
00000000
00000000
00000000
00000000
,
00000000
00000000
00000000
00000000
,
00000000
00000000
00000000
00000000
,
10010000
10000000
11000000
01000000
,
00200000
00000000
00301000
00010000
00002000
00000000
00013000
00000000
,
00000010
00000100
00000101
00000001
,
00000020
00000000
00000100
00000100
00000000
00000100
00000130
00000000
,
00001000
00010000
01100000
01000000
,
00200000
00000000
10300000
00010000
20000000
00000000
30010000
00000000
,
10000000
00000000
00100000
00100000
01000000
01000000
00001000
00000000
,
00020000
00000000
00000100
00000100
00000000
00000100
00030100
00000000
,
00000010
00000001
00000100
00000001
00000010
00000001
00000100
00000010
,
00010000
00000100
00010000
00001000
00010000
00000100
00010000
00001000
,
00100000
00000000
00000000
01000000
10000000
00000000
00000000
00010000
10000000
00000000
00000000
00010000
01000000
00000000
00000000
00000000
,
00001000
00000000
00000000
00010000
00001000
00000000
00000000
00010000
00000010
00000000
00000000
00010000
00001000
00000000
00000000
00000000
,
00000100
00000000
00000010
00000001
00000010
00000001
00000010
00000001
00000010
00000000
00000100
00000000
00001000
00000000
00010000
00000000
,
00100000
00000000
01000000
00100000
01000000
00100000
01000000
00100000
01000000
00000000
10000000
00000000
00100000
00000000
01000000
00000000
,
00001000
01000000
00001000
01000000
00001000
01000000
00001000
01000000
00100000
01000000
00100000
01000000
00100000
01000000
00100000
01000000
,
00200000
00000000
00000000
01300000
,
10010000
00010000
00100000
00010000
10000000
01000000
00010000
01000000
,
20000000
00000000
00100000
00100000
00100000
00100000
30100000
00000000
,
01000000
00001000
00010000
00000100
00000010
00000100
00010000
00000010
,
00000001
00000010
00010000
00000100
00000010
00000100
00010000
00000000
,
00000110
00000010
00000100
00000001
00001000
00000010
00000001
00000010
,
00002000
00000000
00000100
00000100
00000100
00000100
00003100
00000000
,
00010000
00001000
01000000
00100000
01000000
00001000
00100000
10000000
,
00100000
00001000
00100000
01000000
00100000
00001000
01000000
10000000
,
01000000
00000000
00001000
00000000
00001000
00000000
00010000
00000000
00010000
00000000
00000100
00000000
00000010
00000001
00000010
00000001
,
00000010
00000000
00000100
00000000
00000100
00000000
00010000
00000000
00010000
00000000
00001000
00000000
00100000
01000000
00100000
01000000
,
00100000
00000000
00001000
00000000
00001000
00000000
01000000
00000000
01000000
00000000
00100000
00000000
10000000
01000000
10000000
01000000
,
10000000
00000000
00010000
00000000
00010000
00000000
01000000
00000000
01000000
00000000
00001000
00000000
00010000
00001000
00010000
00001000
,
00010000
00000000
00010010
00000000
00000010
00000000
00000110
00000000
00000100
00000000
00000101
00000000
00000001
00001000
00000001
00001000
,
00000001
00000000
00001001
00000000
00001000
00000000
00001100
00000000
00000100
00000000
00010100
00000000
00010000
00001000
00010000
00001000
,
00010000
00011000
00001000
00101000
00100000
01100000
01000000
11000000
,
10020000
00000000
00100000
00130000
,
10010000
00000000
00000000
00000000
10000000
00100000
10000000
00100000
10000000
00000000
00000000
00000000
00001000
00100000
00001000
00100000
,
00001000
00000000
00000000
00000000
00010000
00001000
00010000
00001000
00010000
00000000
00000100
00000000
00000020
00000000
00000030
00000000
,
00001001
00000000
00000000
00000000
00000001
00000100
00000001
00000100
00000001
00000000
00000000
00000000
00010000
00000100
00010000
00000100
,
00010000
00000000
00000000
00000000
00001000
00010000
00001000
00010000
00001000
00000000
01000000
00000000
00200000
00000000
00300000
00000000
,
10010000
00000000
00000000
00000000
10000000
00100000
10000000
00100000
10000000
00000000
00000000
00000000
00100000
01000000
00100000
01000000
,
00100000
00000000
00000000
00000000
01000000
00010000
01000000
00010000
01000000
00000000
00010000
00000000
00002000
00000000
00003000
00000000
,
00000020
00000000
00000000
00000000
00000000
00000000
00000000
00000000
00000000
00000000
00000000
00000000
00000130
00000001
00000100
00000001
,
00000010
00000000
00000000
00000000
00000100
00010000
00000100
00010000
00001000
00000000
00100000
00000000
01000000
00000000
00000000
00000000
,
20100000
00000000
00000000
00000000
30200000
00000000
01300000
00001000
,
00010000
00000000
00000100
00000010
00000001
00000000
00000000
00000000
,
00000200
00000000
00000000
00000001
00000301
00000000
00001000
00000000
,
00000100
00001000
00010000
00100000
,
01100000
00000000
10000000
00010000
10010000
00000000
10010000
00000000
,
10000000
00000000
00100000
01000000
01100000
00000000
01100000
00000000
,
01000000
00000000
00001000
00010000
00011000
00000000
00011000
00000000
,
00000010
00000000
00010000
00000010
00010000
00000000
00000010
00000000
00000100
00000000
00000000
00000000
00000101
00000000
00000000
00000000
,
00000001
00000000
00000100
00000010
00000100
00000000
00000001
00000000
00000100
00000010
00000100
00000000
00000001
00000000
00010000
00000100
,
00010000
00000000
00000001
00000000
00010000
00000100
00010000
00000000
00000010
00000100
00000010
00000100
00000001
00000010
00000100
00000000
,
00010000
00000000
00001000
01000000
00001000
00000000
00010000
00000000
00001000
01000000
00001000
00000000
00010000
00000000
00100000
01000000
,
00100000
00000000
00010000
00000000
00100000
01000000
00100000
00000000
00010000
01000000
00010000
01000000
00100000
10000000
01000000
00000000
,
10000000
00010000
10000000
00010000
10000000
00000000
00100000
10000000
00100000
10000000
01000000
00000000
00100000
00001000
00100000
00001000
,
00010000
00000000
00000100
00000000
00000010
00000000
00000001
00000000
00000100
00000000
00000001
00000000
00001000
00000100
00000010
00000000
,
00000001
00000100
00000001
00000100
00000001
00000100
00000001
00000100
00000010
00000100
00000010
00000100
00000010
00000100
00000010
00000100
,
00000020
00001000
00000000
00001000
00001030
00000000
00001001
00000000
,
00000001
00000100
00000001
00000100
00000010
00000000
00010000
00000100
00010000
00001000
00010000
00000000
00001000
01000000
00001000
00000000
,
01000000
00100000
01000000
00100000
10000000
00000000
10000000
00000000
00001000
00100000
00001000
00000000
00010000
00001000
00010000
00000000
,
00000010
00010000
00000010
00010000
00000001
00000000
00000010
00000100
00001000
00000000
00010000
01000000
00010000
01000000
00100000
00000000
,
10000000
00001000
10000000
00001000
01000000
00001000
01000000
00001000
00010000
00001000
00010000
00001000
00010000
00000010
00010000
00000010
,
00000100
00000000
00000001
00000010
00000100
00000000
00000100
00000000
00010000
00000000
00010000
00001000
01000000
00000000
00100000
10000000
,
01000000
00000000
00100000
00010000
00100000
00000000
00001000
00010000
00001000
00000000
00010000
00000010
00010000
00000010
00010000
00000000
,
00000010
00000000
00000100
00000001
00000010
00000000
00000010
00000000
00000001
00000100
00000001
00000100
00000001
00010000
00000001
00010000
,
00001000
00010000
00001000
00010000
00100000
00000000
01000000
00000000
10000000
00000000
10000000
00000000
00100000
00000000
00100000
00000000
,
10000000
01000000
00100000
01000000
10000000
00000000
00001000
01000000
00001000
01000000
00010000
00001000
00010000
00001000
00000010
00000100
,
00000010
00000100
00000001
00000010
00000100
00000000
00010000
00000000
00001000
00100000
00001000
00000000
00100000
01000000
10000000
00000000
,
00010000
01000000
00100000
01000000
00010000
00000000
10000000
01000000
10000000
01000000
00100000
00001000
00100000
00001000
00010000
00000100
,
00010000
00000100
00000010
00000001
00000010
00000001
00000100
00000010
00000100
00000010
00001000
00000100
00000010
00000100
00001000
00000010
,
00010000
00000100
00010000
00000010
00010000
00000000
00001000
00000000
00001000
00000000
00100000
00000000
00100000
00000000
01000000
00000000
,
10000000
00010000
01000000
00000000
00010000
01000000
00001000
00000000
00010000
00001000
00010000
00000000
00000100
00000010
00000001
00000000
,
00000100
00000010
00000100
00000010
00000100
00000001
00000100
00000001
00010000
00000100
00010000
00000100
00010000
00001000
00010000
00001000
,
01000000
00100000
01000000
00001000
01000000
00100000
01000000
00001000
00100000
01000000
10000000
01000000
00100000
00010000
00001000
00000000
,
00000120
00000100
00000001
00000031
,
00000110
00000000
00000100
00000010
00010000
00000000
00010000
00000000
,
00011000
00001000
00100000
01000000
,
20020000
00000000
00000000
30030000
,
21000000
01000000
00010000
30010000
,
10000000
00100000
01000000
00001000
,
00010000
00010000
00000100
00000100
,
00000010
00000001
00000100
00000020
,
00000000
00000000
00000000
00000000
,
00000030
00000000
00000000
00000000
;

//---------------dance-double - ----------------
#NOTES:
     dance-double:
     :
     Medium:
     11:
     0.502561,0.630456,0.423383,0.284821,0.000000,457.000000,402.000000,55.000000,37.000000,0.000000,0.000000,0.502561,0.630456,0.423383,0.284821,0.000000,457.000000,402.000000,55.000000,37.000000,0.000000,0.000000:
// measure 0
00000000
00000000
00000000
00000000
,  // measure 1
00000000
00000000
00000000
00000000
,  // measure 2
00000000
00000000
00000000
00000000
,  // measure 3
00000000
00000000
00000000
00000000
,  // measure 4
10000000
00100000
01000000
00010000
,  // measure 5
00100000
00001000
00000100
00000001
,  // measure 6
00000100
00000010
00000001
00000100
,  // measure 7
00000010
00010000
00002000
02000000
,  // measure 8
00000000
00000000
00000000
00000000
,  // measure 9
00000000
00000000
00000000
00003000
00000000
03000000
00000000
00000000
,  // measure 10
01010000
01000000
00100000
10000000
,  // measure 11
01000000
00010000
01000000
00100000
,  // measure 12
00001000
00010000
00000100
00000010
,  // measure 13
00000001
00000010
00000100
00000010
00000001
00001000
00001020
00000000
,  // measure 14
00000130
00000010
00010000
00001000
,  // measure 15
00100000
00000000
01000000
10000000
00100000
00000000
01000000
00000000
,  // measure 16
00010000
00000000
00100000
00001000
00010000
00000100
00010000
00001000
,  // measure 17
00100000
10000000
00100000
00010000
01000000
00100000
10010000
00000000
,  // measure 18
12000000
03100000
00210000
00301000
,  // measure 19
00010000
00000100
00000001
00000100
,  // measure 20
00002010
00003100
00000021
00000130
,  // measure 21
00000010
00000001
00001001
00010100
,  // measure 22
00110000
00000000
00100000
00010000
00100000
00000000
00100000
00001000
,  // measure 23
00010000
00000000
00000100
00000010
00000001
00000000
00000010
00000100
,  // measure 24
00000001
00001000
00000001
00001000
00000010
00000100
00000010
00000100
,  // measure 25
00000010
00010000
00000000
00001000
01000000
00000000
10100000
00000000
,  // measure 26
10000000
01000000
00010000
01000000
,  // measure 27
00100000
00000000
00010000
01000000
00010000
01000000
00010000
00000000
,  // measure 28
01000000
00100000
10000000
00010000
,  // measure 29
00100000
00001000
00010000
00000100
00000010
00000001
00000100
00000010
,  // measure 30
00001000
00000001
00000010
00000001
,  // measure 31
00000100
00000000
00000010
00001000
00000010
00001000
00000010
00000000
,  // measure 32
00001000
00000100
00010000
00001000
,  // measure 33
00010000
00100000
01000000
10000000
00010000
01000000
00001000
00010000
,  // measure 34
00000000
00000100
00001000
00000001
00001000
00000001
00001000
00000001
,  // measure 35
00000000
00000100
00000010
00001000
00000010
00001000
00000010
00001000
,  // measure 36
00000000
00000001
00000010
00000100
00000010
00000100
00000010
00000100
,  // measure 37
00000000
00001000
00000100
00010000
00001000
00100000
00010000
01000000
,  // measure 38
00000000
00100000
10000000
00100000
10000000
00100000
10000000
00010000
,  // measure 39
00000000
00100000
01000000
00100000
01000000
00100000
01000000
10000000
,  // measure 40
00000000
00010000
00100000
00010000
00100000
00010000
00100000
01000000
,  // measure 41
00200000
00000000
00000000
00000000
,  // measure 42
00310000
02010000
03100000
20100000
,  // measure 43
31000000
10020000
00130000
00001000
,  // measure 44
00001010
00000102
00000013
00002100
,  // measure 45
00003010
00000201
00000310
00010000
,  // measure 46
00011000
00201000
00310000
00010200
,  // measure 47
00001300
00021000
00031000
00100000
,  // measure 48
01000000
00000000
10000000
01000000
00010000
00000000
00010000
01000000
,  // measure 49
10000000
00000000
10000000
00010000
00200000
00000000
00302000
00000000
,  // measure 50
00013000
00000000
00100000
00000000
,  // measure 51
01000000
00000000
10000000
00000000
,  // measure 52
00010000
00000000
01000000
00001000
,  // measure 53
00010000
00000100
00001000
00000010
,  // measure 54
00000110
00000000
00000001
00000000
00001000
00000000
00000100
00010000
,  // measure 55
00001000
00000000
00010000
00000100
00001000
00000000
00000010
00000000
,  // measure 56
00000100
00000000
00000010
00010000
00001000
00000000
00010000
00000000
,  // measure 57
00100000
10000000
00100000
01100000
,  // measure 58
10010000
00000000
10000000
00010000
00000000
00010000
00100000
00000000
,  // measure 59
00100000
01000000
00000000
01000000
10000000
00000000
10010000
00000000
,  // measure 60
00110000
00000000
00100000
00001000
00000000
00001000
00010000
00000000
,  // measure 61
00010000
00000100
00000000
00000100
00001000
00000000
00001100
00000000
,  // measure 62
00001001
00000000
00000001
00000010
00000000
00000010
00000001
00000000
,  // measure 63
00000001
00000100
00000000
00000100
00000010
00000000
00001010
00000000
,  // measure 64
00000010
00001000
00000100
00010000
00100000
01000000
00100000
00010000
,  // measure 65
01000000
00001000
00000000
00010000
00002000
00000000
00003010
00000000
,  // measure 66
00000002
00000103
00000020
00001030
,  // measure 67
00000200
00000000
00010300
00001000
00020000
00000000
00030100
00000000
,  // measure 68
00000020
00000032
00000203
00000320
,  // measure 69
00002030
00000100
00000100
00003100
,  // measure 70
00011000
00010000
00110000
00100000
,  // measure 71
01100000
01000000
11000000
10000000
,  // measure 72
10010000
00010000
00110000
00100000
,  // measure 73
00001000
00000000
00001000
00010000
00000000
00010000
00011000
00000000
,  // measure 74
00002100
00003010
00000102
00000013
,  // measure 75
00000110
00000000
00000100
00000001
00000010
00000000
00001000
00000000
,  // measure 76
00001200
00010300
00012000
01003000
,  // measure 77
02010000
00100000
00100000
03100000
,  // measure 78
10100000
01010000
00110000
11000000
,  // measure 79
10010000
00110000
00101000
00011000
,  // measure 80
00001100
00000110
00000011
00000101
,  // measure 81
00000001
00000100
00000010
00001000
00000100
00010000
00001000
01000000
,  // measure 82
00100000
10000000
01000000
00010000
,  // measure 83
01000000
00000000
00100000
00001000
00010000
00000000
00000100
00000000
,  // measure 84
00000010
00000001
00000100
00001000
,  // measure 85
00020000
00000000
00000000
00000000
,  // measure 86
00031000
00100000
00001000
00010000
,  // measure 87
00000100
00000010
00000001
00000100
,  // measure 88
00001000
01000000
10000000
00100000
,  // measure 89
01000000
00010000
00200000
00002000
,  // measure 90
00000000
00000000
00000000
00000000
,  // measure 91
00303000
00000000
00000000
00000000
;

//---------------dance-double - ----------------
#NOTES:
     dance-double:
     :
     Hard:
     16:
     0.704905,1.085785,0.300217,0.138562,0.465721,641.000000,602.000000,39.000000,18.000000,0.000000,0.000000,0.704905,1.085785,0.300217,0.138562,0.465721,641.000000,602.000000,39.000000,18.000000,0.000000,0.000000:
00000000
00000000
00000000
00000000
,
00000000
00000000
00000000
00000000
,
00000000
00000000
00000000
00000000
,
00000000
00000000
00000000
00000000
,
10000000
00100000
01000000
00010000
,
00100000
00001000
00010000
00000100
,
00000001
00000100
00001000
00000010
,
00010000
00001000
02000000
00200000
,
00000000
00000000
00000000
00000000
,
00000000
00000000
00000000
03000000
00000000
00300000
00000000
00000000
,
10200000
01300000
01010000
00101000
,
00011000
00000000
00010000
00000100
00000020
00000000
00000031
00000000
,
00002010
00003100
00010000
00001000
,
01000000
00000000
00100000
10000000
01000000
00000000
00100000
00000000
00001000
00010000
00000100
00000000
00012000
00000000
00000000
00000000
,
01003000
01010000
00110000
00101000
,
00010000
00000100
00001000
00000010
00000100
00000000
00000001
00000000
,
00000010
00000110
00001100
00001001
,
00000001
00000000
00000100
00000010
00001000
00000000
00000100
00000000
00010000
00001000
01000000
00000000
01010000
00000000
00000000
00000000
,
10000000
00100000
10000000
00100000
01000000
00100000
01000000
00100000
,
01000000
00010000
01000000
00010000
00100000
00010000
00100000
00010000
,
00100000
00001000
00100000
00001000
00010000
00000100
00010000
00000100
,
00001000
00000100
00001000
00000100
00000010
00000100
00000010
00000100
,
00002000
00000000
00003100
00010000
00002000
00000000
00103000
00001000
,
00020000
00000000
00030010
00001000
00000200
00000000
00000310
00000001
,
00000010
00000100
00000001
00001000
00000100
00010000
00001000
00010000
00100000
01000000
10000000
00100000
01000000
00010000
00100000
01000000
,
20000000
01000000
30000000
02000000
00100000
03000000
00011000
00000000
,
00010100
00001000
00000010
00000100
,
00000011
00000000
00000010
00000100
00010000
00001000
00100000
00000000
,
01000000
10000000
00100000
01000000
,
00010000
00100000
10000000
00100000
00010000
01000000
00001000
00010000
,
00000100
00000000
00000011
00000000
00000001
00001000
00000100
00000000
,
00001000
00000000
00000100
00010000
00001000
01000000
00100000
00000000
,
10000000
00100000
01000000
00001000
,
00010000
00000100
00001000
00000010
00000001
00000100
00001000
00000100
,
00000000
00000010
00000100
00000001
00000010
00000010
00000100
00000100
,
00000000
00010000
00001000
00010000
00000100
00000100
00010000
00010000
,
00000000
00001000
01000000
00100000
10000000
10000000
00010000
00010000
,
00000000
00100000
00001000
00010000
00000100
00000010
00000001
00001000
,
00000000
00000010
00001000
00000100
00000010
00000010
00000001
00000001
,
00000000
00000100
00000010
00001000
00000100
00000100
00001000
00001000
,
00000000
00000100
00010000
00001000
00100000
00100000
00010000
00010000
,
00000000
01000000
00001000
00010000
00000100
00000001
00000100
00001000
,
00000010
00000000
00000000
00000000
00000100
00000001
00000100
00000010
00001000
00000000
00000000
00000000
00000100
00010000
00001000
00100000
,
00010000
00000000
00000000
00000000
01000000
10000000
00100000
01000000
00010000
00000000
00000000
00000000
10000000
00000000
00000000
00000000
,
11000000
00000000
00000000
00000000
01000000
00100000
00010000
01000000
00010000
00000000
00000000
00000000
00100000
00001000
00010000
00000100
,
00000010
00000000
00000000
00000000
00000100
00000010
00000001
00001000
00000010
00000000
00000000
00000000
00001000
00000000
00000000
00000000
,
00001100
00000000
00000000
00000000
00000100
00000010
00000001
00001000
00000010
00000000
00000000
00000000
00001000
00000100
00010000
00100000
,
01000000
00000000
00000000
00000000
00100000
00010000
10000000
00010000
01000000
00000000
00000000
00000000
00100000
00000000
00000000
00000000
,
10010000
00000000
00000000
00000000
00100000
00001000
00010000
00000100
00000010
00000000
00000000
00000000
00000010
00000100
00001000
00010000
,
00001000
00000000
00000000
00000000
00010000
00100000
01000000
10000000
00020000
00000000
00000000
00000000
00230000
00000000
00000000
00000000
,
00301000
00000000
00000000
00000000
00010000
00000000
00100000
01000000
,
10000000
00000000
10000000
00010000
01000000
00000000
00000000
00000000
,
00010000
00000000
00000000
00100000
00001000
00000000
00010000
00000000
,
00000100
00001000
00000010
00000100
,
00001001
00000000
00000001
00000100
00000110
00000000
00000010
00001000
,
00001100
00000000
00000100
00010000
00011000
00000000
00001000
00000000
,
00101000
00000000
00100000
00010000
01010000
00000000
01000000
00000000
,
00100000
00000000
10000000
00010000
10000000
00000000
00010000
00000000
00100000
00000000
00000000
00000000
10010000
00000000
00000000
00000000
,
00010000
01000000
00010000
01000000
00001000
00000000
00010000
00000100
00010000
00000100
00001000
00000000
00000100
00000010
00000100
00000010
,
00000001
00000000
00000100
00000010
00000100
00000010
00001000
00000000
00000100
00001000
00000100
00001000
00000100
00010000
00001000
00010000
,
00100000
01000000
00100000
01000000
10000000
00000000
00010000
01000000
00010000
01000000
00100000
00000000
01000000
00010000
01000000
00010000
,
00100000
00000000
01000000
00100000
01000000
00100000
00010000
00000000
00100000
00001000
00100000
00001000
00010000
00000100
00001000
00000010
,
00000100
00000001
00000100
00000001
00000010
00000000
00000100
00001000
00000100
00001000
00000001
00000000
00001000
00000010
00001000
00000010
,
00000100
00000010
00001000
00000100
00010000
00100000
10000000
00100000
01000000
10000000
01000000
00100000
00010000
01000000
00100000
10000000
,
00010000
00100000
00010000
00100000
00001000
00000000
00010000
00000100
00010000
00000100
00001000
00000000
00000100
00000010
00000100
00000010
,
00000001
00000000
00000100
00000000
00000000
00000000
00000010
00000000
00001000
00000000
00000000
00000000
00011000
00000000
00000000
00001000
,
01000000
00000000
00000000
01000000
00100000
00000000
00000000
00100000
10000000
00000000
00000000
10000000
00100000
00000000
01000000
00000000
,
00010000
00000000
00000000
00000000
00100000
00000000
00001000
00000000
00010000
00000000
00000000
00000010
00000100
00000000
00000000
00000000
,
00000101
00001010
00011000
00110000
,
21000000
00000000
00000000
00000000
01000000
00000000
00000000
00000000
00100000
00000000
00000000
00000000
31000000
00000000
00000000
00100000
,
00010000
00000000
00000000
00010000
01000000
00000000
00000000
01000000
00001000
00000000
00000000
00001000
00010000
00000000
00000000
00010000
,
00001000
00000000
00000000
00001000
00100000
00000000
00000000
00001000
00010000
00000000
00000000
00010000
00000100
00000000
00000000
00000100
,
00000010
00000000
00000000
00000010
00000001
00000000
00000000
00000001
00000100
00000000
00000000
00000010
00001000
00000000
00000000
00001000
,
00000100
00000000
00010000
00001000
01000000
00000000
00100000
00000000
10000000
01000000
00100000
00000000
00110000
00000000
00000000
00000000
,
01000000
00010000
00100000
00001000
00010000
00000100
00000001
00000100
,
00000010
00000001
00000100
00000010
00001000
00000100
00010000
00100000
,
10100000
00110000
00011000
00001010
,
00000021
00000100
00000001
00000130
,
00000010
00000000
00000001
00000100
00000001
00000000
00000100
00000010
00000100
00000000
00000010
00001000
00000010
00000000
00001000
00000100
,
00001000
00000000
00000100
00010000
00000100
00000000
00001000
00010000
00001000
00000000
00001000
00100000
00001000
00000000
00010000
00100000
,
00010000
00000000
01000000
00100000
10000000
00000000
01000000
00100000
00010000
00000000
01000000
00010000
00100000
00000000
00100000
00001000
,
00010000
00001000
00000100
00000001
00000100
00000010
00000001
00000100
00000010
00001000
00000100
00010000
00001000
00010000
00001000
00100000
,
01000000
10000000
00100000
01000000
,
00010000
00000000
00100000
00001000
00010000
00000000
00000100
00000000
,
00000010
00001000
00000100
00010000
,
00002000
00000000
00000000
00000000
,
00013000
00000100
00010000
00001000
,
00010000
01000000
00001000
00010000
,
00100000
01000000
00100000
00010000
,
00001000
00000100
00000010
00000200
,
00000000
00000000
00000000
00000000
,
00000300
00000000
00000000
00000000
;
