#TITLE:If;
#SUBTITLE:;
#ARTIST:Pa's Lam System;
#TITLETRANSLIT:;
#SUBTITLETRANSLIT:;
#ARTISTTRANSLIT:;
#CREDIT:DigiMindAxel;
#BANNER:If.png;
#BACKGROUND:If-bg.png;
#LYRICSPATH:;
#CDTITLE:MUSECA.png;
#MUSIC:If.ogg;
#METERTYPE:DDR X;
#OFFSET:-12.758;
#SAMPLESTART:35.314;
#SAMPLELENGTH:12.000;
#SELECTABLE:YES;
#BPMS:0.000=170.000;
#STOPS:184.000=0.35294
,184.500=0.35294
,185.000=0.35294
,185.500=0.35294
;
#BGCHANGES:;

//---------------dance-single - ----------------
#NOTES:
     dance-single:
     :
     Easy:
     5:
     0.226,0.301,0.018,0.219,0.000:
1000
0000
1000
0000
,
0001
0000
0001
0000
,
1000
0000
1000
0000
,
0001
0000
0001
0000
,
0010
0000
0100
0000
,
0010
0000
0100
0000
,
1000
0000
0010
0000
,
0200
0000
0000
0000
,
0310
0000
0010
0000
,
0010
0000
0010
0000
,
0100
0000
0100
0000
,
0100
0000
0100
0000
,
0001
0000
1000
0000
,
0001
0000
1000
0000
,
0001
1000
0001
1000
,
0002
0000
0000
0000
,
0013
0100
0010
0000
,
0001
0100
0010
0000
,
1000
0001
1000
0000
,
0100
0000
1000
0010
,
0100
0000
0001
0000
,
0010
0000
0100
1000
,
0010
0000
0000
0100
0000
0000
0010
0000
,
0000
0100
0000
0000
0010
0000
0000
0000
,
2000
0000
3001
0010
,
0100
0000
1000
0010
,
0100
0000
0001
1000
,
0100
0000
0010
0001
,
0010
0000
0001
1000
,
0100
0000
1000
0100
,
0010
0000
0000
0100
0000
0000
0010
0000
,
0000
0100
0000
0000
0010
0000
0000
0000
,
0002
0000
0000
0000
,
0203
0000
0000
0000
,
0320
0000
0000
0000
,
2030
0000
0000
0000
,
3002
0000
0000
0000
,
0023
0000
0000
0000
,
0230
0000
0000
0000
,
2300
0000
0000
0000
,
3001
0000
0100
0000
,
0001
0000
1000
0000
,
0100
0000
0010
0000
,
0001
0000
1000
0000
,
0002
0000
1003
0000
,
0020
0000
1030
0000
,
0001
1000
0001
1000
0001
0000
0001
0000
,
0000
1000
0100
0010
,
0200
0000
1300
0100
,
0020
0000
0000
0031
,
1000
0100
0010
0001
,
0200
0000
0320
0000
,
2030
0000
3002
0000
,
0013
0000
0000
0100
0000
0000
0010
0000
,
0000
0100
0000
0000
0010
0000
0010
0000
,
0000
0001
0100
0020
,
0000
0000
0130
0000
,
0001
0100
0010
0100
,
0001
0010
0100
1000
,
0200
0000
0000
0000
0310
0000
0000
0110
,
0000
0000
1000
0100
,
0010
0000
0000
0001
0000
0000
0100
0000
,
0000
0020
0000
0000
0000
0000
0030
0000
,
2002
0000
0000
0000
,
0000
0000
0000
0000
,
0000
0000
0000
0000
,
3003
0000
0000
0000
;

//---------------dance-single - ----------------
#NOTES:
     dance-single:
     :
     Medium:
     8:
     0.408,0.663,0.429,0.383,0.000: // measure 1
2000
0000
0100
0000
,  // measure 2
3200
0000
0320
0000
,  // measure 3
0032
0000
1000
0000
,  // measure 4
2003
0000
3020
0000
,  // measure 5
0230
0000
0001
0000
,  // measure 6
0302
0000
2003
0000
,  // measure 7
3020
0000
0100
0000
,  // measure 8
0130
0010
0100
0010
,  // measure 9
1001
0001
0001
0001
,  // measure 10
0010
0010
0010
0010
,  // measure 11
0001
0001
0001
0001
,  // measure 12
1000
1000
1000
1000
,  // measure 13
0010
0100
0010
0100
,  // measure 14
0001
1000
0001
1000
,  // measure 15
0100
0010
0001
1000
,  // measure 16
0002
0000
0000
0003
,  // measure 17
1001
0000
1000
0010
1000
0000
0000
1001
,  // measure 18
0000
0000
0101
0101
,  // measure 19
0110
0000
0000
0000
0010
0000
0000
0110
,  // measure 20
0000
0000
1010
1010
,  // measure 21
1001
0000
0000
0000
0100
0000
0000
0110
,  // measure 22
0000
0000
0011
0011
,  // measure 23
1001
0000
0000
1000
0000
0000
1100
0000
,  // measure 24
0000
0100
0000
0000
0110
0000
0110
0000
,  // measure 25
0000
0000
0002
0000
0000
0103
0000
1001
,  // measure 26
0000
0000
2000
3100
,  // measure 27
1100
0000
0000
0000
0001
0100
0001
1000
,  // measure 28
0000
0000
1010
0010
,  // measure 29
0110
0000
0000
0000
0101
0000
0000
1001
,  // measure 30
0000
0000
1001
1001
,  // measure 31
1100
0000
0000
0100
0000
0000
0110
0000
,  // measure 32
0000
0010
0000
0000
0011
0000
0000
0000
,  // measure 33
0002
0000
0000
0000
1003
0100
1000
0200
,  // measure 34
0000
0010
0010
0310
,  // measure 35
0002
0000
0000
0000
0103
0010
0100
0020
,  // measure 36
0000
1000
1000
1030
,  // measure 37
0002
0000
0000
0000
0013
0100
0010
0200
,  // measure 38
0000
1000
1000
1300
,  // measure 39
0002
1000
1000
1003
,  // measure 40
0020
0000
0130
0100
,  // measure 41
1001
0001
0001
0001
,  // measure 42
0010
0100
1000
0100
,  // measure 43
0010
0010
0010
0010
,  // measure 44
0001
0100
0010
1000
,  // measure 45
0100
0100
0010
0010
,  // measure 46
0001
0001
1000
1000
,  // measure 47
2200
3300
0000
0000
2000
3000
0000
0000
0022
0033
0000
0000
0002
0003
0000
0000
1001
0000
0000
0000
0000
0000
0000
0000
1001
0000
0000
0000
0000
0000
0000
0000
,  // measure 48
0000
0000
0001
1000
0100
1000
0000
0010
,  // measure 49
0200
0001
0302
0203
,  // measure 50
0320
0000
0000
0000
0000
1030
0001
0010
,  // measure 51
0002
0203
0320
2030
,  // measure 52
3001
0010
0001
0000
0100
0000
0000
0120
,  // measure 53
0000
2030
0000
3002
0000
0023
0000
0031
,  // measure 54
1000
0000
0000
1100
0000
0010
0000
0001
,  // measure 55
0000
0100
0010
0000
1001
0000
1001
0000
,  // measure 56
0000
0000
0001
0100
0001
1000
0000
0200
,  // measure 57
0000
0000
0310
0001
1000
0000
1000
0000
,  // measure 58
0001
0010
0100
1000
0010
0000
1000
0100
,  // measure 59
0010
0001
0100
0000
0110
0000
0110
0000
,  // measure 60
1001
0000
0000
0000
1001
0000
0000
1001
,  // measure 61
0000
0000
1000
0001
1000
0000
1100
0000
,  // measure 62
1100
0000
0000
0110
0000
0000
0011
0000
,  // measure 63
0000
0001
1000
0010
0100
0000
0001
0000
,  // measure 64
2002
0000
0000
0000
,  // measure 65
0000
0000
0000
0000
,  // measure 66
0000
0000
0000
0000
,  // measure 67
3003
0000
0000
0000
;

//---------------dance-single - ----------------
#NOTES:
     dance-single:
     :
     Hard:
     11:
     0.575,0.934,0.347,0.438,0.050: // measure 1
1000
0001
1000
0001
,  // measure 2
1000
0100
1000
0010
,  // measure 3
0100
0010
0100
0001
,  // measure 4
0010
0100
0010
0100
,  // measure 5
1000
0010
1000
0010
,  // measure 6
1000
0001
0010
0100
,  // measure 7
1000
0001
1000
0001
,  // measure 8
0100
0010
1000
0001
,  // measure 9
1001
0000
1000
0100
0010
0100
1000
0000
,  // measure 10
0100
0000
0100
1000
0010
0100
0001
0000
,  // measure 11
0010
0000
0010
0100
1000
0001
0100
0000
,  // measure 12
0010
0000
0010
1000
0100
0010
0100
0000
,  // measure 13
0010
0001
0010
0001
1000
0010
1000
0010
,  // measure 14
0100
0001
0100
0001
0010
0100
0010
0100
,  // measure 15
1000
0001
0010
1000
0010
0001
1000
0100
,  // measure 16
0020
0000
0000
0030
,  // measure 17
1001
0000
1000
0100
1000
0010
0000
0110
,  // measure 18
0000
0100
0001
0010
0011
0000
1100
0000
,  // measure 19
1001
0000
0000
0000
0001
0000
0100
0000
0010
0000
0000
1000
0000
1000
0001
0000
,  // measure 20
0000
1000
0100
0010
0001
0001
1000
1000
,  // measure 21
1001
0000
0001
0010
0001
0100
0000
0110
,  // measure 22
0000
0010
0100
0000
0010
0100
0010
0000
1000
0000
0100
0000
0010
0000
0001
0000
,  // measure 23
0200
0000
0001
0302
0000
0010
0023
0000
,  // measure 24
0100
0230
0000
0000
1300
0000
1001
0000
,  // measure 25
0000
0000
0001
0100
0001
1000
0000
1001
,  // measure 26
0000
0001
0100
0010
0200
0000
0301
0000
,  // measure 27
0101
0000
0000
0000
0100
0000
0010
0000
1000
0000
0000
0001
0000
0001
1000
0000
,  // measure 28
0000
0001
0010
0100
1000
1000
0001
0001
,  // measure 29
1001
0000
0000
0000
1000
0000
0001
0000
0101
0000
0000
0101
0000
0000
1001
0000
,  // measure 30
0000
0001
0010
0100
1000
0001
0100
0001
,  // measure 31
2000
0000
0100
3200
0000
0010
0020
0000
,  // measure 32
0330
0022
0000
0033
2002
0000
3003
0000
,  // measure 33
0002
0000
0000
0000
0013
0100
1000
0002
,  // measure 34
0000
0000
0103
0010
0100
0010
1000
0100
,  // measure 35
0020
0000
0031
0100
0010
0100
0001
2000
,  // measure 36
0000
0000
0100
0000
3100
1000
0001
0000
,  // measure 37
0020
0000
0000
0000
0031
1000
0100
0020
,  // measure 38
0000
0000
0001
0000
0031
1000
0100
0000
,  // measure 39
0020
0032
0203
0320
,  // measure 40
2030
0000
0000
0000
3001
0010
0100
1000
,  // measure 41
1001
0000
0000
0000
0001
0000
0000
0000
0001
0000
0000
0000
0001
0000
0100
0010
,  // measure 42
1000
0000
0000
0000
1000
0000
0000
0000
0010
0000
0000
0000
0010
0000
0100
0001
,  // measure 43
1000
0000
0000
0000
1000
0000
0000
0000
1000
0000
0000
0000
1000
0000
0100
0010
,  // measure 44
0001
0001
0100
0100
,  // measure 45
0001
1000
0001
1000
0001
0010
0001
0010
,  // measure 46
0100
1000
0100
1000
0010
0100
0010
0100
,  // measure 47
0202
0303
0000
0000
0202
0303
0000
0000
2020
3030
0000
0000
2020
3030
0000
0000
2002
0000
0000
0000
3003
0000
0000
0000
2002
0000
0000
0000
3003
0000
0000
0000
,  // measure 48
0000
0000
0010
0001
0010
0011
0000
0100
,  // measure 49
1000
0002
1000
1000
1003
0000
0001
0010
,  // measure 50
0100
0000
1000
0010
1000
0001
0100
1000
,  // measure 51
0100
0001
0010
0100
0010
0001
1000
0100
,  // measure 52
0010
0001
0100
0010
1000
1000
0001
0002
,  // measure 53
0000
0023
0000
0230
0000
2300
0000
3001
,  // measure 54
1000
0010
0100
0001
0000
1001
0000
1001
,  // measure 55
0000
1000
0001
0010
0100
0000
0110
0000
,  // measure 56
0000
0000
1000
0010
1000
1010
0000
0101
,  // measure 57
0000
0010
1000
0100
0020
0000
0031
0000
,  // measure 58
0100
1000
0010
0001
0010
1000
0010
0100
,  // measure 59
1000
0100
0010
1000
0001
0000
0101
0000
,  // measure 60
1020
0000
0000
0000
0000
0000
0130
0000
0101
0000
0000
0101
0000
0000
1001
0000
,  // measure 61
0000
0000
1000
0001
0011
0000
1001
0000
,  // measure 62
2100
0000
0100
3200
0000
0010
0320
0000
,  // measure 63
0001
0031
1000
0010
0100
0010
1000
0002
,  // measure 64
0020
0000
0000
0000
,  // measure 65
0000
0000
0000
0000
,  // measure 66
0000
0000
0000
0000
,  // measure 67
0033
0000
0000
0000
;

//---------------dance-single - ----------------
#NOTES:
     dance-single:
     :
     Challenge:
     15:
     0.754,0.964,0.237,0.438,0.570: // measure 1
2000
0000
0100
0000
3100
0000
0010
0001
,  // measure 2
1000
0000
0100
0000
0010
0001
0100
0010
,  // measure 3
0000
1000
0100
0000
0010
0100
1000
0001
,  // measure 4
0000
0100
0000
0001
1000
0000
0100
0000
,  // measure 5
0020
0000
0001
0000
0031
0000
0100
1000
,  // measure 6
0001
0000
0010
0000
0100
1000
0001
0010
,  // measure 7
0000
0100
0010
0000
0001
0000
0100
0000
,  // measure 8
0010
1000
0010
0100
0000
0001
0000
0001
,  // measure 9
1001
0000
0000
0000
1000
0000
0100
1000
0000
0001
0100
0000
0001
0000
0000
0000
,  // measure 10
0100
0000
0000
0000
0100
0000
0010
0100
0000
0001
1000
0000
0100
0000
0000
0000
,  // measure 11
0100
0000
0000
0000
0100
0000
0010
0001
0000
0100
0010
0000
1000
0000
0000
0000
,  // measure 12
1000
0000
0000
0000
1000
0000
0010
0100
0000
0001
0100
0000
0001
0000
0000
0000
,  // measure 13
1000
0100
0010
0001
1000
0010
0001
0010
,  // measure 14
1000
0100
0001
0100
1000
0001
0010
0100
,  // measure 15
0010
0001
0010
0001
0010
0001
0010
0001
0100
0010
0100
0010
1000
0100
1000
0100
,  // measure 16
2000
0000
0000
3000
,  // measure 17
1001
0000
0000
0000
0001
0010
0100
0010
0001
0010
0100
0000
0000
0000
1100
0000
,  // measure 18
0000
0000
1000
0001
0010
0001
1000
0000
1002
0000
0000
0000
0023
0000
0000
0000
,  // measure 19
0130
0000
0000
0000
1000
0010
1000
0010
1000
0001
0000
0010
0000
0001
1000
0000
,  // measure 20
0000
0000
0001
0000
0010
0100
0010
0100
1000
0010
0100
0000
0001
0100
0010
0000
,  // measure 21
1001
0000
0000
0000
0001
0010
0100
0010
0001
0000
0010
0001
1000
0000
1001
0000
,  // measure 22
0000
0001
0100
0000
0001
0100
0001
0000
0010
0100
1000
0000
0001
0010
0100
1000
,  // measure 23
0001
0000
0100
0001
0100
0000
0010
0000
1000
0010
1000
0000
0001
0000
0010
0001
,  // measure 24
0010
0000
0100
0000
1000
0001
1000
0000
1001
0000
0000
0000
2002
0000
0000
0000
,  // measure 25
3003
0000
0000
0000
1000
0010
0100
0010
1000
0010
0100
0000
0000
0000
0101
0000
,  // measure 26
0000
0000
0001
1000
0001
1000
0000
0010
0200
0000
0000
0000
0301
0000
0000
0000
,  // measure 27
1001
0000
0000
0000
1000
0010
1000
0010
1000
0001
0000
0010
0000
0001
1000
0000
,  // measure 28
0000
0000
0001
0000
1000
0100
0010
0100
1000
0010
0100
0000
0010
0100
0001
0000
,  // measure 29
1001
0000
0000
0000
1000
0001
0010
0001
1000
0000
0000
1001
0000
0000
1001
0000
,  // measure 30
0000
0000
0001
0010
0100
0010
0001
0000
0200
0000
0010
0000
0310
0000
1000
0010
,  // measure 31
0100
0000
0010
0000
1000
0100
0010
0000
0100
0000
1000
0010
0200
0000
0000
0000
,  // measure 32
0001
0302
0000
1000
2000
0000
3003
0000
,  // measure 33
0002
0000
0000
0000
1000
0000
0000
0000
1003
0000
0001
0010
0100
0000
2000
0000
,  // measure 34
0000
0000
0000
0000
3010
0000
0100
0000
0010
0000
0100
0010
1000
0000
1000
0000
,  // measure 35
0002
0000
0000
0000
0013
0000
0100
1000
0100
1000
0001
0100
0001
0000
0200
0000
,  // measure 36
0000
0000
0000
0000
0010
0000
0000
0000
0310
0000
1000
0100
0010
0000
0000
0000
,  // measure 37
0002
0000
0000
0000
1000
0000
0000
0000
1003
0100
1000
0000
0001
0000
0200
0000
,  // measure 38
0000
0000
0000
0000
0301
0000
1000
0000
0001
0000
1000
0010
0100
0000
0010
0000
,  // measure 39
2000
0000
3001
0100
1000
0100
0001
1000
,  // measure 40
0001
0000
0001
0000
0001
0010
0100
1000
,  // measure 41
1002
0000
0000
0000
0013
0000
0000
0000
0200
0000
0000
0000
0310
0000
0001
0100
,  // measure 42
0002
0000
0000
0000
1003
0000
0000
0000
0200
0000
0000
0000
1300
0000
0010
0100
,  // measure 43
0020
0000
0000
0000
0230
0000
0000
0000
0302
0000
0000
0000
1003
0000
0001
0010
,  // measure 44
0002
0013
0200
1300
,  // measure 45
0001
0010
0100
1000
0001
0100
1000
0100
,  // measure 46
0001
0000
0010
0000
0100
0000
1000
0001
1000
0000
0010
0000
0100
0000
0001
0100
,  // measure 47
0002
0003
0000
0000
2002
3003
0000
0000
2200
3300
0000
0000
0220
0330
0000
0000
2002
0000
0000
0000
3003
0000
0000
0000
2002
0000
0000
0000
3003
0000
0000
0000
,  // measure 48
0000
0000
0000
0000
1000
0010
0100
0010
1000
0010
0100
0000
0000
0000
0001
0010
,  // measure 49
0100
0000
0010
0001
0010
0001
0010
0100
1000
0000
0001
0100
0001
0000
1000
0010
,  // measure 50
2000
0000
0000
0000
3100
0010
0001
0010
0100
0010
0001
0100
0001
0000
0100
0010
,  // measure 51
0100
0000
0010
1000
0010
1000
0001
0010
0001
0000
1000
0001
1000
0000
0010
0100
,  // measure 52
0010
0000
1000
0000
0010
0000
0001
0000
0010
0000
1000
0100
0010
0100
1000
0000
,  // measure 53
0001
0100
1000
0100
0001
0100
0010
0100
,  // measure 54
0001
0000
1000
0100
0010
0100
1000
0000
0000
0000
1001
0000
0000
0000
1001
0000
,  // measure 55
0000
1000
0100
0010
0001
1000
2002
0000
,  // measure 56
3003
0000
0000
0000
1000
0100
0010
0100
1000
0100
0010
0000
0000
0000
0011
0000
,  // measure 57
0000
0000
0001
1000
0010
1000
0001
1000
0020
0000
0000
0000
0130
0000
0000
0000
,  // measure 58
0001
0100
0010
0100
0001
0000
1000
0010
0100
0010
1000
0000
0100
0010
0001
1000
,  // measure 59
0010
0100
0010
0000
1000
0001
1000
0000
0001
0100
0001
0000
1000
0010
1000
0000
,  // measure 60
1002
0000
0000
0000
0000
0000
0013
0100
1000
0000
0000
1001
0000
0000
1001
0000
,  // measure 61
0000
0000
0001
1000
0001
1000
0001
0100
0010
0000
0100
0010
1000
0000
0001
0010
,  // measure 62
0100
0000
1000
0000
0001
0100
0020
0000
0000
0000
0130
0000
0010
0000
2000
0000
,  // measure 63
0000
3100
0010
0001
1000
1000
0010
0020
,  // measure 64
0200
0000
0000
0000
,  // measure 65
0000
0000
0000
0000
,  // measure 66
0000
0000
0000
0000
,  // measure 67
0330
0000
0000
0000
;

//---------------dance-single - ----------------
#NOTES:
     dance-single:
     :
     Beginner:
     2:
     0.110,0.173,0.046,0.000,0.000:
1000
0000
0000
0000
,
0100
0000
1000
0000
,
0100
0000
0000
0000
,
0010
0000
0001
0000
,
0010
0000
0000
0000
,
0001
0000
1000
0000
,
0001
0000
0000
0000
,
1000
0000
0000
0000
,
1001
0000
0000
0000
,
0001
0000
0000
0000
,
0001
0000
0000
0000
,
0001
0000
0000
0000
,
1000
0000
0000
0000
,
0100
0000
0000
0000
,
0010
0000
0000
0000
,
0001
0000
0000
0000
,
1001
0000
1000
0000
,
0001
0000
0000
0000
,
1000
0000
0001
0000
,
0100
0000
0000
0000
,
0001
0000
1000
0000
,
0100
0000
0000
0000
,
0010
0000
0001
0000
,
0100
0000
0010
0000
,
1000
0000
0001
0000
,
0010
0000
0000
0000
,
0001
0000
1000
0000
,
0010
0000
1000
0000
,
0100
0000
0010
0000
,
0001
0000
1000
0000
,
0001
0000
0001
0000
,
1000
0000
1000
0000
,
1001
0000
0000
0000
,
0001
0000
0000
0000
,
0001
0000
0000
0000
,
0001
0000
0000
0000
,
1000
0000
0000
0000
,
1000
0000
0000
0000
,
1000
0000
0000
0000
,
1000
0000
0000
0000
,
1001
0000
0000
0000
,
0001
0000
0000
0000
,
0100
0000
0000
0000
,
0010
0000
0000
0000
,
1000
0000
0000
0000
,
0001
0000
0000
0000
,
1000
0000
0000
0000
,
0000
0001
0000
0000
,
1000
0000
0000
0000
,
0100
0000
0000
0000
,
1000
0000
0000
0000
,
0001
0000
0000
0000
,
0010
0000
0000
0000
,
0001
0000
0000
0000
,
1000
0000
0000
0000
,
0000
0001
0000
0000
,
1000
0000
0000
0000
,
0100
0000
0000
0000
,
0010
0000
0000
0000
,
0001
0000
0000
0000
,
0100
0000
0000
0000
,
0010
0000
0000
0000
,
0100
0000
0000
0000
,
1001
0000
0000
0000
;
