#TITLE:IRIS;
#SUBTITLE:;
#ARTIST:Sta;
#TITLETRANSLIT:;
#SUBTITLETRANSLIT:;
#ARTISTTRANSLIT:;
#CREDIT:DigiMindAxel;
#BANNER:IRIS.png;
#BACKGROUND:IRIS-bg.png;
#LYRICSPATH:;
#CDTITLE:Cytus.png;
#MUSIC:IRIS.ogg;
#METERTYPE:DDR X;
#OFFSET:-9.525;
#SAMPLESTART:16.509;
#SAMPLELENGTH:12.000;
#SELECTABLE:YES;
#BPMS:0.000=195.000,233.000=97.500,245.000=195.000;
#STOPS:269.000=0.308
;
#BGCHANGES:;

//---------------dance-single - ----------------
#NOTES:
     dance-single:
     :
     Easy:
     4:
     0.163,0.270,0.182,0.033,0.000:
2000
0000
0000
0000
,
0000
0000
3000
0000
,
0000
0000
0000
0000
,
0002
0000
0000
0000
,
0000
0000
0003
0000
,
0000
0000
0000
0000
,
1001
0000
0000
0010
,
0000
0000
0100
0000
,
0000
0010
0000
0000
,
1000
0000
0000
0100
,
0000
0000
0010
0000
,
0000
0001
0000
0000
,
1001
0000
0000
1000
,
0000
0000
0001
0000
,
0000
1000
0000
0000
,
0010
0000
0000
0100
,
0000
0000
0010
0000
,
0000
0010
0000
0000
,
0110
0000
0000
0000
,
0000
0000
0110
0000
,
0000
0000
0000
0000
,
0110
0000
0000
0000
,
0000
0000
0110
0000
,
0000
0000
0000
0000
,
1001
0000
0000
0000
,
0000
0000
1001
0000
,
0000
0000
0000
0000
,
1001
0000
0000
0000
,
0000
0000
1001
0000
,
0000
0002
0000
0000
,
1000
1003
0000
0000
,
0000
0000
0000
0000
,
0000
0000
0000
0000
,
0001
0001
0000
0000
,
0000
0000
0000
0000
,
0000
0000
0000
0000
,
1000
1000
0000
0000
,
0000
0000
0000
0000
,
0000
0000
0000
0000
,
0001
0001
0000
0000
,
0000
0000
0000
0000
,
0000
0000
0000
0000
,
1000
1000
0000
0001
,
0000
0010
0000
0100
,
0000
1000
0000
0100
,
0000
0010
0000
0100
,
0000
1000
0000
0001
,
0000
1000
0000
0001
,
0000
0100
0000
0001
,
0000
0100
0000
0010
,
0000
1000
0001
1000
,
0000
0001
1000
0001
,
0000
0010
0001
0010
,
0000
0100
0010
0100
,
0000
1000
0100
1000
,
0000
0001
0100
0001
,
0000
1000
0001
1000
,
0000
0010
1000
0010
,
0000
1001
0000
0000
,
0000
0000
0000
0000
,
0000
0000
0000
0000
,
0000
1001
0000
0001
,
0000
0001
0000
0001
,
0000
1000
0000
1000
,
0000
1000
0000
1000
,
0000
1000
0000
0001
,
0000
0001
0000
0001
,
0000
1001
0000
1000
,
0000
0100
1000
0000
,
0010
0100
0000
0000
,
0001
0000
1000
0001
,
0000
0000
0010
0100
,
1000
0010
0000
0000
,
1001
0000
0000
0000
,
1001
0000
0110
0000
,
0000
0000
0110
0000
,
1001
0000
0000
0000
,
1001
0000
0110
0000
,
0000
0110
0000
0000
,
0020
0000
0000
0000
,
0000
0000
0000
0000
,
0000
0000
0000
0030
0000
0110
0000
0000
;

//---------------dance-single - ----------------
#NOTES:
     dance-single:
     :
     Medium:
     8:
     0.354,0.371,0.256,0.132,0.000:
1000
0000
0000
0000
1000
0000
0000
0001
,
0000
0001
0010
0000
,
0010
0000
0000
0100
0000
0000
0100
0000
,
1000
0000
0000
0000
1000
0000
0000
0010
,
0000
0010
0200
0000
,
0000
0000
0310
0000
,
1001
0000
1000
0100
,
0000
0010
0100
0000
,
1000
0100
0000
0010
,
0001
0010
0100
1000
,
0000
1000
0001
0010
,
0100
1000
1001
1001
,
0100
0000
0100
0010
,
0000
0010
0001
0000
,
0001
0100
0000
0100
,
0010
1000
0200
0000
,
0310
0100
1000
0100
,
1000
0010
0100
0001
,
1000
0001
0000
1000
0000
1000
0000
0000
,
1001
0000
1001
0000
0010
0100
0000
0010
,
0000
0010
0000
0000
0110
0000
0110
0000
,
0001
1000
0000
0001
0000
0001
0000
0000
,
0110
0110
0010
0100
,
1000
0100
0010
0000
,
0001
1000
0000
0001
0000
0001
0000
0000
,
0110
0000
0110
0000
0100
0010
0000
0100
,
0000
0100
0000
0000
1001
0000
1001
0000
,
1000
0001
0000
1000
0000
1000
0000
0000
,
0110
0000
0110
0000
0010
0100
0000
0001
,
0000
0001
0200
0000
0000
0000
0000
0000
,
0310
0000
0110
0000
0000
0110
0000
0000
,
0200
0000
0000
0000
,
0000
0000
0000
0000
,
1300
0000
1001
0000
0000
1001
0000
0000
,
0002
0000
0000
0000
,
0000
0000
0000
0000
,
0103
0000
1010
0000
0000
1010
0000
0000
,
2000
0000
0000
0000
,
0000
0000
0000
0000
,
3001
0000
0011
0000
0000
0011
0000
0000
,
0000
0000
0000
0000
,
0000
0000
0000
0000
0000
0100
0010
0000
,
0110
0200
0001
0301
,
1000
0000
0100
1000
0100
0000
0010
0000
,
0000
0002
0100
0103
,
0010
0000
1000
0001
1000
0000
0001
0000
,
0000
0200
0001
0301
,
1000
0000
0100
0010
0100
0000
1000
0000
,
0000
0020
1000
1030
,
0001
0000
0010
0001
0010
0000
1100
0000
,
0000
0000
1000
0000
0010
0100
0010
0000
,
1000
0000
0100
0010
0001
0000
0001
0000
,
0000
0000
0010
0000
0001
0010
0001
0000
,
0100
0000
0010
1000
0100
0000
0100
0000
,
0000
0000
0010
0000
0001
1000
0001
0000
,
0010
0000
0100
1000
0010
0000
0010
0000
,
0000
0000
1000
0000
0100
0010
0100
0000
,
1000
0000
0100
1000
0001
0000
0001
0000
,
0101
0220
0000
0000
,
0000
0000
0000
0000
0000
0330
0000
0202
,
0000
0000
0000
0000
0000
0000
0000
0303
,
0000
0010
0110
0000
0000
0000
0100
0000
,
0000
0100
0000
0100
,
0000
0010
0000
0010
,
0000
0010
0000
1000
,
0000
1000
0000
1000
,
0000
0000
0001
0000
0000
0000
0001
1000
,
0001
0000
1001
0000
1000
0010
0100
0000
,
0000
0001
1000
0000
,
1000
0100
0010
0000
0000
0000
0010
0000
,
0001
0010
0100
2000
,
0000
3010
0100
0001
,
1000
0100
0010
0000
,
0001
1000
0000
0001
0000
0001
0000
0001
,
0000
0000
0000
0000
0010
0100
0000
1000
,
0000
1000
0000
1000
0000
0000
0000
0000
,
0010
0100
0000
0001
0000
0001
0000
0001
,
0000
0000
0000
0000
0010
0001
0010
0000
,
0010
0000
0100
1000
0100
0000
0100
0000
,
2000
0000
0000
0000
,
0001
0001
0001
0001
,
0001
0000
3001
0000
0000
1001
0000
0000
;

//---------------dance-single - ----------------
#NOTES:
     dance-single:
     :
     Hard:
     12:
     0.559,0.539,0.429,0.198,0.000:
1000
0000
1000
0000
1000
0000
0001
1000
,
0000
0010
1000
0010
0000
0000
0100
0000
,
0100
0000
0010
0100
0000
0001
1000
0001
,
0000
0000
0010
0000
0010
0000
0100
1000
,
0000
0010
0100
0010
1000
0000
1000
0000
,
1000
0000
1000
0000
0001
1000
0100
0000
,
0012
0000
0000
0000
0103
0010
2000
0000
,
0000
0000
3010
0000
0120
0000
0000
0130
,
0010
0100
1000
0000
0001
0000
0101
0000
,
0100
0010
0100
0000
0001
0010
0200
0000
,
0000
1300
0010
1000
0001
0000
0011
0000
,
0110
0000
0100
0010
0100
0010
0100
0010
,
2000
0000
0000
3010
1000
0100
0020
0000
,
0000
0000
0031
0000
0120
0000
0000
0130
,
0010
0001
2000
0000
0000
0000
3100
1000
,
0010
1010
1002
0000
,
0013
0100
1000
0100
0010
0000
0101
0000
,
0100
0001
1000
0100
1000
0001
1000
0000
,
0001
0001
0000
0101
0000
0101
0000
0010
,
0100
0010
0100
1000
0010
0010
0000
0110
,
0000
0110
0000
0010
0100
0001
0010
0100
,
1000
1000
0000
1010
0000
1010
0000
0100
,
0010
0100
0001
0010
0200
0000
1000
0000
,
0310
0001
1000
0000
0010
0100
0010
0100
,
0010
0010
0000
1010
0000
1010
0000
1000
,
0010
0100
0001
0010
0100
0100
0000
1010
,
0000
1010
0000
0010
0100
0001
0010
0100
,
0010
0010
0000
1001
0000
1001
0000
1000
,
0001
0010
0100
0010
0001
0001
0000
0101
,
0000
0101
0200
0000
0000
0000
0000
0000
,
0310
0000
0110
0000
0100
0002
0000
0000
,
1000
1000
1000
0000
,
0000
0100
0100
0103
,
0010
0100
0010
0000
1000
0200
0000
0000
,
0010
0010
0010
0320
,
0000
0000
0000
0030
,
0001
0100
0010
0000
0100
0002
0000
0000
,
1000
1000
1000
0000
,
0000
0010
0010
0013
,
0100
1000
0001
0000
1000
0002
0000
0000
,
0000
0000
0000
0000
,
0000
0000
0000
0000
0003
1000
0001
0010
,
0100
1010
0010
1000
,
1000
0001
0010
0001
1000
0000
0001
0000
,
0001
0110
0100
0010
,
0010
1000
0100
0010
0100
0000
1000
0001
,
0100
0001
1001
0000
1000
0000
0010
0000
,
0010
0100
0001
0010
0100
0000
1000
0000
,
1000
0000
0100
0010
0001
0000
0001
0000
,
1000
0100
0010
0100
1000
0010
0100
0000
,
0100
0000
1001
0000
0001
1000
1100
0000
,
0010
0001
0100
0010
1000
0000
1001
0000
,
0001
0000
1000
0000
1000
0001
0101
0000
,
0100
0001
1000
0100
0010
0001
1000
0010
,
1000
0000
1001
0000
0001
0010
0110
0000
,
0100
1000
0010
0100
0001
0000
1001
0000
,
1000
0000
1000
0000
1000
0001
0101
0000
,
0010
1000
0100
0010
0100
1000
0010
0000
,
1010
2002
0000
0000
,
0000
0000
0000
0000
0000
3003
0000
2200
,
0000
0000
0000
0000
0000
0000
0000
3300
,
0000
0010
0210
0000
0000
0000
0001
0000
,
0000
0010
0010
0310
,
1000
0001
1000
0100
,
0010
0000
0002
0000
0000
0100
0000
0000
,
0000
1000
0000
0000
1000
0000
1003
0000
,
0001
0000
0100
0000
0001
0000
0010
0100
,
1000
0010
0110
0000
0100
0010
0002
0000
,
0000
0000
0103
0001
0010
0000
0010
0100
,
1000
0001
0100
0000
0100
0000
0110
0000
,
1100
0000
0011
0000
0100
1000
0010
0100
,
0010
0100
0001
0000
0101
0000
1010
0000
,
0100
0001
0010
0100
1000
0001
0100
0001
,
1000
1000
0000
1100
0000
1100
0000
0100
,
1000
0010
0001
0010
1000
1000
0000
1001
,
0000
1001
0000
1000
0001
0010
1000
0010
,
0001
0001
0000
0101
0000
0101
0000
0100
,
0001
0010
1000
0010
0001
0100
0001
0100
,
1000
0100
1000
0100
0001
1000
0001
1000
,
0020
0000
0000
0100
,
0100
0000
0130
0001
0010
0100
1000
0001
,
0010
0100
1000
0001
0010
0110
0000
0000
;

//---------------dance-single - ----------------
#NOTES:
     dance-single:
     :
     Challenge:
     14:
     0.690,0.708,0.496,0.231,0.169: // measure 1
1000
0000
1000
0010
1000
0000
0010
0100
,  // measure 2
0000
0010
0100
0001
0010
0000
0010
0100
,  // measure 3
0010
0000
0001
0100
0000
0010
0100
0001
,  // measure 4
1000
0000
1000
0100
1000
0000
0100
0010
,  // measure 5
0000
0100
0010
0001
1000
0000
1000
0000
,  // measure 6
0001
0000
0000
0000
0001
0000
0100
0000
0001
0100
0001
0000
1000
0001
1000
0000
,  // measure 7
0200
0000
0310
0000
0001
1000
0100
1000
,  // measure 8
0001
0000
0200
0000
0310
0000
1000
0001
,  // measure 9
0010
0100
1000
0010
1000
0000
1001
0000
,  // measure 10
0001
0100
0010
0100
0010
0100
0002
0000
,  // measure 11
1003
0001
0010
1000
0010
0001
0100
0010
,  // measure 12
1000
0100
1000
0100
0010
0001
1000
0000
,  // measure 13
1002
0000
0103
0001
0010
0100
2000
0000
,  // measure 14
3001
0000
0100
0001
2000
0000
3001
1000
,  // measure 15
0010
0001
0010
1000
0001
0000
0010
0100
,  // measure 16
1000
0010
0100
0000
0120
0000
0000
0000
,  // measure 17
1030
0100
0001
0100
1000
0000
1001
0000
,  // measure 18
0001
0000
0010
0000
0100
0000
0010
0000
0001
0000
1000
0000
0010
1000
0010
0000
,  // measure 19
1000
1001
0000
0101
0000
0101
0000
0100
,  // measure 20
0001
0100
0010
0000
0100
0000
0001
0000
1000
0000
1100
0000
0000
0000
1001
0000
,  // measure 21
0000
0000
1001
0000
0000
0000
0001
0000
1000
0100
0010
0000
0001
0000
0100
0000
,  // measure 22
0010
0110
0000
1100
0000
1100
0000
1000
,  // measure 23
0001
0100
0010
0000
0100
0000
0001
0000
1000
0000
0100
0000
0010
0000
0100
0000
,  // measure 24
1000
0000
0001
0000
0100
0000
0001
0000
1000
0100
1000
0000
0001
1000
0001
0000
,  // measure 25
0100
0110
0000
0101
0000
0101
0000
0001
,  // measure 26
1000
0100
0010
0000
0100
0000
1000
0000
0001
0000
0101
0000
0000
0000
0110
0000
,  // measure 27
0000
0000
0110
0000
0000
0000
0100
0000
1000
0010
0100
0000
0010
0000
1000
0000
,  // measure 28
0001
0011
0000
0110
0000
0110
0000
0100
,  // measure 29
0010
0001
0100
0000
0010
0000
1000
0000
0100
0000
1100
0000
0000
0000
0110
0000
,  // measure 30
0000
0110
0102
0000
0000
0000
0000
0000
,  // measure 31
1003
0000
1001
0100
0010
1001
0000
0000
,  // measure 32
0100
0010
0100
0000
0100
0001
0200
0000
,  // measure 33
0320
0000
1030
0000
1000
0001
1000
0000
,  // measure 34
0001
1000
0001
1000
0001
0000
0010
0000
0100
0000
1001
0000
0000
0000
0000
0000
,  // measure 35
1000
0000
0000
0100
0000
0000
1000
0000
0001
0000
0010
0000
0100
0000
1000
0000
0001
0000
0020
0000
0000
0000
0000
0000
,  // measure 36
0002
0000
0000
0033
,  // measure 37
1001
0001
1000
0100
0010
1001
0000
0000
,  // measure 38
0100
1000
0100
0000
0100
1000
0020
0000
,  // measure 39
0230
0000
0301
0000
0001
1000
0001
1000
,  // measure 40
1001
0100
0010
0001
0100
2002
0000
0000
,  // measure 41
0000
0000
0000
0000
,  // measure 42
0000
0000
0000
0000
0000
0000
3003
0000
0000
0000
0001
0100
0001
0000
1000
0001
,  // measure 43
1000
0010
0200
0000
0001
0000
0010
0000
,  // measure 44
0301
1000
0100
0010
0002
0000
0100
0000
,  // measure 45
0103
0020
1000
0100
,  // measure 46
1030
0000
0001
0000
0010
0000
0100
0000
1000
0000
0000
0000
0010
0000
0100
0010
,  // measure 47
0100
0010
0100
0000
0020
0000
0000
0000
0100
0000
0000
0000
1000
0000
0000
0000
,  // measure 48
0130
0001
0100
0010
2000
0000
0001
0000
,  // measure 49
3001
0000
0010
0001
0100
0000
0100
0000
,  // measure 50
0010
0000
1000
0000
0100
0000
1000
0000
0001
0000
0000
0000
0100
0000
0010
0100
,  // measure 51
0010
0100
0010
0000
1000
0000
0000
0000
1000
0000
0001
0000
0011
0000
0000
0000
,  // measure 52
0001
0100
0010
0100
0001
0000
1001
0000
,  // measure 53
0110
0000
1001
0000
0001
1000
1010
0000
,  // measure 54
1000
0000
0100
0000
0010
0000
0100
0000
1000
0000
0000
0000
0010
0000
0100
0010
,  // measure 55
0100
0010
0100
0000
0001
0000
0000
0000
0001
0000
1000
0000
1010
0000
0000
0000
,  // measure 56
0010
1000
0100
0010
0100
0000
1001
0000
,  // measure 57
0110
0000
1001
0000
1000
0001
0011
0000
,  // measure 58
0001
0000
0100
0000
0010
0000
0100
0010
0100
0000
0001
1000
0001
1000
0001
0000
,  // measure 59
1001
2200
0000
0000
,  // measure 60
0000
0000
0000
0000
0000
3300
0000
0220
,  // measure 61
0000
0000
0000
0000
0000
0000
0000
0330
,  // measure 62
0000
0001
1001
0000
1000
0000
0001
0000
,  // measure 63
1000
0100
0010
0001
,  // measure 64
1000
1000
0010
0010
,  // measure 65
1000
0001
0010
0100
,  // measure 66
1000
0001
0100
0001
,  // measure 67
0001
0000
1000
0000
1000
0000
0100
0010
,  // measure 68
0001
0000
1000
0001
2000
0000
0000
0000
3100
0000
0010
0000
0001
0000
0100
0000
,  // measure 69
0001
0100
0001
0010
0200
0000
1300
0001
,  // measure 70
0100
0010
0100
0001
0100
0001
1000
0000
,  // measure 71
1001
0000
0101
0000
0100
0010
1000
0100
,  // measure 72
1000
0100
0010
0000
0101
0000
1001
0000
,  // measure 73
1000
0000
0010
0000
1000
0000
0001
0000
0010
0001
0010
0000
0001
1000
0001
0000
,  // measure 74
1000
1100
0000
0110
0000
0110
0000
0010
,  // measure 75
0001
0010
0100
0000
1000
0000
0001
0000
0100
0000
0101
0000
0000
0000
1001
0000
,  // measure 76
0000
0000
1001
0000
0000
0000
1000
0000
0001
0010
0100
0000
0010
0000
0001
0000
,  // measure 77
0100
0110
0000
1010
0000
1010
0000
1000
,  // measure 78
0010
0100
0001
0000
0100
0000
0001
0000
1000
0000
1000
0000
0100
0000
0100
0000
,  // measure 79
0010
0000
0001
0000
0100
0010
0100
0000
0001
0100
0001
0000
1000
0001
1000
0001
,  // measure 80
2000
0000
0000
0000
0000
0000
3001
1000
,  // measure 81
0001
1000
0001
0010
0010
0100
0100
1000
,  // measure 82
1000
0000
0001
0100
0001
0000
0100
0010
0100
0010
1000
0000
0000
0000
0000
0000
;

//---------------dance-double - ----------------
#NOTES:
     dance-double:
     :
     Easy:
     5:
     0.194,0.270,0.157,0.149,0.000:
10000000
00000000
10000000
00000000
,
10000000
00000000
00100000
00000000
,
00100000
00000000
00100000
00000000
,
01000000
00000000
01000000
00000000
,
01000000
00000000
00001000
00000000
,
00001000
00000000
00001000
00000000
,
00012000
00000000
00000000
00013000
,
00000000
00000000
00000020
00000000
,
00000000
00000130
00000000
00000000
,
00000001
00000000
00000000
00001000
,
00000000
00000000
00000100
00000000
,
00000000
00010000
00001000
00010000
,
00002000
00000000
00000000
01003000
,
00000000
00000000
00200000
00000000
,
00000000
01300000
00000000
00000000
,
00010000
00000000
00000000
10000000
,
00000000
00000000
01000000
00000000
,
00000000
00100000
00010000
00100000
,
00020000
00000000
00000000
00000000
,
00030000
00000000
02100000
00000000
,
00000000
00000000
03000000
00000000
,
20010000
00000000
00000000
00000000
,
30000000
00000000
01200000
00000000
,
00000000
00000000
00300000
00000000
,
02200000
00000000
00000000
00000000
,
03300000
00000000
00022000
00000000
,
00000000
00000000
00033000
00000000
,
00000220
00000000
00000000
00000000
,
00000330
00000000
00001001
00000000
,
00000000
00000002
00000000
00000000
,
00001000
00001003
00000000
00000000
,
00000000
00000000
00000000
00000000
,
00000000
00000000
00000000
00000000
,
00000010
00000010
00000000
00000000
,
00000000
00000000
00000000
00000000
,
00000000
00000000
00000000
00000000
,
01000000
01000000
00000000
00000000
,
00000000
00000000
00000000
00000000
,
00000000
00000000
00000000
00000000
,
00010000
00010000
00000000
00000000
,
00000000
00000000
00000000
00000000
,
00000000
00000000
00000000
00000000
,
10000000
10000000
00000000
00010000
,
00000000
00100000
00000000
01000000
,
00000000
10000000
00000000
01000000
,
00000000
00100000
00000000
01000000
,
00000000
10000000
00000000
00010000
,
00000000
10000000
00000000
00001000
,
00000000
01000000
00000000
00001000
,
00000000
01000000
00000000
00100000
,
00000000
01000000
00001000
01000000
,
00000000
00001000
00010000
00001000
,
00000000
00010000
00000010
00010000
,
00000000
00000100
00000010
00000100
,
00000000
00001000
00000001
00001000
,
00000000
00000001
00000100
00000001
,
00000000
00010000
00001000
00010000
,
00000000
00001000
01000000
00001000
,
00000000
00011000
00000000
00000000
,
00000000
00000000
00000000
00000000
,
00000000
00000000
00000000
00000000
,
00000000
01100000
00000000
00100000
,
00000000
00100000
00000000
00100000
,
00000000
01000000
00000000
01000000
,
00000000
01000000
00000000
01000000
,
00000000
00010000
00000000
00010000
,
00000000
00010000
00000000
00010000
,
00000000
10010000
00000000
10000000
,
00000000
01000000
10000000
00000000
,
00100000
01000000
00000000
00000000
,
00001000
00010000
00001000
00010000
,
00000000
00000000
00000100
00000010
,
00000001
00000100
00000000
00000000
,
00000110
00000000
00000000
00000000
,
00000110
00000000
00001001
00000000
,
00000000
00000000
00011000
00000000
,
10001000
00000000
00000000
00000000
,
01100000
00000000
10020000
00000000
,
00000000
20030000
00000000
00000000
,
30200000
00000000
00000000
00000000
,
00000000
00000000
00000000
00000000
,
00000000
00000000
00000000
00300000
00000000
01100000
00000000
00000000
;

//---------------dance-double - ----------------
#NOTES:
     dance-double:
     :
     Medium:
     8:
     0.367,0.371,0.231,0.165,0.000:
20000000
00000000
00000000
00000000
01000000
00000000
00000000
31000000
,
00000000
00100000
00002000
00000000
,
01000000
00000000
00000000
01003000
00000000
00000000
00001000
00000000
,
00020000
00000000
00000000
00000000
00000010
00000000
00000000
00030010
,
00000000
00000100
00000002
00000000
,
00000000
00000000
00000103
00000000
,
00001001
00000000
00000001
00000010
,
00000000
00000100
00010000
00000000
,
01000000
00100000
00000000
10000000
,
01000000
00100000
00010000
02000000
,
00000000
03010000
00100000
01000000
,
00100000
00000000
00001000
00000000
00010000
00001000
00010000
00001000
,
00010000
00000000
00000100
00000010
,
00000000
00000001
00000100
00000000
,
00000001
00010000
00000000
00001000
,
01000000
00100000
02000000
00000000
,
03010000
01000000
00100000
01000000
,
00010000
00000000
10000000
00000000
00001000
00010000
00001000
00010000
,
00001000
00010000
00000000
00000010
00000000
00000010
00000000
00000000
,
00000110
00000000
00000110
00000000
00001000
00000001
00000000
00001000
,
00000000
00001000
00000000
00000000
00010010
00000000
00010010
00000000
,
00001000
00010000
00000000
00001000
00000000
00001000
00000000
00000000
,
01100000
01100000
00100000
01000000
,
10000000
01000000
00100000
00000000
,
00010000
10000000
00000000
00010000
00000000
00010000
00000000
00000000
,
01001000
00000000
01001000
00000000
00010000
00001000
00000000
00010000
,
00000000
00010000
00000000
00000000
00000110
00000000
00000110
00000000
,
00000010
00000100
00000000
00000001
00000000
00000001
00000000
00000000
,
00000110
00000000
00000110
00000000
00000100
00000010
00000000
00010000
,
00000000
00010000
00000020
00000000
00000000
00000000
00000000
00000000
,
00000130
00000000
00000110
00000000
00000000
00000110
00000000
00000000
,
00020000
00000000
00000000
00000000
,
00000000
00000000
00000000
00000000
,
00031000
00000000
01100000
00000000
00000000
01100000
00000000
00000000
,
00200000
00000000
00000000
00000000
,
00000000
00000000
00000000
00000000
,
01300000
00000000
10001000
00000000
00000000
10001000
00000000
00000000
,
00020000
00000000
00000000
00000000
,
00000000
00000000
00000000
00000000
,
00031000
00000000
00000110
00000000
00000000
00000110
00000000
00000000
,
00000000
00000000
00000000
00000000
,
00000000
00000000
00000000
00000000
00000000
00000001
00000100
00000001
,
00001000
00000020
00010000
00010030
,
00001000
00000000
00100000
01000000
00100000
00000000
00010000
00000000
,
00000000
00200000
00010000
00310000
,
10000000
00000000
01000000
00100000
01000000
00000000
00100000
00000000
,
00000000
00002000
00010000
00013000
,
00000010
00000000
00000100
00000010
00000100
00000000
00000001
00000000
,
00000000
00000200
00000010
00000310
,
00010000
00000000
00001000
00010000
00001000
00000000
01001000
00000000
,
00000000
00000000
01000000
00000000
00100000
01000000
00100000
00000000
,
10000000
00000000
01000000
00100000
00001000
00000000
00001000
00000000
,
00000000
00000000
00010000
00000000
00000010
00000100
00000010
00000000
,
00000100
00000000
00000001
00001000
00000010
00000000
00000010
00000000
,
00000000
00000000
00010000
00000000
00001000
01000000
00001000
00000000
,
10000000
00000000
01000000
00100000
00010000
00000000
00010000
00000000
,
00000000
00000000
01000000
00000000
00001000
00010000
00001000
00000000
,
00010000
00000000
00000010
00000100
00000001
00000000
00000001
00000000
,
00000101
00000220
00000000
00000000
,
00000000
00000000
00000000
00000000
00000000
00000330
00000000
00002002
,
00000000
00000000
00000000
00000000
00000000
00000000
00000000
00003003
,
00000000
00000010
00000110
00000000
00000000
00000000
00000010
00000000
,
00000000
00000010
00000000
00000010
,
00000000
00010000
00000000
00010000
,
00000000
00010000
00000000
00001000
,
00000000
00001000
00000000
00001000
,
00000000
00000000
00100000
00000000
00000000
00000000
01000000
00100000
,
01000000
00000000
01100000
00000000
01000000
10000000
00010000
00000000
,
00000000
00100000
01000000
00000000
,
00100000
00010000
00001000
00000000
00000000
00000000
00000010
00000000
,
00000100
00000001
00000010
00000200
,
00000000
00010300
00001000
00100000
,
01000000
00000000
10000000
00010000
10000000
00010000
10000000
00000000
,
00100000
01000000
00000000
00100000
00000000
00100000
00000000
00100000
,
00000000
00000000
00000000
00000000
10000000
00010000
00000000
01000000
,
00000000
01000000
00000000
01000000
00000000
00000000
00000000
00000000
,
00010000
00001000
00000000
00000010
00000000
00000010
00000000
00000010
,
00000000
00000000
00000000
00000000
00001000
00000001
00001000
00000001
,
00001000
00000000
00000001
00000010
00000001
00000010
00000001
00000000
,
00020000
00000000
00000000
00000000
,
00001000
00001000
00001000
00001000
,
00001000
00000000
00031000
00000000
00000000
01001000
00000000
00000000
;

//---------------dance-double - ----------------
#NOTES:
     dance-double:
     :
     Hard:
     12:
     0.534,0.539,0.380,0.206,0.000:
10000000
00000000
10000000
00000000
10000000
00000000
00010000
10000000
,
00000000
00010000
01000000
00001000
00000000
00000000
00010000
00000000
,
00010000
00000000
00000001
00010000
00000000
00000010
00010000
00000010
,
00000000
00000000
00010000
00000000
00010000
00000000
00001000
00010000
,
00000000
00001000
00010000
00001000
01000000
00000000
01000000
00000000
,
01000000
00000000
01000000
00000000
00100000
01000000
00010000
00000000
,
10020000
00000000
00000000
00000000
00130000
01000000
20000000
00000000
,
00000000
00000000
30100000
00000000
01002000
00000000
00000000
00013000
,
00000100
00000010
00000001
00000000
00000100
00000000
00000110
00000000
,
00000010
00000100
00000010
00000000
00000100
00000010
00020000
00000000
,
00000000
00031000
10000000
01000000
00100000
00000000
01100000
00000000
,
01001000
00000000
00001000
00010000
00001000
00010000
00001000
00010000
,
00000020
00000000
00000000
00000130
00000001
00000010
00000200
00000000
,
00000000
00000000
00010300
00000000
00012000
00000000
00000000
00103000
,
01000000
10000000
00200000
00000000
00000000
00000000
01300000
00100000
,
10000000
10100000
01200000
00000000
,
10300000
01000000
00100000
00001000
01000000
00000000
01001000
00000000
,
00001000
00010000
00000100
00000010
00000001
00000010
00000100
00000000
,
00010000
00001000
00000000
00011000
00000000
00011000
00000000
00100000
,
01000000
00100000
01000000
10000000
00001000
00010000
00000000
00011000
,
00000000
00011000
00000000
00000100
00000010
00000100
00000010
00000001
,
00001000
00010000
00000000
00011000
00000000
00011000
00000000
00100000
,
01000000
00100000
01000000
10000000
00002000
00000000
00010000
00000000
,
00013000
00000010
00000100
00000000
00000001
00000010
00000001
00000010
,
00000100
00010000
00000000
00011000
00000000
00011000
00000000
01000000
,
00100000
01000000
00100000
10000000
00001000
00010000
00000000
00011000
,
00000000
00011000
00000000
00000010
00000100
00000010
00000100
00000001
,
00010000
00001000
00000000
00011000
00000000
00011000
00000000
00100000
,
01000000
10000000
00100000
10000000
00001000
00010000
00000000
00011000
,
00000000
00002000
00020000
00000000
00000000
00000000
00033000
00000000
,
00010000
00000000
00000110
00000000
00000002
00000200
00000000
00000000
,
00000000
00000000
00000000
00000000
,
00000000
00000000
00000000
00000303
,
00000100
00000010
00000100
00000000
00000020
00020000
00000000
00000000
,
00000000
00000000
00000000
00000000
,
00000000
00000000
00000000
00030030
,
00010000
00001000
00100000
00000000
02000000
20000000
00000000
00000000
,
00000000
00000000
00000000
00000000
,
00000000
00000000
00000000
33000000
,
10000000
01000000
00100000
00000000
00002000
00020000
00000000
00000000
,
00000000
00000000
00000000
00000000
,
00000000
00000000
00000000
00033000
00000000
00001000
00010000
00000100
,
00000010
00000110
00000001
00000001
,
00000010
00000100
00001000
00000100
00000010
00000000
00000001
00000000
,
00000001
00000110
00010000
00010000
,
00001000
01000000
00100000
01000000
00001000
00000000
00100000
01000000
,
10000000
00100000
01100000
00000000
01000000
00000000
01000000
00000000
,
00010000
00100000
01000000
00100000
00010000
00000000
01000000
00000000
,
01000000
00000000
00001000
00010000
00000100
00000000
00000100
00000000
,
00000010
00000001
00000100
00000001
00000010
00000100
00010000
00000000
,
00010000
00000000
00011000
00000000
00100000
01000000
10000000
00000000
,
10000000
01000000
00100000
00001000
00010000
00000000
00011000
00000000
,
00001000
00000000
00001000
00000000
00010000
00000010
00000100
00000000
,
00000100
00000010
00010000
00000100
00000010
00000001
00000010
00000100
,
00010000
00000000
00011000
00000000
01000000
00100000
10000000
00000000
,
10000000
00100000
01000000
00010000
00001000
00000000
00011000
00000000
,
00010000
00000000
00010000
00000000
00000010
00000100
00000001
00000000
,
00000001
00000100
00000010
00010000
00001000
00100000
01000000
00000000
,
01100000
20200000
00000000
00000000
,
00000000
00000000
00000000
00000000
00000000
00300000
00000000
00020000
,
00000000
00000000
00000000
00000000
00000000
00000000
00000000
30030000
,
00000000
01000000
01100000
00000000
00000000
00000000
00100000
00000000
,
00000000
10000000
01000000
00100000
,
00001000
00010000
00001000
00010000
,
00000010
00000000
00000100
00000000
00000000
00000001
00000000
00000000
,
00000000
00000001
00000000
00000000
00000010
00000000
00000100
00000000
,
00000010
00000000
00000100
00000000
00010000
00000000
00001000
00010000
,
00001000
01000000
01100000
00000000
00100000
10000000
02000000
00000000
,
00000000
00000000
13000000
01000000
00100000
00000000
00001000
00010000
,
00000100
00000010
00000001
00000000
00000001
00000000
00001001
00000000
,
00010010
00000000
00011000
00000000
00001000
00100000
01000000
00100000
,
00001000
01000000
00001000
00000000
10001000
00000000
01100000
00000000
,
00100000
01000000
10000000
00010000
01000000
00001000
00010000
00000100
,
00010000
00001000
00000000
00011000
00000000
00011000
00000000
00000100
,
00000010
00000100
00000010
00000001
00010000
00001000
00000000
00011000
,
00000000
00011000
00000000
00100000
01000000
00100000
01000000
10000000
,
00001000
00010000
00000000
00011000
00000000
00011000
00000000
00100000
,
01000000
00100000
01000000
10000000
00010000
00100000
10000000
00100000
,
00001000
00010000
00000100
00000001
00000100
00010000
00001000
00100000
,
02000000
00000000
00000000
10000000
,
10000000
00000000
13000000
00100000
01000000
00001000
00010000
00000010
,
00000100
00000001
00000010
00000100
00010000
00011000
00000000
00000000
;

//---------------dance-double - ----------------
#NOTES:
     dance-double:
     :
     Challenge:
     14:
     0.682,0.708,0.487,0.190,0.169:
10000000
00000000
10000000
01000000
10000000
00000000
00100000
01000000
,
00000000
00001000
00010000
00000100
00000010
00000000
00000010
00000001
,
00000010
00000000
00000001
00001000
00000000
00000001
00000100
00000010
,
00010000
00000000
00010000
00001000
00010000
00000000
00001000
01000000
,
00000000
00001000
01000000
00100000
10000000
00000000
10000000
00000000
,
00010000
00000000
00000000
00000000
00010000
00000000
00100000
00000000
00001000
00010000
00001000
00000000
00010000
00000010
00010000
00000000
,
00000020
00000000
00000130
00000000
00000001
00000010
00000100
00000010
,
00000001
00000000
00002000
00000000
00003010
00000000
00010000
00001000
,
00100000
01000000
00100000
00001000
00010000
00000000
00100000
00000000
,
01000000
10000000
00100000
00000000
10000000
00010000
00200000
00000000
,
01300000
10000000
00100000
01000000
00100000
10000000
01000000
00010000
,
00000100
00000001
00001000
00000010
00000100
00000010
00001000
00000000
,
00001002
00000000
00000013
00000100
00001000
00010000
02000000
00000000
,
03100000
00000000
00010000
00100000
02000000
00000000
03100000
01000000
,
10000000
00100000
10000000
01000000
00100000
00000000
00001000
00010000
,
00000100
00000010
00000100
00000000
00001002
00000000
00000000
00000000
,
00001003
00000100
00001000
00000100
00010000
00000000
00011000
00000000
,
00001000
00000000
10000000
00000000
00100000
00000000
10000000
00000000
00001000
00000000
00100000
00000000
01000000
10000000
01000000
00000000
,
00100000
01100000
00000000
00011000
00000000
00011000
00000000
00010000
,
00000010
00000100
00000001
00000000
00000100
00000000
00000010
00000000
00000100
00000000
00000101
00000000
00000000
00000000
00011000
00000000
,
00000000
00000000
00011000
00000000
00000000
00000000
00100000
00000000
01000000
10000000
00100000
00000000
01000000
00000000
00010000
00000000
,
01000000
01100000
00000000
00011000
00000000
00011000
00000000
00000100
,
00000010
00000001
00000100
00000000
00000001
00000000
00000010
00000000
00000100
00000000
00010000
00000000
00001000
00000000
00010000
00000000
,
00001000
00000000
00100000
00000000
10000000
00000000
00100000
00000000
00001000
00010000
00001000
00000000
01000000
00100000
01000000
00000000
,
00100000
10100000
00000000
00011000
00000000
00011000
00000000
00000010
,
00000100
00000001
00000010
00000000
00000100
00000000
00000010
00000000
00000001
00000000
00000011
00000000
00000000
00000000
00011000
00000000
,
00000000
00000000
00011000
00000000
00000000
00000000
00100000
00000000
01000000
10000000
00010000
00000000
01000000
00000000
00010000
00000000
,
10000000
11000000
00000000
00011000
00000000
00011000
00000000
00000010
,
00001000
00000100
00000010
00000000
00000001
00000000
00000100
00000000
00000010
00000000
00000110
00000000
00000000
00000000
00011000
00000000
,
00000000
00011000
02001000
00000000
00000000
00000000
00000000
00000000
,
03100000
00000000
11000000
10000000
00001000
01001000
00000000
00000000
,
00010000
00010000
00001000
00000000
00000010
00000010
00000200
00000000
,
00000320
00000000
00000130
00000000
00000001
00000001
00000010
00000000
,
00000100
00000010
00000100
00000010
00000100
00000000
00000001
00000000
00010000
00000000
00011000
00000000
00000000
00000000
00000000
00000000
,
00100000
00000000
00000000
01000000
00000000
00000000
10000000
00000000
00100000
00000000
10000000
00000000
00010000
00000000
01000000
00000000
00001000
00000000
00020000
00000000
00000000
00000000
00000000
00000000
,
00002000
00000000
00000000
00033000
,
00000110
00000100
00000010
00000001
00010000
00010100
00000000
00000000
,
00001000
00001000
00010000
00000000
01000000
01000000
00200000
00000000
,
02300000
00000000
03100000
00000000
10000000
10000000
00100000
01000000
,
01100000
00100000
00001000
00010000
00000010
00000220
00000000
00000000
,
00000000
00000000
00000000
00000000
,
00000000
00000000
00000000
00000000
00000000
00000000
00000330
00000000
00000000
00000000
00000010
00000001
00000010
00000000
00000100
00000010
,
00000100
00010000
00001000
00000000
00001000
00000000
00100000
00000000
,
00100000
01000000
10000000
01000000
00100000
00000000
00001000
00000000
,
00001000
00010000
00010000
00000010
,
00000010
00000000
00000100
00000000
00000001
00000000
00000010
00000000
00000100
00000000
00000000
00000000
00010000
00000000
00001000
00010000
,
00001000
00010000
00001000
00000000
01000000
00000000
00000000
00000000
01000000
00000000
00000000
00000000
00100000
00000000
00000000
00000000
,
00100000
01000000
00010000
00100000
01000000
00000000
01000000
00000000
,
10000000
00000000
10000000
01000000
00100000
00000000
00001000
00000000
,
00001000
00000000
00010000
00000000
00000100
00000000
00000010
00000000
00000001
00000000
00000000
00000000
00010000
00000000
00001000
00010000
,
00001000
00010000
00001000
00000000
00100000
00000000
00000000
00000000
00100000
00000000
01000000
00000000
11000000
00000000
00000000
00000000
,
00100000
00010000
00001000
00000010
00000100
00000000
00000110
00000000
,
00000110
00000000
00000011
00000000
00000100
00010000
00011000
00000000
,
00100000
00000000
01000000
00000000
10000000
00000000
01000000
00000000
00100000
00000000
00000000
00000000
00001000
00000000
00010000
00001000
,
00010000
00001000
00010000
00000000
00000100
00000000
00000000
00000000
00000100
00000000
00000010
00000000
00000011
00000000
00000000
00000000
,
00000100
00001000
00010000
01000000
00100000
00000000
01100000
00000000
,
01100000
00000000
11000000
00000000
00100000
01000000
01001000
00000000
,
00010000
00000000
00000100
00000000
00000010
00000000
00000001
00000100
00000001
00000000
00010000
00001000
00010000
00001000
00010000
00000000
,
00011000
02020000
00000000
00000000
,
00000000
00000000
00000000
00000000
00000000
03030000
00000000
20020000
,
00000000
00000000
00000000
00000000
00000000
00000000
00000000
30030000
,
00000000
00100000
01100000
00000000
01000000
00000000
00100000
00000000
,
01000000
00001000
00010000
00001000
,
00010000
00000100
00000010
00000001
,
00000010
00000100
00010000
00001000
,
00010000
00001000
00100000
01000000
,
10000000
00000000
01000000
00000000
00100000
00000000
00001000
00001000
,
00010000
00000000
00001000
00010000
00002000
00000000
00000000
00000000
00013000
00000000
00000100
00000000
00000010
00000000
00000001
00000000
,
00000010
00000001
00000100
00000010
00020000
00000000
00031000
01000000
,
00100000
10000000
01000000
10000000
01000000
10000000
00100000
00000000
,
01100000
00000000
01001000
00000000
00001000
00010000
00000100
00000010
,
00000100
00000010
00010000
00000000
00011000
00000000
00010010
00000000
,
00000010
00000000
00000100
00000000
00000010
00000000
00000100
00000000
00000001
00000100
00000001
00000000
00010000
00000010
00010000
00000000
,
00001000
00011000
00000000
01100000
00000000
01100000
00000000
00100000
,
01000000
10000000
00010000
00000000
00100000
00000000
00001000
00000000
00010000
00000000
00011000
00000000
00000000
00000000
00000110
00000000
,
00000000
00000000
00000110
00000000
00000000
00000000
00000100
00000000
00000010
00000001
00000100
00000000
00000010
00000000
00001000
00000000
,
00010000
00011000
00000000
01100000
00000000
01100000
00000000
00100000
,
10000000
01000000
00100000
00000000
00001000
00000000
00010000
00000000
00000010
00000000
00000010
00000000
00000100
00000000
00000100
00000000
,
00000001
00000000
00000010
00000000
00000100
00000010
00000100
00000000
00010000
00001000
00010000
00000000
01000000
00100000
01000000
00100000
,
02000000
00000000
00000000
00000000
00000000
00000000
03100000
01000000
,
00100000
01000000
00100000
10000000
01000000
00010000
00000100
00000001
,
00000100
00000000
00000010
00000100
00000010
00000000
00010000
00001000
00010000
00001000
01000000
00000000
00000000
00000000
00000000
00000000
;

//---------------dance-single - ----------------
#NOTES:
     dance-single:
     :
     Beginner:
     2:
     0.070,0.135,0.091,0.000,0.000:
1000
0000
0000
0000
,
0000
0000
0001
0000
,
0000
0000
0000
0000
,
1000
0000
0000
0000
,
0000
0000
0001
0000
,
0000
0000
0000
0000
,
1000
0000
0000
0000
,
0000
0000
0100
0000
,
0000
0000
0000
0000
,
0010
0000
0000
0000
,
0000
0000
0100
0000
,
0000
0000
0000
0000
,
1000
0000
0000
0000
,
0000
0000
0100
0000
,
0000
0000
0000
0000
,
0010
0000
0000
0000
,
0000
0000
0100
0000
,
0000
0000
0000
0000
,
1001
0000
0000
0000
,
0000
0000
0001
0000
,
0000
0000
0000
0000
,
0100
0000
0000
0000
,
0000
0000
0001
0000
,
0000
0000
0000
0000
,
1001
0000
0000
0000
,
0000
0000
1000
0000
,
0000
0000
0000
0000
,
0100
0000
0000
0000
,
0000
0000
1000
0000
,
0000
0000
0000
0000
,
0000
0110
0000
0000
,
0000
0000
0000
0000
,
0000
0000
0000
0000
,
0000
0110
0000
0000
,
0000
0000
0000
0000
,
0000
0000
0000
0000
,
0000
1001
0000
0000
,
0000
0000
0000
0000
,
0000
0000
0000
0000
,
0000
1001
0000
0000
,
0000
0000
0000
0000
,
0000
0000
0000
0000
,
0000
0001
0000
0000
,
0000
0000
0000
0000
,
0000
0010
0000
0000
,
0000
0000
0000
0000
,
0000
0100
0000
0000
,
0000
0000
0000
0000
,
0000
1000
0000
0000
,
0000
0000
0000
0000
,
0000
0001
0000
0000
,
0000
0000
0000
0000
,
0000
0100
0000
0000
,
0000
0000
0000
0000
,
0000
0001
0000
0000
,
0000
0000
0000
0000
,
0000
1000
0000
0000
,
0000
0000
0000
0000
,
0000
1001
0000
0000
,
0000
0000
0000
0000
,
0000
0000
0000
0000
,
0000
0010
0000
0000
,
0000
0000
0000
0010
,
0000
0000
0000
0000
,
0000
0010
0000
0000
,
0000
0000
0000
0010
,
0000
0000
0000
0000
,
0000
0010
0000
0000
,
0000
0000
0100
0000
,
0000
0000
0000
0000
,
0010
0000
0000
0000
,
0000
0000
1000
0000
,
0000
0000
0000
0000
,
1001
0000
0000
0000
,
0000
0000
1001
0000
,
0000
0000
0000
0000
,
1001
0000
0000
0000
,
0000
0000
0001
0000
,
0000
0001
0000
0000
,
0010
0000
0000
0000
,
0000
0000
0000
0000
,
0000
0000
0000
0000
0000
0110
0000
0000
;
