#TITLE:いま 我々にできること;
#SUBTITLE:;
#ARTIST:大日本森倶楽部 feat. Koh Nishino;
#TITLETRANSLIT:IMA WAREWARE NI DEKIRU KOTO;
#SUBTITLETRANSLIT:;
#ARTISTTRANSLIT:DAINIPPON MORIKURABU feat. Koh Nishino;
#CREDIT:DigiMindAxel;
#BANNER:IMA WAREWARE NI DEKIRU KOTO.png;
#BACKGROUND:IMA WAREWARE NI DEKIRU KOTO-bg.png;
#LYRICSPATH:IMA WAREWARE NI DEKIRU KOTO.lrc;
#CDTITLE:GITADORA.png;
#MUSIC:IMA WAREWARE NI DEKIRU KOTO.ogg;
#METERTYPE:DDR X;
#OFFSET:-13.840;
#SAMPLESTART:47.690;
#SAMPLELENGTH:12.000;
#SELECTABLE:YES;
#DISPLAYBPM:192.000;
#BPMS:0.000=172.000,4.000=192.000,288.000=172.000;
#STOPS:;
#BGCHANGES:;

//---------------dance-single - ----------------
#NOTES:
     dance-single:
     :
     Easy:
     6:
     0.245,0.255,0.080,0.009,0.000:
0000
0000
0000
0000
,
0001
1000
0001
0000
,
0100
0001
0010
0000
,
0001
1000
0001
0000
,
0010
0100
1000
0000
,
0010
0100
0010
0000
,
0100
0001
0010
0000
,
0100
0010
0100
0000
,
1000
0010
0100
0000
,
0001
0001
0001
0000
,
1000
1000
1000
0000
,
1001
0000
1001
0000
,
0001
1000
0001
0000
,
1000
1000
1000
0000
,
0001
0001
0001
0000
,
1001
0000
1001
0000
,
1000
0001
1000
0000
,
0100
0000
0010
0000
,
0001
0000
0100
0000
,
0010
0000
0100
0000
,
0001
0000
0000
0000
,
1000
0000
0100
0000
,
0010
0000
0100
0000
,
1000
0000
1000
0000
,
0010
0000
0010
0000
,
0110
0000
0110
0000
,
0100
0010
0100
0000
,
0001
1000
0001
0000
,
1000
0100
1000
0000
,
0001
1000
0001
0000
,
0100
0001
0100
0000
,
0010
0100
0010
0000
,
1000
0010
1000
0000
,
0001
1000
0001
0000
,
0010
0001
0010
0000
,
0001
1000
0001
0000
,
1000
0100
0010
0000
,
0001
0100
0010
0000
,
0100
0010
0100
0000
,
0001
1000
0100
0000
,
1000
0100
1000
0000
,
0010
0100
0001
0000
,
0100
0010
0100
0010
,
1000
0000
0100
0000
,
0010
0000
0100
0000
,
1000
0000
0001
0000
,
1001
0000
0000
0000
,
1000
0100
0010
0001
,
1000
0100
0010
0001
,
1000
0000
0010
0000
,
0100
0000
0001
0000
,
1000
1000
0001
0001
,
0010
0100
1000
0000
,
1001
0000
0001
0000
,
0001
0000
0001
0000
,
1000
0000
1000
0000
,
1000
0000
1000
0000
,
0100
0000
0100
0000
,
0010
0000
0010
0000
,
0001
0000
0100
0000
,
0010
0000
0000
0000
,
1000
0001
1000
0100
,
1000
0000
0000
0000
,
0001
1000
0001
0010
,
0001
0000
0000
0000
,
0100
0010
0100
0001
,
0100
0000
0000
0000
,
0010
0010
1000
1000
,
0010
0010
0100
0100
,
0001
0000
1001
0000
,
1000
0001
0200
0000
,
0000
0000
0000
0000
,
0300
0000
0000
0000
;

//---------------dance-single - ----------------
#NOTES:
     dance-single:
     :
     Medium:
     9:
     0.455,0.446,0.256,0.124,0.000:
0000
0000
0000
0000
,
1000
0100
1000
0000
0001
0000
0001
0000
,
0100
0010
0100
0000
0001
0000
0001
0000
,
1000
0100
1000
0000
0100
0000
0100
0000
,
0010
0001
0010
0000
0001
0000
0001
0000
,
0100
0010
0100
0000
0010
0000
0010
0000
,
1000
0001
1000
0000
0010
0000
0010
0000
,
0100
0001
0100
0000
0001
0000
0001
0000
,
0010
0100
0010
0000
0001
0000
0001
0000
,
1001
1001
1001
0000
,
0110
0110
0110
0000
,
1001
0000
1001
0000
,
1001
0110
1001
0000
,
1001
1001
1001
0000
,
0110
0110
0110
0000
,
1001
0000
1001
0000
,
1001
0110
1001
0000
,
2000
0000
0100
0000
3100
0000
0010
0001
,
0200
0010
0310
1000
,
0200
1000
2300
0001
,
3001
0000
0000
1001
0000
0000
1001
0000
,
0002
0100
0203
0010
,
0320
1000
2030
0100
,
3200
0010
0320
0001
,
0032
1000
1003
0000
,
0001
1000
0001
0000
1000
0100
1000
0000
,
0001
0010
0100
1000
0001
0000
0000
0000
,
0100
0001
1000
0100
1000
0000
0100
1000
,
0000
0010
0010
0010
,
0100
0001
0100
0001
1000
0000
0001
1000
,
0000
0100
0100
0000
,
1000
0100
1000
0001
0010
0000
0001
1000
,
0000
0100
0100
0100
,
1000
0100
0010
0001
0100
0000
0001
1000
,
0000
0100
0100
0000
,
0010
0001
0100
0010
1000
0000
0010
1000
,
0000
0010
0010
0010
,
1000
0100
0010
0001
1000
0000
0001
1000
,
0000
0010
0010
0000
,
0100
0001
1000
0100
0010
0000
0001
1000
,
0000
0010
0010
0010
,
1000
0100
0010
0001
1000
0000
0001
1000
,
0000
0100
0100
0100
,
1002
0000
1000
0000
1003
0000
0001
0100
,
0010
0000
0100
0010
0100
0010
1000
0000
,
0100
0010
0100
0000
1000
0010
1000
0000
,
1001
0000
0000
1001
0000
0000
1001
0000
,
0001
0010
0100
0000
0010
0001
0010
0000
,
0001
0010
0100
0000
0010
0001
0010
0000
,
0001
1000
0000
0010
1000
0000
0001
1000
,
0000
0010
1000
0000
0002
0000
0000
0000
,
1003
0100
1000
0000
0001
0100
0001
0000
,
1000
0100
0010
0001
1000
0000
0000
0000
,
1001
0001
0001
0001
,
0001
0001
0001
0001
,
1000
1000
1000
1000
,
1000
1000
1000
1000
,
0001
0001
0001
0001
,
0001
0001
0001
0001
,
1000
1000
1000
1000
,
0100
0010
0001
1000
,
0001
0100
0001
0100
0010
0000
1000
0001
,
0000
1000
1000
1000
,
0100
1000
0010
0100
0001
0000
1000
0001
,
0000
0100
0100
0000
,
0010
1000
0001
0010
0100
0000
1000
0001
,
0000
1000
1000
1000
,
0001
0010
0001
0000
1000
0010
1000
0000
,
0001
0010
0001
0000
1000
0010
1000
0000
,
0001
0010
0100
0000
1000
0100
0010
0000
,
0001
0100
0010
1000
0200
0000
0000
0000
,
0000
0000
0000
0000
,
0300
0000
0000
0000
;

//---------------dance-single - ----------------
#NOTES:
     dance-single:
     :
     Hard:
     13:
     0.663,0.669,0.442,0.168,0.150: // measure 1
0000
0000
0000
0000
,  // measure 2
1000
0001
0100
0001
1000
0000
1000
0001
,  // measure 3
0100
1000
0100
0001
1000
0000
1001
0000
,  // measure 4
0001
0010
0100
0010
0001
0000
0001
1000
,  // measure 5
0100
0001
0100
1000
0001
0000
1001
0000
,  // measure 6
1000
0001
0010
0001
1000
0000
1000
0001
,  // measure 7
0100
1000
0100
0001
1000
0000
1001
0000
,  // measure 8
0001
0100
0010
0100
0001
0000
0001
1000
,  // measure 9
0010
0001
0010
1000
0001
0000
1001
0000
,  // measure 10
1100
0110
0011
1001
,  // measure 11
1100
0110
0011
1001
,  // measure 12
0110
0010
1000
0000
0110
0100
0001
0000
,  // measure 13
1001
1000
0100
0010
0001
0000
1001
0000
,  // measure 14
0011
0110
1100
1001
,  // measure 15
0011
0110
1100
1001
,  // measure 16
0110
0010
1000
0000
0110
0100
0001
0000
,  // measure 17
1001
0001
0010
0100
1000
0000
0001
1000
,  // measure 18
0020
0000
0100
0000
0130
0000
0001
0100
,  // measure 19
1000
0000
0100
0001
0100
0000
1000
0000
,  // measure 20
0001
0010
1000
0000
0010
0001
0010
0000
,  // measure 21
1010
0000
0100
0110
0000
0001
0101
0000
,  // measure 22
0100
0001
1000
0000
0001
0100
1000
0000
,  // measure 23
0100
0001
1000
0000
0001
0010
1000
0000
,  // measure 24
0010
0001
1000
0000
0100
0010
0001
0000
,  // measure 25
1000
0001
0100
0000
0001
1000
0100
0010
,  // measure 26
0001
0001
0001
0000
0100
0100
0100
0000
,  // measure 27
1001
1000
0100
0010
2002
0000
3003
0000
,  // measure 28
1000
0001
0100
1000
0100
0000
0001
2000
,  // measure 29
0000
3100
0010
0100
0010
0001
1000
0000
,  // measure 30
0001
0000
1000
0100
1000
0000
0001
0000
0100
0000
0000
0000
0001
0000
2000
0000
,  // measure 31
0000
3010
0100
0010
0100
0001
1001
0000
,  // measure 32
1000
0001
0100
1000
0100
0010
1000
0002
,  // measure 33
0000
0013
0100
1000
0001
0100
0001
0000
,  // measure 34
1000
0000
0100
0010
0100
0000
1000
0000
0001
0000
0000
0000
0100
0000
0002
0000
,  // measure 35
0000
0000
1003
0000
0001
0000
0100
0000
0001
0000
1000
0100
1000
0000
0000
0000
,  // measure 36
0001
0000
1000
0010
1000
0000
0100
0000
0010
0000
0001
0000
0100
0000
0101
0000
,  // measure 37
0000
0010
1000
0100
0010
0001
1000
0000
,  // measure 38
0001
0000
1000
0010
1000
0000
0001
0000
0010
0000
0100
0000
0010
0000
0011
0000
,  // measure 39
0000
0100
1000
0001
0100
0001
1001
0000
,  // measure 40
1000
0000
0100
1000
0100
0000
0010
0000
0001
0000
1000
0000
0010
0000
1010
0000
,  // measure 41
0000
0100
0001
0010
0100
1000
0001
0000
,  // measure 42
1000
0000
0001
0100
0001
0000
0100
0000
0010
0000
1000
0000
0100
0000
0110
0000
,  // measure 43
0000
0000
0010
0000
0001
0000
1000
0000
0010
1000
0010
1000
0010
1000
0010
1000
,  // measure 44
0020
0000
0130
0000
0002
0000
0013
0100
,  // measure 45
2000
0000
3001
1000
0100
0001
0100
1000
,  // measure 46
0010
0001
0010
1000
0100
0010
0001
1000
,  // measure 47
1010
0000
0010
0110
0000
0100
0101
0000
,  // measure 48
0010
0000
0000
0010
1000
0000
0000
1000
0001
0000
0000
0001
0010
0000
0000
0010
,  // measure 49
0100
0000
0000
0100
1000
0000
0000
1000
0001
0000
0000
0001
0100
0000
0000
0100
,  // measure 50
0020
1000
0000
1030
0001
0000
0020
0001
,  // measure 51
0000
0031
1000
0100
0020
0000
0001
0000
,  // measure 52
0031
0001
0001
0000
0100
0100
0100
0000
,  // measure 53
1001
0001
0010
0100
1001
0000
0000
0000
,  // measure 54
1000
0010
1000
0010
,  // measure 55
0100
0001
0100
0001
,  // measure 56
0010
0100
0010
0100
,  // measure 57
1000
0100
1000
0100
,  // measure 58
0010
0001
0010
0001
1000
0010
1000
0000
,  // measure 59
0100
0010
0100
0010
0001
0100
0001
0000
,  // measure 60
0010
0100
0010
0100
1000
0001
0100
0002
,  // measure 61
0000
1000
1000
1003
,  // measure 62
0001
0000
1000
0100
0010
0000
0100
0000
1000
0000
0001
0000
0100
0000
0102
0000
,  // measure 63
0000
0013
0100
1000
0001
0100
0001
0000
,  // measure 64
0100
0000
0010
1000
0100
0000
0010
0000
0001
0000
0100
0000
0001
0000
2001
0000
,  // measure 65
0000
0000
3100
0000
0010
0000
0001
0000
1000
0000
0001
0100
0001
0000
0000
0000
,  // measure 66
0010
0000
0100
0010
0001
0000
1000
0000
0010
0000
1000
0000
0001
0000
2001
0000
,  // measure 67
0000
0000
3100
0000
0010
0000
0001
0000
1000
0010
1000
0010
1000
0010
1000
0000
,  // measure 68
0100
0010
0100
0010
0100
0000
0000
0000
1000
0001
1000
0001
1000
0000
0000
0000
,  // measure 69
0001
0100
0001
0100
0001
0000
0000
0000
0010
0100
0010
0100
0010
0000
0000
0000
,  // measure 70
1001
1000
1000
0000
1001
0001
0001
0000
,  // measure 71
1001
1000
0100
0010
2002
0000
0000
0000
,  // measure 72
0000
0000
0000
0000
,  // measure 73
3003
0000
0000
0000
;

//---------------dance-single - ----------------
#NOTES:
     dance-single:
     :
     Beginner:
     2:
     0.086,0.156,0.080,0.000,0.000:
0000
0000
0000
0000
,
1000
0000
0000
0000
,
0100
0000
0000
0000
,
1000
0000
0000
0000
,
0001
0000
0000
0000
,
1000
0000
0000
0000
,
0100
0000
0000
0000
,
1000
0000
0000
0000
,
0001
0000
0000
0000
,
1001
0000
0000
0000
,
1000
0000
0000
0000
,
1001
0000
0000
0000
,
0000
0000
0000
0000
,
1001
0000
0000
0000
,
0001
0000
0000
0000
,
1001
0000
0000
0000
,
0000
0000
0000
0000
,
1000
0000
0000
0000
,
0010
0000
0000
0000
,
0100
0000
0000
0000
,
0001
0000
0000
0000
,
1000
0000
0000
0000
,
0100
0000
0000
0000
,
0010
0000
0000
0000
,
0001
0000
0000
0000
,
1001
0000
0000
0000
,
0000
0000
0000
0000
,
1000
0000
0000
0000
,
0100
0000
0000
0000
,
1000
0000
0000
0000
,
0001
0000
0000
0000
,
1000
0000
0000
0000
,
0100
0000
0000
0000
,
0010
0000
0000
0000
,
0100
0000
0000
0000
,
1000
0000
0000
0000
,
0001
0000
0000
0000
,
0100
0000
0000
0000
,
0001
0000
0000
0000
,
1000
0000
0000
0000
,
0100
0000
0000
0000
,
0010
0000
0000
0000
,
0001
0000
0000
0000
,
1000
0000
0000
0000
,
0000
0000
0000
0000
,
1000
0000
0000
0000
,
0000
0000
0000
0000
,
0001
0000
0000
0000
,
0000
0000
0000
0000
,
0001
0000
0000
0000
,
0000
0000
0000
0000
,
1001
0000
0000
0000
,
0000
0000
0000
0000
,
1000
0000
0000
0000
,
0000
0000
0000
0000
,
0000
0000
0000
0000
,
0000
0000
0000
0000
,
0001
0000
0000
0000
,
0000
0000
0000
0000
,
0000
0000
0000
0000
,
0000
0000
0000
0000
,
1001
0000
0000
0000
,
1000
0000
0000
0000
,
0010
0000
0000
0000
,
1000
0000
0000
0000
,
0001
0000
0000
0000
,
0010
0000
0000
0000
,
0100
0000
0100
0000
,
0100
0000
0100
0000
,
0100
0000
0000
0000
,
1001
0000
1001
0000
;
