#TITLE:I REALLY WANT TO HURT YOU;
#SUBTITLE:;
#ARTIST:SUGI & REO;
#TITLETRANSLIT:;
#SUBTITLETRANSLIT:;
#ARTISTTRANSLIT:;
#CREDIT:DigiMindAxel;
#BANNER:I REALLY WANT TO HURT YOU.png;
#BACKGROUND:I REALLY WANT TO HURT YOU-bg.png;
#LYRICSPATH:I REALLY WANT TO HURT YOU.lrc;
#CDTITLE:pop'n music.png;
#MUSIC:I REALLY WANT TO HURT YOU.ogg;
#METERTYPE:DDR X;
#OFFSET:-7.774;
#SAMPLESTART:14.514;
#SAMPLELENGTH:12.000;
#SELECTABLE:YES;
#BPMS:0.000=142.000;
#STOPS:;
#BGCHANGES:;

//---------------dance-single - ----------------
#NOTES:
     dance-single:
     :
     Easy:
     3:
     0.172,0.231,0.061,0.170,0.000: // measure 1
1000
0001
1000
0000
,  // measure 2
0100
0000
0010
0000
,  // measure 3
0001
1000
0001
0000
,  // measure 4
0100
0000
0010
0000
,  // measure 5
1000
0000
0100
0000
,  // measure 6
0010
0000
0000
0000
,  // measure 7
0100
0000
0010
0000
,  // measure 8
0001
0000
0000
0000
,  // measure 9
2000
0000
3002
0000
,  // measure 10
2003
0000
3002
0000
,  // measure 11
0023
0000
0000
0000
,  // measure 12
0230
0000
0000
0000
,  // measure 13
1300
0000
0010
0000
,  // measure 14
0100
0000
0010
0000
,  // measure 15
0100
0000
0001
0000
,  // measure 16
1000
0000
0001
0000
,  // measure 17
1001
0000
0001
1000
,  // measure 18
0001
0000
0010
0000
,  // measure 19
0100
0000
1000
0000
,  // measure 20
0020
0000
0000
0000
,  // measure 21
0130
0000
0001
0000
,  // measure 22
1000
0000
0100
0000
,  // measure 23
0010
0000
0000
0000
,  // measure 24
0001
0000
0100
0000
,  // measure 25
0010
0000
0100
0000
,  // measure 26
0001
0000
0000
0000
,  // measure 27
1001
0000
1000
0000
,  // measure 28
0100
0000
0010
0000
,  // measure 29
0001
0000
0000
0000
,  // measure 30
0100
0000
0000
0000
,  // measure 31
0001
0000
0000
0000
,  // measure 32
1000
1000
1000
1000
,  // measure 33
1001
0000
0001
1000
,  // measure 34
0010
0100
0010
0000
,  // measure 35
0000
1000
0001
0100
,  // measure 36
0010
0100
0000
0000
,  // measure 37
0000
0001
2000
0000
,  // measure 38
3200
0000
0320
0000
,  // measure 39
0032
0000
0203
0000
,  // measure 40
0320
0000
0230
0000
,  // measure 41
0000
0000
0300
0000
,  // measure 42
0000
0000
1001
0000
,  // measure 43
0000
0110
0000
0000
;

//---------------dance-single - ----------------
#NOTES:
     dance-single:
     :
     Medium:
     8:
     0.447,0.412,0.425,0.389,0.000:
1000
0000
1010
0000
0000
0100
0000
0101
,
0000
0000
0001
0000
0100
0010
0000
2000
,
0000
0000
3001
0000
1000
0000
0010
0100
,
0000
0001
0000
1000
0000
0001
0000
0000
,
0110
0000
0110
0000
1000
0001
0000
2000
,
0000
0100
3100
0010
,
1001
0000
1001
0000
0010
0100
0000
0002
,
0000
1000
1000
1003
,
1100
0000
0100
0000
0010
0001
1000
0000
,
0200
0000
0000
2300
0000
0000
3001
0100
,
0001
0010
0100
1000
,
1001
1001
0110
0110
,
0101
0000
0100
0000
0010
1000
0001
0000
,
0020
0130
2000
3100
,
0020
0130
2000
3001
,
0020
0031
1001
1100
,
1001
0000
1001
0000
0001
0010
0001
0000
,
0010
0200
2300
3020
,
0230
0302
0023
0230
,
0310
0011
0110
1100
,
1000
0001
1000
0000
0100
0010
0100
0000
,
1000
0010
1000
0000
0001
0010
0100
0000
,
0010
0001
0010
0000
0100
0010
0100
0000
,
1000
0001
0000
0010
0000
0100
0000
0000
,
1000
0001
1000
0000
0010
0100
0010
0000
,
1000
0001
1000
0000
0010
0001
0010
0000
,
2000
0000
3100
0010
0200
0000
1300
0001
,
2000
0000
3100
0010
0200
0000
1300
0000
,
0020
0000
0031
1000
0010
1000
0000
0100
,
0010
0100
0000
0010
0000
0010
0000
0000
,
0001
0000
1000
0001
0010
0001
0000
0100
,
0010
0110
1001
0110
,
1001
1001
0101
0101
,
0100
0010
0100
0020
0000
0000
1000
0000
,
1000
1030
1001
1001
,
0001
0010
0001
0020
0000
0000
0100
0000
,
0100
0130
1200
1300
,
0120
0130
0012
0013
,
0210
0310
2001
3001
,
0120
0000
0130
0000
0001
1000
0001
0000
,
0100
0010
1000
0010
1000
0000
0000
0000
,
0000
0000
0000
0000
0002
0000
0000
2000
,
0000
3003
0001
1001
0000
0000
0000
0000
;

//---------------dance-single - ----------------
#NOTES:
     dance-single:
     :
     Hard:
     9:
     0.505,0.437,0.437,0.304,0.055:
1001
0000
0101
0000
0100
0001
1000
0200
,
0000
0010
0310
0001
1000
0100
0000
0020
,
0000
0000
0031
0000
0100
1000
0100
0010
,
0000
0101
0000
0110
0000
1010
0000
0000
,
1001
0000
0000
0000
1001
0000
0000
0001
1000
0000
0010
0000
0100
0000
0002
0000
,
0000
1000
1003
0100
,
1100
0000
1100
0000
1000
0001
0010
0200
,
0000
1000
0310
0001
,
1001
0000
1001
0000
0001
0100
0010
2000
,
0000
0000
0000
3100
0000
0000
0010
0001
,
1000
0000
0001
0200
0000
0010
0310
0000
,
1100
0011
1001
1001
,
0101
0000
0000
0000
0101
0000
0000
0100
0010
0000
1000
0000
0100
0000
0020
0000
,
0000
0001
0130
1000
,
1001
0000
1001
0000
0010
0100
0001
0010
,
0100
1010
0110
0101
,
1001
0000
1001
0000
1000
0010
0100
0002
,
0000
0000
1003
0100
0010
0000
0001
0100
,
0010
0000
1000
0100
0010
0000
0100
1000
,
0001
0002
0000
0100
0000
0103
1001
0000
,
0001
0100
0001
1000
0100
1000
0001
0000
,
0100
1000
0100
0001
0010
0100
0010
0000
,
0001
1000
0100
1000
0010
0001
0010
1000
,
0100
0010
0000
0011
0000
0110
0000
0000
,
1000
0010
1000
0001
0010
0001
1000
0000
,
0100
0001
0100
1000
0001
0010
0100
0000
,
0020
0001
0031
0000
0200
0010
0310
0000
,
2000
0100
3100
0000
0020
0100
0130
0000
,
2000
0000
3001
0100
0010
1000
0000
1000
,
0001
0010
0000
1001
0000
1001
0000
0000
,
0001
0000
1000
0100
0010
0001
0000
0100
,
0001
0100
0000
0000
0001
0100
0000
0000
0010
1000
0000
0000
0010
1000
0000
0000
,
0001
1000
0001
1000
0001
0000
0000
0000
1001
0000
0000
0000
1001
0000
0000
0001
,
1000
0100
0010
0002
0000
0000
0010
0000
,
0103
0000
0001
0100
0010
0000
1001
0000
,
0001
0010
0100
2000
0000
0000
0100
0000
,
3010
0000
1000
0010
0200
0010
0310
0000
,
2000
0100
3100
0000
0020
0001
0031
0000
,
0200
0010
0310
0000
2000
0001
3001
0000
,
0200
0001
0301
0000
2000
0010
3010
0000
,
0100
0001
0010
0100
2200
0000
0000
0000
,
0000
3300
1001
0000
,
0000
0000
0101
0101
0000
0000
0000
0000
;

//---------------dance-single - ----------------
#NOTES:
     dance-single:
     :
     Beginner:
     1:
     0.078,0.103,0.073,0.000,0.000: // measure 1
1000
0000
0000
0000
,  // measure 2
0001
0000
0000
0000
,  // measure 3
1000
0000
0000
0000
,  // measure 4
0100
0000
0000
0000
,  // measure 5
1001
0000
0000
0000
,  // measure 6
0000
0000
0000
0000
,  // measure 7
0001
0000
0000
0000
,  // measure 8
0000
0000
0000
0000
,  // measure 9
0100
0000
0000
0000
,  // measure 10
0000
0000
0000
0000
,  // measure 11
0010
0000
0000
0000
,  // measure 12
1000
0000
0000
0000
,  // measure 13
1001
0000
0000
0000
,  // measure 14
0000
0000
0000
0000
,  // measure 15
1000
0000
0000
0000
,  // measure 16
0000
0000
0000
0000
,  // measure 17
0100
0000
0000
0000
,  // measure 18
0000
0000
0000
0000
,  // measure 19
0010
0000
0000
0000
,  // measure 20
0100
0000
0000
0000
,  // measure 21
1001
0000
0000
0000
,  // measure 22
1000
0000
0000
0000
,  // measure 23
1000
0000
0000
0000
,  // measure 24
1000
0000
0000
0000
,  // measure 25
0001
0000
0000
0000
,  // measure 26
0001
0000
0000
0000
,  // measure 27
0001
0000
0000
0000
,  // measure 28
0001
0000
0000
0000
,  // measure 29
0010
0000
0000
0000
,  // measure 30
0100
0000
0000
0000
,  // measure 31
0010
0000
0000
0000
,  // measure 32
0100
0000
0000
0000
,  // measure 33
0000
0000
1001
0000
,  // measure 34
1000
0000
0001
0000
,  // measure 35
0000
0000
1000
0000
,  // measure 36
0001
0000
1000
0000
,  // measure 37
0000
0000
0001
0000
,  // measure 38
0000
0000
0010
0000
,  // measure 39
0000
0000
0100
0000
,  // measure 40
0000
0000
1000
0000
,  // measure 41
0000
0000
1001
0000
,  // measure 42
0000
0000
0001
0000
,  // measure 43
0000
1001
0000
0000
;
