#TITLE:Hot Issue;
#SUBTITLE:;
#ARTIST:4minute;
#TITLETRANSLIT:;
#SUBTITLETRANSLIT:;
#ARTISTTRANSLIT:;
#CREDIT:DigiMindAxel;
#BANNER:Hot Issue.png;
#BACKGROUND:Hot Issue-bg.png;
#LYRICSPATH:Hot Issue.lrc;
#CDTITLE:DigiMindAxel original simfile.png;
#MUSIC:Hot Issue.ogg;
#METERTYPE:DDR X;
#OFFSET:-0.425;
#SAMPLESTART:79.115;
#SAMPLELENGTH:12.000;
#SELECTABLE:YES;
#BPMS:0.000=128.000;
#STOPS:;
#BGCHANGES:0.000=Hot Issue.avi=1.000=1=1=0,
99999=-nosongbg-=1.000=0=0=0 // don't automatically add -songbackground-
;

//---------------dance-single - ----------------
#NOTES:
     dance-single:
     :
     Easy:
     3:
     0.158,0.210,0.228,0.079,0.000:
0000
0000
0000
0000
,
0000
0000
0000
0000
,
0000
0000
0000
0000
,
0000
0000
0000
0000
,
0000
0000
0000
0000
,
0000
0000
0000
0000
,
1000
0000
0000
0000
,
1000
0000
0000
0000
,
0001
0000
0000
0000
,
1001
0000
0000
0000
,
0010
0000
0100
0000
,
0110
0000
0000
0000
,
0100
0000
0010
0000
,
0110
0000
0000
0000
,
2001
0000
0000
0000
,
3002
0000
0000
0000
,
1003
1000
1000
0000
,
1001
0000
0000
0000
,
0010
0000
0100
0000
,
0010
0000
0000
0000
,
1000
0000
0001
0000
,
1000
0000
0000
0000
,
0001
0000
0010
0000
,
0001
0000
0000
0000
,
1001
0000
0000
0000
,
1000
1000
1000
0000
,
0100
0000
1000
0000
,
0100
0000
0010
0000
,
0001
0000
0100
0000
,
0001
0000
1000
0000
,
0010
0000
0100
0000
,
0010
0000
1000
0000
,
0100
0000
0010
0000
,
0100
0000
0000
0000
,
1001
0000
1001
0000
,
1001
0000
0000
0000
,
0110
0000
0110
0000
,
0110
0000
0000
0000
,
1001
0000
1001
0000
,
1001
0000
0000
0000
,
0010
0000
0100
0000
,
1000
1000
1000
0000
,
1001
0000
0001
0000
,
0100
0001
0010
0000
,
1001
0000
0001
0000
,
0010
0100
1000
0000
,
0120
0000
0000
0000
,
0230
0000
0000
0000
,
0310
0010
0010
0000
,
0110
0000
1001
0000
,
0002
0000
1003
0000
,
1001
0000
0000
0000
,
0020
0000
0130
0000
,
0110
0000
0000
0000
,
2000
0000
3001
0000
,
1001
0000
0000
0000
,
0001
0001
0001
0000
,
1001
0000
1001
0000
,
0010
0000
0000
0220
,
0000
0000
0000
0330
;

//---------------dance-single - ----------------
#NOTES:
     dance-single:
     :
     Medium:
     7:
     0.339,0.394,0.325,0.105,0.000:
0000
0000
0000
0000
,
0000
0000
0000
0000
,
0000
0000
0000
0000
,
0000
0000
0000
0000
,
0000
0000
0000
0000
,
0000
0000
0000
0000
,
1000
0000
1000
0000
,
0001
1000
0001
0000
,
0010
0000
0010
0000
,
0010
0010
0010
0010
,
1001
0010
0100
1000
,
0001
0001
0001
1000
,
0100
0010
0001
1000
,
0100
0100
0100
0110
,
1002
1000
1000
1003
,
2001
0001
0001
3001
,
0010
0100
0010
0000
0100
0010
0100
0000
,
0110
0110
0110
1001
,
0002
1000
0000
1003
,
0001
0010
0100
1000
,
0002
1000
0000
1003
,
0001
1000
0100
0010
,
0002
1000
0000
1003
,
0001
0010
0100
1000
,
0010
0100
0010
0100
0010
0100
0010
0000
,
0010
0010
0010
0110
,
1001
0010
0100
1000
,
0001
0010
0100
0000
,
1000
0010
0100
0001
,
1000
0010
0100
0000
,
0001
1000
0100
0010
,
0001
0010
0100
1000
,
0010
0010
0100
0001
,
1000
0001
1000
0000
1001
0000
1001
0000
,
0100
1000
0100
0000
0100
1000
0100
0000
,
1001
1001
0110
0110
,
0010
0001
0010
0000
0010
0001
0010
0000
,
1001
1001
0110
0110
,
0010
1000
0010
0000
0010
1000
0010
0000
,
0110
0110
1001
1001
,
0100
0001
1000
0000
0100
0000
0010
0000
,
0001
0100
0001
0000
1000
0010
1000
0000
,
1001
0010
0100
1000
,
0001
0010
0001
0010
0100
0000
0000
0000
,
1001
0100
0010
0001
,
1000
0010
1000
0010
0100
0000
0100
0000
,
1002
1000
1000
1003
,
2001
0001
0001
3001
,
0010
0001
0010
0000
0100
0010
0100
0000
,
1001
1001
0110
0110
,
1000
0100
0010
0001
,
0002
0000
1000
1003
,
0001
0010
0100
1000
,
2000
0000
0001
3001
,
1000
0100
0010
0001
,
0002
0000
1000
1003
,
0010
0100
0010
0000
0100
0010
0100
0000
,
0110
0110
1001
1001
,
0100
0000
0000
0000
1000
0001
2002
0000
,
0000
0000
0000
3003
;

//---------------dance-single - ----------------
#NOTES:
     dance-single:
     :
     Hard:
     11:
     0.506,0.473,0.264,0.228,0.088:
0000
0000
0000
0000
,
0000
0000
0000
0000
,
0000
0000
0000
0000
,
0000
0000
0000
0000
,
0000
0000
0000
0000
,
0000
0000
0000
0000
,
2000
0100
0000
3100
,
0020
0100
0000
0031
,
0200
1000
0000
0310
,
0001
0000
1000
0001
0000
1000
0001
0000
1000
0000
1000
0000
1000
0000
0000
0000
,
0010
0100
0010
1000
0010
0100
0010
1000
,
1001
1001
0101
0101
,
0100
0010
0001
0010
0100
1000
0010
1000
,
0001
0000
0100
0010
0000
0100
0010
0000
0100
0000
0100
0000
0100
0000
0000
0000
,
2001
0100
0001
3100
,
1002
0010
1000
0013
,
0001
0001
1000
1000
0001
0001
1000
1000
,
0010
0000
0100
0001
0000
0100
0001
0000
0100
0000
0100
0000
0100
0000
0000
0000
,
0110
0000
0100
0001
0100
1000
0001
0000
,
0010
1000
0010
0001
1000
0100
0010
0000
,
1001
0000
0010
1000
0010
0001
0100
0000
,
0010
0010
1000
1000
0001
0010
0100
0000
,
1001
0000
0100
0001
0100
1000
0010
0000
,
1000
1000
0001
0001
1000
0100
0010
0000
,
0001
0001
0001
0001
0100
0010
1000
0000
,
0001
0000
1000
0100
0000
1000
0100
0000
1000
0000
1000
0000
1000
0000
0000
0000
,
0001
0100
0001
1000
0001
0100
0001
1000
,
0100
0010
0001
0010
0100
0000
1002
0000
,
1003
0010
1000
0001
1000
0010
1000
0001
,
0010
0100
1000
0100
0010
0000
2001
0000
,
3100
0010
0100
1000
0001
0010
1000
0010
,
0000
0001
1000
0001
0100
0010
1000
0100
,
0010
0001
0100
0001
0000
0100
0010
0010
,
1000
0000
0001
0010
0000
0001
0010
0000
0001
0000
0001
0000
0001
0000
0000
0000
,
0100
0100
0001
0001
0100
0100
0001
0001
,
1000
0010
0001
0010
1000
0000
1002
0000
,
1003
1000
0100
0100
1000
1000
0100
0100
,
1000
0010
0001
0010
1000
0000
2001
0000
,
3001
0001
0100
0100
0001
0001
0100
0100
,
0001
1000
0100
0001
0100
1000
0010
0100
,
0002
0000
0000
1000
0000
1000
1000
1003
,
0001
0000
0100
0001
0000
0100
0001
0000
1000
0000
1000
0000
1001
0000
0000
0000
,
0010
0100
1000
0010
0001
0010
0100
0001
,
1001
1010
0101
0110
,
0100
0010
0001
0100
1000
0100
0010
1000
,
1001
0011
1010
0110
,
0100
0010
0001
0010
0100
0010
0001
0000
,
0010
0100
1000
0100
0010
0001
0001
0001
,
1000
1000
0100
0100
1000
1000
0100
0100
,
1000
0000
0010
0100
0000
0010
0100
0000
0001
0000
0001
0000
1001
0000
0000
0000
,
0020
2030
3002
0023
,
0230
0000
0000
1300
0001
0100
0101
0000
,
0200
0302
2003
3200
,
0310
0000
0001
0100
0000
0001
0100
0000
0010
0000
0010
0000
0110
0000
0000
0000
,
0200
2300
3002
0023
,
0230
0000
0000
1300
0001
0100
0101
0000
,
0010
0010
0100
0100
0010
0010
0001
0001
,
1000
0000
0010
1000
0000
0010
1000
0000
0001
0000
0001
0000
1001
0000
0000
0000
,
0100
0000
0001
0100
0000
0001
0100
0000
1001
0000
0110
0000
2002
0000
0000
0000
,
0000
0000
0000
3003
;

//---------------dance-double - ----------------
#NOTES:
     dance-double:
     :
     Easy:
     3:
     0.158,0.210,0.228,0.079,0.000:
00000000
00000000
00000000
00000000
,
00000000
00000000
00000000
00000000
,
00000000
00000000
00000000
00000000
,
00000000
00000000
00000000
00000000
,
00000000
00000000
00000000
00000000
,
00000000
00000000
00000000
00000000
,
10000000
00000000
00000000
00000000
,
01000000
00000000
00000000
00000000
,
00100000
00000000
00000000
00000000
,
10010000
00000000
00000000
00000000
,
01000000
00000000
00100000
00000000
,
10010000
00000000
00000000
00000000
,
00100000
00000000
01000000
00000000
,
10010000
00000000
00000000
00000000
,
10002000
00000000
00000000
00000000
,
00023000
00000000
00000000
00000000
,
00031000
00001000
00001000
00000000
,
00011000
00000000
00000000
00000000
,
00010000
00000000
00000010
00000000
,
00010000
00000000
00000000
00000000
,
00000001
00000000
00000010
00000000
,
00000001
00000000
00000000
00000000
,
00000010
00000000
00000100
00000000
,
00000010
00000000
00000000
00000000
,
00011000
00000000
00000000
00000000
,
00001000
00001000
00001000
00000000
,
00100000
00000000
01000000
00000000
,
10000000
00000000
01000000
00000000
,
00100000
00000000
00001000
00000000
,
00010000
00000000
00001000
00000000
,
00100000
00000000
01000000
00000000
,
10000000
00000000
01000000
00000000
,
00100000
00000000
00001000
00000000
,
00010000
00000000
00000000
00000000
,
00011000
00000000
00011000
00000000
,
00011000
00000000
00000000
00000000
,
00000110
00000000
00000110
00000000
,
00000110
00000000
00000000
00000000
,
00001001
00000000
00001001
00000000
,
00001001
00000000
00000000
00000000
,
00000010
00000000
00000100
00000000
,
00010000
00010000
00010000
00000000
,
00011000
00000000
00001000
00000000
,
00100000
01000000
10000000
00000000
,
10010000
00000000
00010000
00000000
,
00100000
01000000
10000000
00000000
,
20010000
00000000
00000000
00000000
,
30020000
00000000
00000000
00000000
,
10030000
10000000
10000000
00000000
,
01100000
00000000
10001000
00000000
,
00002000
00000000
00013000
00000000
,
00011000
00000000
00000000
00000000
,
00000020
00000000
00000130
00000000
,
00000110
00000000
00000000
00000000
,
00000002
00000000
00001003
00000000
,
00001001
00000000
00000000
00000000
,
00000010
00000010
00000010
00000000
,
00000110
00000000
00000110
00000000
,
00010000
00000000
00000000
00022000
,
00000000
00000000
00000000
00033000
;

//---------------dance-double - ----------------
#NOTES:
     dance-double:
     :
     Medium:
     7:
     0.368,0.420,0.439,0.132,0.000:
00000000
00000000
00000000
00000000
,
00000000
00000000
00000000
00000000
,
00000000
00000000
00000000
00000000
,
00000000
00000000
00000000
00000000
,
00000000
00000000
00000000
00000000
,
00000000
00000000
00000000
00000000
,
20000000
00000000
30020000
00000000
,
10030000
01000000
00100000
00000000
,
00020000
00000000
20030000
00000000
,
30100000
00100000
00100000
00100000
,
10010000
00100000
01000000
10000000
,
00001000
00001000
00001000
00011000
,
00000100
00000010
00000001
00000010
,
00000100
00000100
00000100
00000110
,
00020010
00001000
00000010
00031000
,
00012000
01000000
00010000
01003000
,
00100000
01000000
00100000
00000000
01000000
00100000
01000000
00000000
,
01100000
01100000
01100000
10010000
,
01100000
01000000
00100000
01000000
,
00001000
00100000
01000000
10000000
,
01001000
00001000
00010000
00000010
,
00000100
00000001
00001000
00000100
,
00001001
00000010
00000100
00010000
,
00001000
00100000
01000000
10000000
,
00100000
01000000
00100000
01000000
00100000
01000000
00100000
00000000
,
00100000
00100000
00100000
01100000
,
10010000
00100000
01000000
10000000
,
00001000
00010000
00000020
00000130
,
00000001
00000010
00000100
00000010
,
00000001
00000100
00000020
00010030
,
00001000
00000000
10000000
00000000
01000000
00100000
01000000
00000000
,
10000000
00000000
00010000
00000000
00100000
01000000
00100000
00000000
,
01001000
01001000
00000000
00001000
,
00010010
00010010
00000110
00000110
,
00000010
00000001
00000010
00000000
00000010
00000001
00000010
00000000
,
00001001
00001001
00010010
00010010
,
00001000
01000000
00001000
00000000
00001000
01000000
00001000
00000000
,
01100000
01100000
11000000
11000000
,
00100000
01000000
00100000
00000000
00100000
01000000
00100000
00000000
,
01100000
01100000
01001000
01001000
,
00001000
00000000
00000000
00001000
00000000
00000000
00010000
00000000
,
00010010
00000110
00000101
00000100
,
00000110
00000010
00000001
00000100
,
00000010
00010000
00000010
00010000
00001000
00000000
00011000
00000000
,
10001000
01000000
00100000
00010000
,
01000000
00001000
01000000
00001000
00010000
00000000
00011000
00000000
,
00010020
00000100
00000100
00000130
,
00000201
00000010
00000010
00000310
,
00001000
00000001
00001000
00000000
00000010
00001000
00000010
00000000
,
00011000
00000000
00011000
00000000
00001000
10000000
00001000
00000000
,
00100000
01000000
10000000
00010000
,
02010000
00000000
00000000
00000000
03100000
01000000
00100000
00000000
,
10000000
01000000
00100000
00001000
,
00021000
00000000
00000000
00000000
00030010
00000100
00000010
00000000
,
00001001
00000010
00000100
00010000
,
00012000
00000000
00000000
00000000
00103000
01000000
00100000
00000000
,
00010000
01000000
00010000
00000000
00100000
01000000
10000000
00000000
,
10100000
00000000
10100000
00000000
01000000
00100000
01000000
00000000
,
00001000
00000000
00000000
00000000
00010000
00010000
00022000
00000000
,
00000000
00000000
00000000
00033000
;

//---------------dance-double - ----------------
#NOTES:
     dance-double:
     :
     Hard:
     11:
     0.506,0.499,0.404,0.053,0.088:
00000000
00000000
00000000
00000000
,
00000000
00000000
00000000
00000000
,
00000000
00000000
00000000
00000000
,
00000000
00000000
00000000
00000000
,
00000000
00000000
00000000
00000000
,
00000000
00000000
00000000
00000000
,
00100000
00000000
01100000
00000000
00000000
01000000
00100000
00000000
,
00001000
00000000
00011000
00000000
00000000
00001000
00010000
00000000
,
00000100
00000000
00000110
00000000
00000000
00000010
00000100
00000000
,
00000001
00000000
00001000
00000001
00000000
00001000
00000001
00000000
00001000
00000000
00001000
00000000
00001000
00000000
00000000
00000000
,
00000001
00000100
00000001
00001000
00000001
00000100
00000001
00001000
,
00001100
00001100
00011000
00011000
,
10000000
00100000
10000000
00010000
10000000
00100000
10000000
00010000
,
10000000
00000000
01000000
00100000
00000000
01000000
00100000
00000000
00001000
00000000
00001000
00000000
00001000
00000000
00000000
00000000
,
00011000
00010000
00000010
00000001
,
00000010
00000000
00010000
00000000
00001000
10000000
10000000
10000000
,
00100000
00100000
01000000
01000000
00100000
00100000
01000000
01000000
,
00001000
00000000
00010000
00001000
00000000
00010000
00001000
00000000
00010000
00000000
00010000
00000000
00010000
00000000
00000000
00000000
,
00000110
00000000
00000100
00000010
00000001
00000010
00000100
00000000
,
00010000
00000100
00010000
00001000
01000000
00100000
10000000
00000000
,
01100000
00000000
00100000
01000000
10000000
01000000
00100000
00000000
,
00010000
00010000
00001000
00001000
00000010
00000100
00000001
00000000
,
00000110
00000000
00000100
00000010
00000001
00000010
00000100
00000000
,
00010000
00010000
00001000
00001000
01000000
00100000
10000000
00000000
,
00001000
00001000
00001000
00001000
00100000
01000000
10000000
00000000
,
00010000
00000000
00100000
01000000
00000000
00100000
01000000
00000000
10000000
00000000
10000000
00000000
10000000
00000000
00000000
00000000
,
00010000
00100000
10000000
00100000
00010000
00100000
10000000
00100000
,
00010000
10000000
00100000
01000000
00010000
00000000
00011000
00000000
,
00001000
00000100
00000001
00000100
00001000
00000100
00000001
00000100
,
00001000
00000010
00001000
00000100
00001000
00000000
00011000
00000000
,
00010000
00001000
01000000
10000000
01000000
00001000
00010000
00001000
,
00000000
00010000
00000100
00000001
00000100
00010000
00000010
00000100
,
00000000
00000001
00000010
00000200
00000000
00010000
00010000
00010300
,
00001000
00000000
00100000
01000000
00000000
00100000
01000000
00000000
10000000
00000000
10000000
00000000
10000000
00000000
00000000
00000000
,
00100000
00100000
01000000
01000000
00100000
00100000
01000000
01000000
,
00010000
00100000
01000000
10000000
00001000
00000000
00011000
00000000
,
00000100
00000100
00000010
00000010
00000100
00000100
00000010
00000010
,
00000001
00000100
00000010
00010000
00001000
00000000
00011000
00000000
,
00100000
00100000
01000000
01000000
00100000
00100000
01000000
01000000
,
10000000
00100000
01000000
00001000
00010000
00001000
01000000
00100000
,
20000000
00000000
00000000
00010000
00000000
00010000
00010000
30010000
,
10000000
00000000
01000000
00100000
00000000
01000000
00100000
00000000
00001000
00000000
00001000
00000000
00011000
00000000
00000000
00000000
,
00010000
00000010
00000100
00000010
00010000
00000010
00000100
00000001
,
00000101
00010001
00010010
00011000
,
00010000
10000000
01000000
10000000
00010000
10000000
01000000
10000000
,
11000000
10001000
00101000
00011000
,
00010000
00000100
00000010
00000100
00010000
00000100
00000010
00000000
,
00000001
00000100
00000010
00000100
00000001
00010000
00010000
00010000
,
00001000
00001000
01000000
01000000
00001000
00001000
01000000
01000000
,
00100000
00000000
10000000
01000000
00000000
10000000
01000000
00000000
00100000
00000000
00100000
00000000
01100000
00000000
00000000
00000000
,
00011000
00010010
00000110
00000011
,
00001002
00000000
00000000
00000013
00000100
00010000
00011000
00000000
,
01001000
01100000
10100000
11000000
,
10000000
00000000
00100000
01000000
00000000
00100000
01000000
00000000
00001000
00000000
00001000
00000000
00011000
00000000
00000000
00000000
,
00010100
00000110
00000011
00000110
,
00001002
00000000
00000000
00000103
00000010
00010000
00011000
00000000
,
01000000
01000000
00100000
00100000
01000000
01000000
00100000
00100000
,
10000000
00000000
01000000
00100000
00000000
01000000
00100000
00000000
00001000
00000000
00001000
00000000
00011000
00000000
00000000
00000000
,
00000010
00000000
00000100
00000001
00000000
00000100
00000001
00000000
00000110
00000000
00010010
00000000
00022000
00000000
00000000
00000000
,
00000000
00000000
00000000
00033000
;

//---------------dance-single - ----------------
#NOTES:
     dance-single:
     :
     Beginner:
     1:
     0.084,0.155,0.141,0.000,0.000: // measure 1
0000
0000
0000
0000
,  // measure 2
0000
0000
0000
0000
,  // measure 3
0000
0000
0000
0000
,  // measure 4
0000
0000
0000
0000
,  // measure 5
0000
0000
0000
0000
,  // measure 6
0000
0000
0000
0000
,  // measure 7
0001
0000
0000
0000
,  // measure 8
0001
0000
0000
0000
,  // measure 9
1000
0000
0000
0000
,  // measure 10
1000
0000
0000
0000
,  // measure 11
1001
0000
0000
0000
,  // measure 12
0010
0000
0000
0000
,  // measure 13
0100
0000
0000
0000
,  // measure 14
0010
0000
0000
0000
,  // measure 15
0110
0000
0000
0000
,  // measure 16
0000
0000
0000
0000
,  // measure 17
1000
0000
0000
0000
,  // measure 18
1001
0000
0000
0000
,  // measure 19
0001
0000
0000
0000
,  // measure 20
0000
0000
0000
0000
,  // measure 21
0010
0000
0000
0000
,  // measure 22
0000
0000
0000
0000
,  // measure 23
0100
0000
0000
0000
,  // measure 24
0000
0000
0000
0000
,  // measure 25
1000
0000
0000
0000
,  // measure 26
1000
0000
0000
0000
,  // measure 27
1001
0000
0000
0000
,  // measure 28
0010
0000
0000
0000
,  // measure 29
0100
0000
0000
0000
,  // measure 30
0010
0000
0000
0000
,  // measure 31
1000
0000
0000
0000
,  // measure 32
0001
0000
0000
0000
,  // measure 33
1000
0000
0000
0000
,  // measure 34
0010
0000
0000
0000
,  // measure 35
0110
0000
0000
0000
,  // measure 36
0010
0000
0000
0000
,  // measure 37
1001
0000
0000
0000
,  // measure 38
1000
0000
0000
0000
,  // measure 39
1001
0000
0000
0000
,  // measure 40
0001
0000
0000
0000
,  // measure 41
0100
0000
0000
0000
,  // measure 42
0110
0000
0000
0000
,  // measure 43
1001
0000
0000
0000
,  // measure 44
0001
0000
0001
0000
,  // measure 45
1001
0000
0000
0000
,  // measure 46
1000
0000
1000
0000
,  // measure 47
1001
0000
0000
0000
,  // measure 48
0000
0000
0000
0000
,  // measure 49
0100
0000
0010
0000
,  // measure 50
0100
0000
0000
0000
,  // measure 51
1001
0000
0000
0000
,  // measure 52
0010
0000
0000
0000
,  // measure 53
1001
0000
0000
0000
,  // measure 54
0010
0000
0000
0000
,  // measure 55
1001
0000
0000
0000
,  // measure 56
0100
0000
0000
0000
,  // measure 57
1001
0000
0000
0000
,  // measure 58
0100
0000
0000
0000
,  // measure 59
0000
0000
0000
0110
;
