#TITLE:Help me, ERINNNNNN!!;
#SUBTITLE:;
#ARTIST:ビートまりお(COOL&CREATE);
#TITLETRANSLIT:;
#SUBTITLETRANSLIT:;
#ARTISTTRANSLIT:beatMARIO(COOL&CREATE);
#CREDIT:DigiMindAxel;
#BANNER:Help me, ERINNNNNN!!.png;
#BACKGROUND:Help me, ERINNNNNN!!-bg.png;
#LYRICSPATH:;
#CDTITLE:DigiMindAxel original simfile.png;
#MUSIC:Help me, ERINNNNNN!!.ogg;
#METERTYPE:DDR X;
#OFFSET:-11.729;
#SAMPLESTART:41.485;
#SAMPLELENGTH:12.000;
#SELECTABLE:YES;
#BPMS:0.000=185.000;
#STOPS:;
#BGCHANGES:;

//---------------dance-single - ----------------
#NOTES:
     dance-single:
     :
     Easy:
     5:
     0.278,0.339,0.123,0.462,0.000: // measure 1
2000
3000
0002
0003
,  // measure 2
0000
0000
0000
0000
,  // measure 3
2000
3000
0002
0003
,  // measure 4
0000
0000
0000
0000
,  // measure 5
2000
3000
0002
0003
,  // measure 6
0000
0000
0000
0000
,  // measure 7
2000
3000
0002
0003
,  // measure 8
0000
0000
0000
0000
,  // measure 9
1000
0001
1000
0001
,  // measure 10
0000
0000
0000
0000
,  // measure 11
0010
0100
0010
0100
,  // measure 12
0000
0000
0000
0000
,  // measure 13
1000
0010
1000
0010
,  // measure 14
0000
0000
0000
0000
,  // measure 15
0100
0001
0100
0001
,  // measure 16
0000
0000
0000
0000
,  // measure 17
1001
0000
1001
0000
,  // measure 18
0000
0000
0000
0000
,  // measure 19
0110
0000
0110
0000
,  // measure 20
0000
0000
0000
0000
,  // measure 21
1001
0000
1001
0000
,  // measure 22
1001
0000
1001
0000
,  // measure 23
1001
0000
1001
0000
,  // measure 24
0001
1000
0100
0000
,  // measure 25
0020
0000
0032
0000
,  // measure 26
0013
0000
0100
0000
,  // measure 27
2000
0000
3020
0000
,  // measure 28
1030
0000
1000
0000
,  // measure 29
0002
0000
0203
0000
,  // measure 30
0310
0000
0010
0000
,  // measure 31
2000
0000
3200
0000
,  // measure 32
0310
0000
0010
0000
,  // measure 33
0001
0000
0010
0000
,  // measure 34
0001
0000
1000
0000
,  // measure 35
0010
0000
0100
0000
,  // measure 36
0010
0000
0000
0000
,  // measure 37
1000
0000
0010
0000
,  // measure 38
1000
0000
0001
0000
,  // measure 39
0010
0000
0001
0000
,  // measure 40
0010
0000
0000
0000
,  // measure 41
0100
0000
0010
0000
,  // measure 42
0100
0000
0010
0000
,  // measure 43
0001
0000
0100
0000
,  // measure 44
0001
0000
0000
0000
,  // measure 45
1000
0000
0010
0000
,  // measure 46
1000
0000
0001
0000
,  // measure 47
0100
0000
0100
0000
,  // measure 48
0110
0000
0000
0000
,  // measure 49
1001
0000
1001
0000
,  // measure 50
1001
0000
0000
0000
,  // measure 51
0000
0000
0000
0000
,  // measure 52
0001
0000
0000
0000
,  // measure 53
1001
0000
1001
0000
,  // measure 54
1001
0000
0000
0000
,  // measure 55
1000
0000
0001
0000
,  // measure 56
1000
0000
0000
0000
,  // measure 57
0200
0000
2300
0000
,  // measure 58
3020
0000
0230
0000
,  // measure 59
0302
0000
2003
0000
,  // measure 60
3001
0001
0001
0001
,  // measure 61
2000
0000
3200
0000
,  // measure 62
2300
0000
3002
0000
,  // measure 63
0203
0000
0320
0000
,  // measure 64
1030
1000
1000
1000
,  // measure 65
0002
0000
0023
0000
,  // measure 66
0032
0000
0203
0000
,  // measure 67
0320
0000
0230
0000
,  // measure 68
0301
0001
0001
0001
,  // measure 69
2000
0000
3200
0000
,  // measure 70
2300
0000
3002
0000
,  // measure 71
0203
0000
0320
0000
,  // measure 72
1030
1000
1000
0000
,  // measure 73
0002
0000
0023
0000
,  // measure 74
0032
0000
0203
0000
,  // measure 75
0320
0000
0230
0000
,  // measure 76
0301
0001
0001
0001
,  // measure 77
2000
0000
3200
0000
,  // measure 78
2300
0000
3002
0000
,  // measure 79
0203
0000
0320
0000
,  // measure 80
0130
0100
0100
0100
,  // measure 81
0002
0000
2003
0000
,  // measure 82
3200
0000
2300
0000
,  // measure 83
3002
0000
0203
0000
,  // measure 84
0310
0010
0010
0010
,  // measure 85
2000
0000
3002
0000
,  // measure 86
0023
0000
0230
0000
,  // measure 87
2300
0000
3002
0000
,  // measure 88
0103
0010
0100
0001
,  // measure 89
1000
0000
1000
0000
,  // measure 90
0100
0010
0001
1000
,  // measure 91
0100
0000
0100
0000
,  // measure 92
1000
0010
0100
0001
,  // measure 93
0010
0000
0010
0000
,  // measure 94
0001
0010
0100
1000
,  // measure 95
0001
0000
0000
0000
;

//---------------dance-single - ----------------
#NOTES:
     dance-single:
     :
     Medium:
     10:
     0.502,0.610,0.599,0.065,0.000: // measure 1
1000
1000
0001
0001
,  // measure 2
0000
0000
0000
0000
,  // measure 3
1000
1000
0001
0001
,  // measure 4
0000
0000
0000
0000
,  // measure 5
1000
1000
0001
0001
,  // measure 6
0000
0000
0000
0000
,  // measure 7
1000
1000
0001
0001
,  // measure 8
0000
0000
0000
1000
,  // measure 9
0001
0011
0001
0011
,  // measure 10
0100
0000
0100
0000
,  // measure 11
1000
1010
1000
1010
,  // measure 12
0100
0000
0100
0000
,  // measure 13
0001
1001
0001
1001
,  // measure 14
0010
0000
0010
0000
,  // measure 15
0100
1100
0100
1100
,  // measure 16
0010
0000
0010
0000
,  // measure 17
1001
1001
0110
0110
,  // measure 18
1000
0000
1000
0000
,  // measure 19
1001
1001
0110
0110
,  // measure 20
0001
0000
0001
0000
,  // measure 21
1001
1001
1001
1001
,  // measure 22
0110
0110
0110
0110
,  // measure 23
1001
1001
1001
1001
,  // measure 24
1100
0000
0100
1000
0001
0000
1001
0000
,  // measure 25
2000
0000
0000
0000
3200
0000
0000
1300
,  // measure 26
0000
0001
0100
0000
0001
0000
1000
0100
,  // measure 27
1000
0000
0001
1000
0001
0000
1000
0100
,  // measure 28
1000
0001
0101
0000
,  // measure 29
0200
0000
0000
0000
0320
0000
0000
1030
,  // measure 30
0000
0001
0010
0000
0100
0000
1000
0001
,  // measure 31
1000
0000
0001
0010
0001
0000
1000
0010
,  // measure 32
1000
0001
0011
0000
,  // measure 33
0100
0000
1000
0000
0100
0000
1000
0001
,  // measure 34
0000
1000
0001
1000
0000
0000
0000
0000
,  // measure 35
0010
0000
0100
0000
0010
0100
0010
0200
,  // measure 36
0000
0000
0000
0300
,  // measure 37
0001
0000
1000
0000
0001
0000
1000
0100
,  // measure 38
0000
1000
0100
1000
0000
0000
0000
0000
,  // measure 39
0100
0000
0010
0000
0100
0010
0100
0020
,  // measure 40
0000
0000
0001
0031
,  // measure 41
1000
0000
0010
0000
1000
0000
0010
0100
,  // measure 42
0000
0010
0100
0010
0000
0000
0000
0000
,  // measure 43
1000
0000
0001
0000
1000
0001
1000
0002
,  // measure 44
0000
0000
0000
0000
0003
0000
0010
0100
,  // measure 45
0010
0000
0100
0000
0010
0000
0100
1000
,  // measure 46
0000
0100
1000
0000
0010
0000
0100
0000
,  // measure 47
0001
0100
0001
0000
1000
0001
1000
0000
,  // measure 48
1001
1001
0110
0110
,  // measure 49
1000
1000
0001
0001
,  // measure 50
1000
0000
0100
0010
0001
0000
0011
0000
,  // measure 51
0020
0000
0000
0000
,  // measure 52
0230
0000
0000
0300
,  // measure 53
1000
1000
0001
0001
,  // measure 54
1000
0000
0010
0100
0001
0000
0101
0000
,  // measure 55
0100
0100
0001
0001
,  // measure 56
1001
0000
1100
0000
,  // measure 57
0010
0001
0010
0001
0010
0000
0001
1000
,  // measure 58
0000
0010
1000
0000
0001
0000
0010
0100
,  // measure 59
0010
0000
0001
0100
0001
0100
0001
0000
,  // measure 60
1001
1001
1001
1001
,  // measure 61
1000
0100
1000
0100
1000
0000
0010
0100
,  // measure 62
0000
0001
0100
0000
0010
0000
1000
0001
,  // measure 63
1000
0000
0100
1000
0100
1000
0010
0000
,  // measure 64
1001
1001
1001
1001
,  // measure 65
0001
0010
0001
0010
0001
0000
0100
0010
,  // measure 66
0000
1000
0100
0000
0010
0000
0001
0100
,  // measure 67
0001
0000
1000
0100
1000
0100
0010
0000
,  // measure 68
1001
1001
1001
1001
,  // measure 69
1000
0010
1000
0010
1000
0000
0001
0010
,  // measure 70
0000
0100
0010
0000
0001
0000
0100
0010
,  // measure 71
0100
0000
0001
1000
0100
1000
0100
0000
,  // measure 72
1001
0110
1001
0000
,  // measure 73
0001
0010
0001
0010
0100
0000
1000
0100
,  // measure 74
0000
0010
0100
0000
1000
0000
0010
0100
,  // measure 75
0010
0000
0100
0001
0100
0001
1000
0000
,  // measure 76
1001
1001
1001
1001
,  // measure 77
0001
0100
0001
0100
0010
0000
1000
0010
,  // measure 78
0000
1000
0001
0000
0010
0000
0100
0010
,  // measure 79
0100
0000
1000
0010
1000
0010
0100
0000
,  // measure 80
1001
1001
1001
1001
,  // measure 81
0001
0010
0001
0010
0100
0000
1000
0010
,  // measure 82
0000
1000
0001
0000
0010
0000
0100
0010
,  // measure 83
0100
0000
1000
0010
1000
0010
0100
0000
,  // measure 84
1001
1001
1001
1001
,  // measure 85
0001
0010
0001
0010
0100
0000
1000
0010
,  // measure 86
0000
0100
0010
0000
0100
0000
0001
0010
,  // measure 87
0100
1100
0010
0011
,  // measure 88
1001
0000
1001
0000
0001
1000
0010
1000
,  // measure 89
0001
0001
0010
0010
,  // measure 90
1001
1001
1001
1001
,  // measure 91
1000
1000
0010
0010
,  // measure 92
1001
1001
1001
1001
,  // measure 93
0001
0001
0010
0010
,  // measure 94
1001
1001
1001
1001
,  // measure 95
0010
0000
0000
0000
;

//---------------dance-single - ----------------
#NOTES:
     dance-single:
     :
     Hard:
     13:
     0.707,0.678,0.469,0.512,0.094: // measure 1
0100
1100
0100
1100
,  // measure 2
0000
0000
0000
0000
,  // measure 3
0010
0011
0010
0011
,  // measure 4
0000
0000
0000
0000
,  // measure 5
0010
1010
0010
1010
,  // measure 6
0000
0000
0000
0000
,  // measure 7
0100
0101
0100
0101
,  // measure 8
0000
0000
0000
0000
0000
0000
0010
0010
,  // measure 9
0012
1003
0012
1003
,  // measure 10
0001
0010
0100
1000
,  // measure 11
1020
0130
1020
0130
,  // measure 12
0001
0000
0010
0000
0100
0010
0100
0000
,  // measure 13
2001
3010
2001
3010
,  // measure 14
0100
0001
0010
0100
,  // measure 15
1002
0013
1002
0013
,  // measure 16
0100
0000
1000
0000
0010
0100
0010
0000
,  // measure 17
1010
1001
1010
1001
,  // measure 18
0001
0100
1000
0000
0100
0001
0100
0000
,  // measure 19
1100
1001
1100
1001
,  // measure 20
0001
0010
1000
0000
0010
0001
0010
0000
,  // measure 21
1100
1001
1100
1001
,  // measure 22
0101
1001
0101
1001
,  // measure 23
1100
0110
0011
0110
,  // measure 24
1000
0001
0000
0100
0000
0001
0000
1000
0100
0000
0000
0000
0000
0000
0000
0000
,  // measure 25
1000
0010
1000
0001
0010
0000
0000
1100
,  // measure 26
0000
0010
0001
1000
0010
0000
1000
0100
,  // measure 27
0001
0000
1000
0010
0001
1000
0100
0010
,  // measure 28
0100
0000
1100
0000
1001
0000
0001
0100
,  // measure 29
0010
1000
0001
0010
0100
0000
0000
1010
,  // measure 30
0000
0100
0001
1000
0100
0000
1000
0100
,  // measure 31
0001
0000
1000
0010
0001
1000
0010
0100
,  // measure 32
0020
0000
0000
0000
0130
0000
0001
0010
0100
0000
1000
0000
1001
0000
0000
0000
,  // measure 33
0002
0000
0203
0000
0302
0000
1003
0020
,  // measure 34
0000
0130
0001
0020
0000
0130
1000
0001
,  // measure 35
0200
0000
0302
0000
1003
0100
0010
0002
,  // measure 36
1000
0010
1000
0013
,  // measure 37
0002
0000
0023
0000
0032
0000
1003
0020
,  // measure 38
0000
0130
0001
0020
0000
0031
0010
0100
,  // measure 39
2000
0000
3020
0000
0130
0001
0010
0200
,  // measure 40
1000
0010
1300
1001
,  // measure 41
0001
0010
0200
0000
0310
0100
1000
0020
,  // measure 42
0000
1030
0001
0020
0000
0130
0010
0001
,  // measure 43
1000
0010
0200
0000
0310
0100
0001
0020
,  // measure 44
0100
0000
0001
0000
0100
0000
0031
1000
,  // measure 45
0100
1000
0020
0000
0130
0010
1000
0200
,  // measure 46
0000
1300
0100
0010
0002
0000
0103
0010
,  // measure 47
1000
0000
0100
0000
0020
0000
0000
0000
0130
0000
0000
0010
0000
0000
0001
0000
,  // measure 48
0100
0000
0010
0100
0010
0000
0100
0000
0001
0000
0010
0000
0100
0000
1000
0000
,  // measure 49
1020
0130
1020
0130
,  // measure 50
0001
0010
0100
1000
1020
0000
0130
0000
,  // measure 51
0001
0100
1000
0010
,  // measure 52
0001
1000
0100
0010
0001
1000
0010
1000
,  // measure 53
1002
0013
1002
0013
,  // measure 54
0100
0000
0000
1000
0000
0000
0001
0000
1000
0000
0010
0000
1000
0000
0000
0000
,  // measure 55
0100
0010
0100
1000
0001
0100
0010
0000
,  // measure 56
1010
0000
0000
0010
0000
0000
0010
0000
1001
0000
0000
0000
1000
0000
0001
0000
,  // measure 57
1000
0100
0001
0100
1000
0001
0010
0200
,  // measure 58
0000
1300
0010
1000
0001
0000
1000
0100
,  // measure 59
0001
0000
1000
0010
0001
1000
0100
0010
,  // measure 60
2100
0000
3001
0000
2100
0000
3001
1000
,  // measure 61
0010
0100
0001
0100
1000
0100
0001
0020
,  // measure 62
0000
0130
0010
0001
1000
0000
0001
0100
,  // measure 63
1000
0000
0001
0010
1000
0001
0010
0100
,  // measure 64
0012
0000
1000
1000
1000
0000
1003
0001
,  // measure 65
0010
0100
0010
0001
0100
0010
1000
0200
,  // measure 66
0000
0310
0100
1000
0020
0000
1030
0100
,  // measure 67
0001
0000
1000
0010
0001
1000
0010
0100
,  // measure 68
0102
0000
1003
0000
0102
0000
1003
0001
,  // measure 69
0100
0010
0100
0001
1000
0100
0010
0002
,  // measure 70
0000
0103
0010
0100
0002
0000
1003
0100
,  // measure 71
0001
0000
1000
0010
0001
1000
0010
1000
,  // measure 72
1001
0110
2002
3003
,  // measure 73
0001
0100
1000
0100
0001
1000
0100
0020
,  // measure 74
0000
0000
0031
0000
0100
0000
0010
0000
0100
0000
0001
1000
0100
0000
0010
0000
,  // measure 75
0002
0000
1003
0010
0001
0010
1000
0100
,  // measure 76
0012
0000
0103
0000
0012
0000
0103
0010
,  // measure 77
1000
0100
0001
0100
1000
0001
0010
0200
,  // measure 78
0000
0000
1300
0000
0010
0000
1000
0000
0001
0000
0010
0100
1000
0000
0010
0000
,  // measure 79
0200
0000
0301
0010
1000
0010
0001
1000
,  // measure 80
1020
0000
0100
0100
0100
0000
0130
0001
,  // measure 81
1000
0010
0001
0010
1000
0001
0010
0200
,  // measure 82
0000
0000
1300
0000
0010
0000
0100
0000
0010
0000
1000
0001
0010
0000
0100
0000
,  // measure 83
2000
0000
3001
0010
1000
0010
0001
1000
,  // measure 84
1020
0000
0130
0000
1020
0000
0130
0001
,  // measure 85
0010
1000
0010
0001
1000
0100
0010
0200
,  // measure 86
0000
1300
0010
0100
0002
0000
0013
0100
,  // measure 87
1000
0000
0001
0100
0001
0100
0001
0000
0010
0000
0100
0000
1000
0000
0001
0000
,  // measure 88
1001
0000
0110
0000
1001
0001
1000
0100
,  // measure 89
0010
0000
0001
0100
0001
0100
0001
0000
1000
0000
0100
1000
0100
1000
0100
0000
,  // measure 90
0020
0000
0130
0000
0020
0100
0130
0000
,  // measure 91
1000
0000
0010
0100
0010
0100
0010
0000
1000
0000
0001
0010
0001
0010
0001
0000
,  // measure 92
0200
0000
0310
0000
0200
0010
0310
0000
,  // measure 93
1000
0000
0100
0010
0100
0010
0100
0000
1000
0000
0001
0100
0001
0100
0001
0000
,  // measure 94
2000
0000
3100
0000
2000
0100
3100
0000
,  // measure 95
0010
0000
0000
0000
;

//---------------dance-single - ----------------
#NOTES:
     dance-single:
     :
     Beginner:
     1:
     0.075,0.203,0.051,0.000,0.000:
0001
0000
0000
0000
,
0000
0000
0000
0000
,
0001
0000
0000
0000
,
0000
0000
0000
0000
,
0001
0000
0000
0000
,
0000
0000
0000
0000
,
0001
0000
0000
0000
,
0000
0000
0000
0000
,
0001
0000
0000
0000
,
0000
0000
0000
0000
,
0001
0000
0000
0000
,
0000
0000
0000
0000
,
0001
0000
0000
0000
,
0000
0000
0000
0000
,
0001
0000
0000
0000
,
0000
0000
0000
0000
,
1001
0000
0000
0000
,
0000
0000
0000
0000
,
1001
0000
0000
0000
,
0000
0000
0000
0000
,
1001
0000
0000
0000
,
1001
0000
0000
0000
,
1001
0000
0000
0000
,
1001
0000
0000
0000
,
1000
0000
0000
0000
,
0010
0000
0000
0000
,
1000
0000
0000
0000
,
0001
0000
0000
0000
,
0010
0000
0000
0000
,
0001
0000
0000
0000
,
0010
0000
0000
0000
,
0100
0000
0000
0000
,
1000
0000
0000
0000
,
0000
0000
0000
0000
,
0010
0000
0000
0000
,
0000
0000
0000
0000
,
1000
0000
0000
0000
,
0000
0000
0000
0000
,
0001
0000
0000
0000
,
0000
0000
0000
0000
,
0010
0000
0000
0000
,
0000
0000
0000
0000
,
0100
0000
0000
0000
,
0000
0000
0000
0000
,
1000
0000
0000
0000
,
0000
0000
0000
0000
,
0001
0000
0000
0000
,
0100
0000
0000
0000
,
0001
0000
0000
0000
,
0000
0000
0000
0000
,
0000
0000
0000
0000
,
0000
0000
0000
0000
,
1000
0000
0000
0000
,
0100
0000
0000
0000
,
1000
0000
0000
0000
,
0001
0000
0000
0000
,
1001
0000
0000
0000
,
1000
0000
0000
0000
,
1000
0000
0000
0000
,
0000
0000
0000
0000
,
0001
0000
0000
0000
,
0001
0000
0000
0000
,
0001
0000
0000
0000
,
0000
0000
0000
0000
,
0010
0000
0000
0000
,
0100
0000
0000
0000
,
0010
0000
0000
0000
,
0000
0000
0000
0000
,
0100
0000
0000
0000
,
1000
0000
0000
0000
,
0100
0000
0000
0000
,
0000
0000
0000
0000
,
1000
0000
0000
0000
,
0001
0000
0000
0000
,
1000
0000
0000
0000
,
0000
0000
0000
0000
,
0001
0000
0000
0000
,
0100
0000
0000
0000
,
0001
0000
0000
0000
,
0000
0000
0000
0000
,
1000
0000
0000
0000
,
0010
0000
0000
0000
,
1000
0000
0000
0000
,
0000
0000
0000
0000
,
0001
0000
0000
0000
,
1000
0000
0000
0000
,
0001
0000
0000
0000
,
0010
0000
0000
0000
,
0100
0000
0000
0000
,
0000
0000
0000
0000
,
0010
0000
0000
0000
,
0000
0000
0000
0000
,
0001
0000
0000
0000
,
1000
0000
0000
0000
,
0010
0000
0000
0000
;
